<?xml version="1.0" standalone="no"?>
<!DOCTYPE svg PUBLIC "-//W3C//DTD SVG 1.1//EN" "http://www.w3.org/Graphics/SVG/1.1/DTD/svg11.dtd" >
<svg xmlns="http://www.w3.org/2000/svg">
<metadata></metadata>
<defs>
<font id="gothamultra_italic" horiz-adv-x="1312" >
<font-face units-per-em="2048" ascent="1638" descent="-410" />
<missing-glyph horiz-adv-x="520" />
<glyph unicode="&#xfb01;" horiz-adv-x="1484" d="M8 0l203 760h-131l96 358h131q45 177 139 271q120 120 363 120q147 0 283 -41l-78 -288q-64 22 -127 22q-56 0 -84.5 -20.5t-40.5 -67.5l-2 -8h235l-92 -346h-227l-203 -760h-465zM795 0l299 1118h465l-299 -1118h-465zM1108 1198l80 297h481l-80 -297h-481z" />
<glyph unicode="&#xfb02;" horiz-adv-x="1484" d="M8 0l203 760h-131l96 358h131q45 177 139 271q120 120 363 120q147 0 283 -41l-78 -288q-64 22 -127 22q-56 0 -84.5 -20.5t-40.5 -67.5l-2 -8h235l-92 -346h-227l-203 -760h-465zM795 0l401 1495h465l-401 -1495h-465z" />
<glyph unicode="&#xfb03;" horiz-adv-x="2353" d="M8 0l203 760h-131l96 358h131q45 177 139 271q120 120 363 120q147 0 283 -41l-78 -288q-64 22 -127 22q-56 0 -84.5 -20.5t-40.5 -67.5l-2 -8h235l-92 -346h-227l-203 -760h-465zM877 0l202 760h-131l96 358h132q45 177 139 271q120 120 362 120q147 0 283 -41l-78 -288 q-64 22 -127 22q-56 0 -84.5 -20.5t-40.5 -67.5l-2 -8h236l-92 -346h-228l-203 -760h-464zM1663 0l299 1118h465l-299 -1118h-465zM1976 1198l80 297h481l-79 -297h-482z" />
<glyph unicode="&#xfb04;" horiz-adv-x="2353" d="M8 0l203 760h-131l96 358h131q45 177 139 271q120 120 363 120q147 0 283 -41l-78 -288q-64 22 -127 22q-56 0 -84.5 -20.5t-40.5 -67.5l-2 -8h235l-92 -346h-227l-203 -760h-465zM877 0l202 760h-131l96 358h132q45 177 139 271q120 120 362 120q147 0 283 -41l-78 -288 q-64 22 -127 22q-56 0 -84.5 -20.5t-40.5 -67.5l-2 -8h236l-92 -346h-228l-203 -760h-464zM1663 0l401 1495h465l-401 -1495h-465z" />
<glyph horiz-adv-x="0" />
<glyph horiz-adv-x="682" />
<glyph unicode=" "  horiz-adv-x="520" />
<glyph unicode="&#x09;" horiz-adv-x="520" />
<glyph unicode="&#xa0;" horiz-adv-x="520" />
<glyph unicode="!" horiz-adv-x="655" d="M-59 0l98 369h475l-98 -369h-475zM180 446l39 680l84 308h520l-84 -308l-325 -680h-234z" />
<glyph unicode="&#x22;" horiz-adv-x="1128" d="M72 616l219 818h485v-11l-454 -807h-250zM639 616l219 818h485v-11l-454 -807h-250z" />
<glyph unicode="#" horiz-adv-x="1437" d="M-8 246l78 395h231l57 160h-196l78 395h258l84 238h321l-84 -238h223l84 238h322l-84 -238h168l-78 -395h-229l-58 -160h195l-78 -395h-256l-88 -246h-322l89 246h-226l-86 -246h-321l88 246h-170zM600 625h256l68 192h-256z" />
<glyph unicode="$" horiz-adv-x="1384" d="M-68 236l246 303q192 -131 387 -168l56 184q-233 64 -339 154t-106 245q0 98 45 184.5t128 152.5t211.5 104.5t285.5 38.5h22l33 118h213l-39 -139q241 -44 412 -172l-225 -323q-123 93 -299 137l-50 -168q222 -65 328.5 -153.5t106.5 -244.5q0 -217 -181 -353t-487 -136 h-18l-56 -201h-213l62 219q-308 52 -523 218zM629 1010q0 -32 23 -50.5t85 -35.5l45 161q-75 6 -114 -15t-39 -60zM748 350q74 -1 112.5 22t38.5 64q0 28 -20.5 46.5t-83.5 37.5z" />
<glyph unicode="%" horiz-adv-x="1978" d="M154 0l1445 1434h310l-1446 -1434h-309zM154 995q0 94 36.5 184t100.5 154q123 123 295 123q177 0 272.5 -98t95.5 -252q0 -94 -36.5 -184t-100.5 -154q-123 -123 -295 -123q-177 0 -272.5 98t-95.5 252zM428 1008q0 -49 28 -82t74 -33q51 0 88 37q62 62 62 164 q0 49 -28 81.5t-74 32.5q-52 0 -89 -37q-61 -61 -61 -163zM1108 328q0 94 36.5 184t100.5 154q122 122 295 122q177 0 273 -98t96 -252q0 -94 -36.5 -184t-100.5 -154q-123 -123 -295 -123q-177 0 -273 98.5t-96 252.5zM1382 340q0 -49 28.5 -82t74.5 -33q51 0 88 37 q61 61 61 164q0 49 -28 82t-74 33q-51 0 -88 -37q-62 -62 -62 -164z" />
<glyph unicode="&#x26;" horiz-adv-x="1439" d="M6 381q0 325 420 463q-55 113 -55 225q0 170 125.5 281.5t326.5 111.5q200 0 326.5 -108t126.5 -273q0 -77 -26 -140.5t-73 -110t-101 -79t-122 -59.5l88 -125q56 62 123 148l271 -189q-79 -122 -176 -219l92 -129l-291 -207l-84 125q-209 -121 -440 -121 q-252 0 -391.5 109.5t-139.5 296.5zM457 424q0 -53 39.5 -85t105.5 -32q75 0 158 45l-168 252q-66 -33 -100.5 -76t-34.5 -104zM739 1047q0 -70 33 -132q152 62 152 158q0 44 -24 69t-62 25q-43 0 -71 -34t-28 -86z" />
<glyph unicode="'" horiz-adv-x="571" d="M72 616l219 818h495v-11l-454 -807h-260z" />
<glyph unicode="(" horiz-adv-x="952" d="M66 459q0 392 282 674q232 232 594 327l117 -297q-210 -87 -348 -225q-209 -209 -209 -467q0 -135 54.5 -250.5t186.5 -261.5l-247 -252q-211 153 -320.5 337t-109.5 415z" />
<glyph unicode=")" horiz-adv-x="952" d="M-94 8q210 87 348 225q209 209 209 467q0 135 -55 250.5t-187 261.5l248 252q211 -153 320.5 -336.5t109.5 -414.5q0 -391 -283 -674q-234 -234 -593 -328z" />
<glyph unicode="*" horiz-adv-x="903" d="M147 1047l306 8l-260 162l192 186l160 -258l8 303l254 -68l-143 -268l268 145l72 -260l-306 -8l260 -162l-192 -186l-160 258l-8 -303l-254 68l143 268l-268 -146z" />
<glyph unicode="+" horiz-adv-x="1310" d="M84 518l109 406h350l92 344h422l-92 -344h350l-109 -406h-350l-92 -346h-422l92 346h-350z" />
<glyph unicode="," horiz-adv-x="583" d="M-176 -174q225 26 268 182h-186l127 471h475l-111 -413q-28 -100 -66.5 -169t-102.5 -123t-160.5 -82.5t-231.5 -35.5z" />
<glyph unicode="-" horiz-adv-x="864" d="M47 455l103 381h712l-102 -381h-713z" />
<glyph unicode="." horiz-adv-x="583" d="M-96 0l127 471h475l-127 -471h-475z" />
<glyph unicode="/" horiz-adv-x="1105" d="M-315 -262l1398 1896h383l-1398 -1896h-383z" />
<glyph unicode="0" horiz-adv-x="1478" d="M78 535q0 202 73.5 386.5t204.5 315.5q107 107 245 167t294 60q138 0 251.5 -46t186.5 -124t112.5 -180t39.5 -217q0 -201 -74 -386t-205 -316q-108 -108 -245.5 -168t-292.5 -60q-138 0 -251.5 46t-186.5 124.5t-112.5 180.5t-39.5 217zM559 578q0 -97 42.5 -146 t109.5 -49q81 0 149 68q66 66 105 179.5t39 223.5q0 97 -42.5 146t-109.5 49q-82 0 -150 -68q-65 -65 -104 -179t-39 -224z" />
<glyph unicode="1" horiz-adv-x="872" d="M150 0l270 1010l-219 -56l-13 373l459 117h361l-387 -1444h-471z" />
<glyph unicode="2" horiz-adv-x="1310" d="M-72 0l97 356l733 451q77 47 101 84t24 76q0 40 -25.5 64t-75.5 24q-60 0 -142.5 -48.5t-166.5 -129.5l-270 284q131 141 285.5 219t353.5 78q240 0 378 -117t138 -307q0 -69 -19.5 -130t-65 -125.5t-127.5 -129.5t-202 -131l-260 -143h541l-101 -375h-1196z" />
<glyph unicode="3" horiz-adv-x="1263" d="M-63 248l305 272q124 -155 297 -155q95 0 153 41t58 98q0 46 -38.5 70t-131.5 24h-183l-6 213l383 250h-532l100 373h1102l-90 -330l-416 -260q134 -41 206.5 -131t72.5 -209q0 -217 -140 -357q-85 -85 -220 -131.5t-304 -46.5q-404 0 -616 279z" />
<glyph unicode="4" horiz-adv-x="1429" d="M-2 596l958 848h533l-229 -858h172l-93 -338h-170l-67 -248h-465l65 248h-649zM481 580h312l96 360z" />
<glyph unicode="5" horiz-adv-x="1257" d="M-72 221l279 281q158 -146 346 -146q99 0 156 46.5t57 119.5q0 55 -42 90t-122 35q-111 0 -211 -74l-244 152l230 709h1024l-103 -379h-667l-49 -152q101 39 219 39q200 0 319 -104.5t119 -282.5q0 -235 -158 -393q-191 -191 -524 -191q-188 0 -356.5 73t-272.5 177z" />
<glyph unicode="6" horiz-adv-x="1359" d="M80 512q0 192 72.5 382t209.5 327q241 241 605 241q299 0 481 -147l-213 -330q-57 49 -132 80t-142 31q-166 0 -281 -115q-59 -59 -94 -143q140 104 325 104q162 0 274.5 -102.5t112.5 -274.5q0 -237 -168 -405q-89 -89 -212 -139t-261 -50q-133 0 -243.5 41t-184.5 115 q-149 149 -149 385zM522 440q0 -59 37 -96t96 -37q70 0 121 51q62 62 62 154q0 59 -36 96t-97 37q-70 0 -121 -51q-62 -62 -62 -154z" />
<glyph unicode="7" horiz-adv-x="1265" d="M-35 0l840 1038h-635l106 396h1176l-98 -361l-850 -1073h-539z" />
<glyph unicode="8" horiz-adv-x="1363" d="M33 377q0 140 86 241t248 148q-138 98 -138 262q0 82 40 157.5t114 136t191.5 96.5t259.5 36q247 0 398.5 -114t151.5 -281q0 -126 -79 -215.5t-222 -134.5q203 -93 203 -287q0 -197 -181.5 -319.5t-469.5 -122.5q-166 0 -302 47t-218 138.5t-82 211.5zM510 442 q0 -63 47.5 -98t106.5 -35q69 0 120.5 44t51.5 110q0 63 -46.5 98t-105.5 35q-70 0 -122 -44t-52 -110zM637 981q0 -60 44 -93.5t99 -33.5q66 0 116 42t50 105q0 60 -44.5 93.5t-100.5 33.5q-66 0 -115 -42t-49 -105z" />
<glyph unicode="9" horiz-adv-x="1359" d="M-29 141l213 330q69 -63 148.5 -97t150.5 -34q166 0 281 115q55 55 92 137q-149 -111 -326 -111q-162 0 -273.5 104t-111.5 279q0 242 170 412q89 89 211 138.5t260 49.5q134 0 244 -40.5t184 -114.5q150 -150 150 -385q0 -191 -73 -381.5t-210 -327.5 q-242 -242 -604 -242q-318 0 -506 168zM606 915q0 -60 36 -98.5t95 -38.5q70 0 123 56q62 65 62 157q0 64 -35 99q-38 38 -99 38q-67 0 -116 -49q-66 -66 -66 -164z" />
<glyph unicode=":" horiz-adv-x="604" d="M-86 0l127 471h475l-127 -471h-475zM86 647l127 471h475l-127 -471h-475z" />
<glyph unicode=";" horiz-adv-x="604" d="M-168 -182q225 26 268 182h-186l127 471h475l-110 -414q-28 -100 -66.5 -169t-103 -122.5t-161 -82t-231.5 -35.5zM86 647l127 471h475l-127 -471h-475z" />
<glyph unicode="&#x3c;" horiz-adv-x="1310" d="M102 500l119 438l1145 377l-123 -453l-690 -164l604 -163l-110 -412z" />
<glyph unicode="=" horiz-adv-x="1310" d="M25 246l104 391h1094l-107 -391h-1091zM172 805l107 391h1093l-106 -391h-1094z" />
<glyph unicode="&#x3e;" horiz-adv-x="1310" d="M31 123l123 452l690 164l-604 164l110 412l944 -377l-118 -438z" />
<glyph unicode="?" horiz-adv-x="1099" d="M98 0l101 369h475l-101 -369h-475zM199 1296q219 160 510 160q214 0 342.5 -104t128.5 -271q0 -85 -28.5 -159t-87 -137.5t-158 -109t-232.5 -67.5l-64 -162h-282l30 357l27 22q170 17 252 53.5t82 96.5q0 35 -26 55.5t-77 20.5q-121 0 -262 -101z" />
<glyph unicode="@" horiz-adv-x="1945" d="M82 479q0 198 77 379t209.5 314.5t321.5 212.5t402 79q192 0 347.5 -53.5t257.5 -147.5t157 -222t55 -277q0 -135 -30 -247.5t-80 -188.5t-116.5 -128.5t-138.5 -76t-147 -23.5q-116 0 -203.5 50.5t-134.5 130.5q-143 -170 -324 -170q-130 0 -217.5 99t-87.5 259 q0 168 65 309.5t177 223t246 81.5q93 0 157.5 -42.5t100.5 -108.5l49 147l370 -102l-157 -500q-21 -69 -21 -104q0 -51 33.5 -82t91.5 -31q49 0 98 34t91 96.5t68 163t26 220.5q0 129 -49 239.5t-140.5 192.5t-231.5 129t-312 47q-197 0 -370.5 -72.5t-294.5 -195t-191 -288 t-70 -347.5q0 -213 95.5 -374.5t269.5 -249.5t401 -88q114 0 211 21t209 69l32 -76q-212 -96 -454 -96q-251 0 -443.5 98.5t-298.5 279t-106 416.5zM829 553q0 -49 30.5 -80t80.5 -31q71 0 118.5 58t47.5 141q0 49 -31.5 80t-79.5 31q-72 0 -119 -58.5t-47 -140.5z" />
<glyph unicode="A" horiz-adv-x="1605" d="M-184 0l991 1444h475l217 -1444h-510l-24 193h-502l-125 -193h-522zM676 532h262l-39 349z" />
<glyph unicode="B" horiz-adv-x="1458" d="M-72 0l385 1434h635q547 0 547 -338q0 -133 -87.5 -234t-248.5 -143q105 -27 169.5 -101.5t64.5 -181.5q0 -94 -38.5 -171t-118 -137.5t-214 -94t-313.5 -33.5h-781zM492 362h231q86 0 136 34t50 89q0 90 -153 90h-207zM629 870h221q87 0 132.5 33.5t45.5 83.5 q0 44 -35 64t-112 20h-199z" />
<glyph unicode="C" horiz-adv-x="1488" d="M72 598q0 162 65.5 322.5t194.5 289.5q117 117 284 185.5t375 68.5q230 0 386.5 -112.5t201.5 -304.5l-428 -187q-23 86 -81 130t-142 44q-138 0 -236 -98q-57 -57 -88 -135t-31 -160q0 -115 63.5 -180.5t162.5 -65.5q156 0 278 150l332 -262q-239 -314 -657 -314 q-303 0 -491.5 171.5t-188.5 457.5z" />
<glyph unicode="D" horiz-adv-x="1527" d="M-72 0l385 1434h508q376 0 561 -185q156 -156 156 -420q0 -330 -235 -565q-264 -264 -752 -264h-623zM520 418h84q108 0 198 30.5t146 86.5q45 45 74 111.5t29 131.5q0 106 -60 166q-72 72 -231 72h-80z" />
<glyph unicode="E" horiz-adv-x="1378" d="M-72 0l385 1434h1223l-106 -394h-752l-39 -145h700l-92 -346h-700l-43 -156h762l-105 -393h-1233z" />
<glyph unicode="F" d="M-72 0l385 1434h1200l-110 -410h-721l-49 -182h670l-101 -373h-670l-124 -469h-480z" />
<glyph unicode="G" horiz-adv-x="1523" d="M70 608q0 170 61.5 321t177.5 267q127 127 307.5 197.5t399.5 70.5q192 0 356.5 -70t243.5 -167l-299 -307q-63 59 -151 94t-181 35q-196 0 -317 -121q-117 -117 -117 -297q0 -128 79.5 -197t198.5 -69q73 0 125 22l47 154h-235l78 307h690l-205 -731 q-111 -66 -256.5 -107t-294.5 -41q-109 0 -210.5 22.5t-192.5 73t-158.5 123.5t-107 181t-39.5 239z" />
<glyph unicode="H" horiz-adv-x="1552" d="M-72 0l385 1434h480l-138 -506h439l137 506h479l-385 -1434h-479l137 514h-438l-137 -514h-480z" />
<glyph unicode="I" horiz-adv-x="643" d="M-68 0l385 1434h480l-385 -1434h-480z" />
<glyph unicode="J" horiz-adv-x="1150" d="M-86 233l315 277q48 -73 96 -104t105 -31q66 0 115 49q51 51 92 199l219 811h467l-238 -887q-75 -276 -215 -416q-160 -160 -450 -160q-162 0 -296.5 70t-209.5 192z" />
<glyph unicode="K" horiz-adv-x="1470" d="M-72 0l385 1434h480l-140 -514l477 514h584l-653 -656l299 -778h-510l-172 461l-201 -201l-69 -260h-480z" />
<glyph unicode="L" horiz-adv-x="1247" d="M-72 0l385 1434h480l-275 -1024h653l-110 -410h-1133z" />
<glyph unicode="M" horiz-adv-x="1769" d="M-72 0l385 1434h473l172 -504l443 504h526l-385 -1434h-477l190 711l-467 -510h-8l-192 510l-191 -711h-469z" />
<glyph unicode="N" horiz-adv-x="1589" d="M-72 0l385 1434h449l325 -684l185 684h475l-385 -1434h-426l-340 713l-193 -713h-475z" />
<glyph unicode="O" horiz-adv-x="1628" d="M78 621q0 168 66 323t184 273q115 115 268 180t326 65q155 0 288.5 -50t226 -136.5t145 -206.5t52.5 -256q0 -168 -66 -323t-184 -273q-116 -116 -268 -181t-325 -65q-155 0 -289 50t-226.5 137t-145 207t-52.5 256zM559 664q0 -119 69.5 -195t194.5 -76q123 0 213 90 q55 55 86 131.5t31 155.5q0 118 -69.5 194t-194.5 76q-123 0 -213 -90q-55 -55 -86 -131t-31 -155z" />
<glyph unicode="P" horiz-adv-x="1361" d="M-72 0l385 1434h482q196 0 323.5 -38.5t208.5 -119.5q113 -113 113 -289q0 -243 -160 -403q-93 -93 -237 -144t-328 -51h-203l-104 -389h-480zM604 731h86q149 0 219 70q47 47 47 121q0 50 -34 84q-45 45 -144 45h-90z" />
<glyph unicode="Q" horiz-adv-x="1628" d="M78 621q0 168 66 323t184 273q115 115 268 180t326 65q155 0 288.5 -50t226 -136.5t145 -206.5t52.5 -256q0 -158 -60.5 -303t-168.5 -262l106 -142l-307 -200l-90 133q-155 -68 -323 -68q-155 0 -289 50t-226.5 137t-145 207t-52.5 256zM555 655q0 -121 68 -199.5 t200 -78.5h21l-131 176l307 201l102 -152q31 79 31 160q0 124 -69.5 201t-194.5 77t-215 -90q-57 -57 -88 -134t-31 -161z" />
<glyph unicode="R" horiz-adv-x="1460" d="M-72 0l385 1434h559q375 0 529 -154q112 -112 112 -299q0 -215 -139 -354q-98 -98 -260 -150l199 -477h-516l-160 410h-94h-25l-110 -410h-480zM608 752h174q138 0 203 65q41 41 41 98q0 45 -31 76q-41 41 -141 41h-170z" />
<glyph unicode="S" horiz-adv-x="1337" d="M-74 231l275 328q243 -203 483 -203q47 0 75.5 17t28.5 47q0 24 -17 40t-61.5 35.5t-156.5 61.5q-210 77 -300.5 164.5t-90.5 239.5q0 182 135 317q87 87 217.5 135.5t292.5 48.5q189 0 354.5 -57t284.5 -158l-275 -327q-87 71 -196 115t-217 44q-105 0 -105 -57 q0 -30 33.5 -47t196.5 -78q98 -36 166.5 -72t123.5 -84.5t82 -112t27 -143.5q0 -198 -137 -335q-84 -84 -215 -131.5t-297 -47.5q-208 0 -390.5 69t-316.5 191z" />
<glyph unicode="T" horiz-adv-x="1372" d="M150 1028l108 406h1323l-108 -406h-422l-277 -1028h-479l276 1028h-421z" />
<glyph unicode="U" horiz-adv-x="1548" d="M78 487q0 111 31 232l192 715h487l-200 -746q-17 -70 -17 -113q0 -89 50.5 -134.5t146.5 -45.5q94 0 154 60q61 61 102 209l207 770h487l-227 -844q-75 -280 -225 -430q-189 -189 -568 -189q-300 0 -460 135.5t-160 380.5z" />
<glyph unicode="V" horiz-adv-x="1544" d="M193 1434h526l61 -805l496 805h539l-969 -1444h-459z" />
<glyph unicode="W" horiz-adv-x="2244" d="M215 1434h492l18 -689l416 693h413l48 -693l387 689h503l-856 -1444h-417l-62 712l-442 -712h-418z" />
<glyph unicode="X" horiz-adv-x="1484" d="M-201 0l705 754l-289 680h518l133 -349l310 349h555l-656 -701l314 -733h-519l-153 406l-363 -406h-555z" />
<glyph unicode="Y" horiz-adv-x="1441" d="M172 1434h504l117 -480l372 480h568l-815 -947l-132 -487h-479l146 547z" />
<glyph unicode="Z" horiz-adv-x="1378" d="M-109 0l91 336l817 704h-604l106 394h1272l-90 -336l-819 -705h628l-104 -393h-1297z" />
<glyph unicode="[" horiz-adv-x="964" d="M-86 -266l457 1700h753l-77 -285h-359l-303 -1131h358l-75 -284h-754z" />
<glyph unicode="\" horiz-adv-x="1105" d="M207 1634h366l420 -1896h-366z" />
<glyph unicode="]" horiz-adv-x="964" d="M-147 -266l77 284h359l303 1131h-359l76 285h754l-457 -1700h-753z" />
<glyph unicode="^" horiz-adv-x="1024" d="M190 1010l400 420h311l174 -420h-299l-82 157l-168 -157h-336z" />
<glyph unicode="_" horiz-adv-x="1228" d="M-242 -328l64 238h1237l-64 -238h-1237z" />
<glyph unicode="`" horiz-adv-x="1024" d="M395 1464l459 117l90 -393h-287z" />
<glyph unicode="a" horiz-adv-x="1239" d="M-10 281q0 156 100 256q133 133 399 133q130 0 254 -37l5 12q8 28 8 55q0 109 -172 109q-77 0 -162.5 -13.5t-142.5 -35.5l-62 315q196 60 461 60q271 0 407 -96.5t136 -268.5q0 -74 -21 -156l-164 -614h-465l31 113q-84 -71 -153.5 -104.5t-159.5 -33.5 q-132 0 -215.5 82t-83.5 224zM438 328q0 -41 21.5 -64.5t54.5 -23.5q56 0 108 51.5t72 128.5l13 47q-47 12 -86 12q-97 0 -144 -47q-39 -39 -39 -104z" />
<glyph unicode="b" horiz-adv-x="1374" d="M-78 0l400 1495h464l-131 -491q62 63 147.5 102t172.5 39q155 0 260.5 -118t105.5 -318q0 -172 -59 -322.5t-162 -253.5q-160 -160 -366 -160q-219 0 -328 170l-39 -143h-465zM510 514q0 -71 42 -115.5t107 -44.5q82 0 144 62q76 76 76 190q0 71 -42.5 115.5t-107.5 44.5 q-82 0 -143 -61q-76 -76 -76 -191z" />
<glyph unicode="c" horiz-adv-x="1157" d="M29 449q0 293 202 495q95 95 219.5 147t264.5 52q197 0 325.5 -101.5t161.5 -263.5l-368 -147q-31 135 -144 135q-76 0 -133 -57q-40 -40 -63 -100t-23 -122t35.5 -99.5t91.5 -37.5q48 0 87.5 22.5t82.5 71.5l313 -208q-184 -265 -528 -265q-150 0 -268 56t-187 165.5 t-69 256.5z" />
<glyph unicode="d" horiz-adv-x="1374" d="M33 410q0 172 59 322t162 253q160 160 367 160q218 0 327 -170l139 520h465l-399 -1495h-465l31 115q-62 -64 -147.5 -103t-172.5 -39q-155 0 -260.5 118.5t-105.5 318.5zM496 512q0 -71 42 -115.5t107 -44.5q81 0 143 62q76 76 76 190q0 71 -42 115.5t-107 44.5 q-82 0 -144 -62q-75 -75 -75 -190z" />
<glyph unicode="e" horiz-adv-x="1220" d="M33 465q0 136 51.5 264t146.5 223q193 193 482 193q107 0 192.5 -28t140.5 -74.5t91.5 -110.5t51.5 -131.5t15 -141.5q0 -104 -33 -208h-718q5 -69 48.5 -109.5t119.5 -40.5q106 0 225 90l215 -235q-206 -183 -479 -183q-253 0 -401 135t-148 357zM481 655h316q8 21 8 50 q0 48 -33 83t-88 35q-78 0 -137 -59q-44 -44 -66 -109z" />
<glyph unicode="f" horiz-adv-x="868" d="M8 0l203 760h-131l96 358h131q45 177 139 271q120 120 363 120q147 0 283 -41l-78 -288q-64 22 -127 22q-56 0 -84.5 -20.5t-40.5 -67.5l-2 -8h235l-92 -346h-227l-203 -760h-465z" />
<glyph unicode="g" horiz-adv-x="1361" d="M-123 -180l184 270q95 -54 198 -81t192 -27q146 0 223 77q57 57 82 158l4 16q-137 -127 -330 -127q-72 0 -139 25.5t-121.5 72.5t-87.5 121t-33 164q0 141 51.5 274.5t145.5 227.5q152 152 364 152q108 0 197 -47t141 -123l39 145h465l-235 -878q-72 -269 -203 -400 q-89 -89 -221.5 -130.5t-329.5 -41.5q-151 0 -314.5 43t-271.5 109zM498 565q0 -63 41.5 -105t111.5 -42q80 0 135 55q68 68 68 164q0 64 -42 107.5t-112 43.5q-80 0 -135 -55q-67 -67 -67 -168z" />
<glyph unicode="h" d="M-78 0l402 1495h464l-139 -516q60 73 147.5 119.5t186.5 46.5q152 0 236 -91.5t84 -250.5q0 -87 -27 -189l-164 -614h-465l150 557q12 43 12 84q0 46 -24.5 72t-73.5 26q-67 0 -108 -44.5t-66 -137.5l-150 -557h-465z" />
<glyph unicode="i" horiz-adv-x="616" d="M-74 0l299 1118h465l-299 -1118h-465zM240 1198l79 297h482l-80 -297h-481z" />
<glyph unicode="j" horiz-adv-x="622" d="M-285 -319l72 268h20q69 0 99.5 33t58.5 137l266 999h465l-284 -1061q-32 -116 -76.5 -191.5t-111 -120t-148.5 -62t-199 -17.5q-68 0 -162 15zM246 1198l80 297h481l-80 -297h-481z" />
<glyph unicode="k" horiz-adv-x="1243" d="M-78 0l402 1495h464l-186 -690l299 313h531l-490 -479l197 -639h-484l-84 324l-133 -134l-51 -190h-465z" />
<glyph unicode="l" horiz-adv-x="616" d="M-74 0l402 1495h465l-402 -1495h-465z" />
<glyph unicode="m" horiz-adv-x="2021" d="M-78 0l299 1118h465l-35 -131q61 69 145.5 113.5t182.5 44.5q110 0 183 -50t106 -134q175 184 409 184q165 0 250.5 -90t85.5 -248q0 -87 -28 -193l-164 -614h-465l149 557q13 47 13 84q0 98 -95 98q-63 0 -104 -44.5t-66 -137.5l-149 -557h-465l149 557q13 47 13 84 q0 98 -94 98q-63 0 -104 -44.5t-66 -137.5l-150 -557h-465z" />
<glyph unicode="n" d="M-78 0l299 1118h465l-37 -139q60 73 147.5 119.5t186.5 46.5q152 0 236 -91.5t84 -250.5q0 -87 -27 -189l-164 -614h-465l150 557q12 43 12 84q0 46 -24.5 72t-73.5 26q-67 0 -108 -44.5t-66 -137.5l-150 -557h-465z" />
<glyph unicode="o" horiz-adv-x="1302" d="M37 494q0 128 50 246t142 210t214.5 143.5t263.5 51.5q129 0 235.5 -40.5t176.5 -110.5t108.5 -165t38.5 -204q0 -128 -50.5 -246.5t-142.5 -210.5t-214 -143.5t-263 -51.5q-129 0 -235.5 40.5t-176.5 111t-108.5 165.5t-38.5 204zM475 514q0 -71 41.5 -116.5 t108.5 -45.5q71 0 127 56q75 75 75 196q0 71 -41 116.5t-108 45.5q-72 0 -127 -55q-76 -76 -76 -197z" />
<glyph unicode="p" horiz-adv-x="1374" d="M-166 -328l387 1446h465l-31 -114q62 63 147.5 102t172.5 39q155 0 260.5 -118t105.5 -318q0 -172 -59 -322.5t-162 -253.5q-160 -160 -366 -160q-219 0 -328 170l-127 -471h-465zM510 514q0 -71 42 -115.5t107 -44.5q82 0 144 62q76 76 76 190q0 71 -42.5 115.5 t-107.5 44.5q-82 0 -143 -61q-76 -76 -76 -191z" />
<glyph unicode="q" horiz-adv-x="1374" d="M33 410q0 172 59 322t162 253q160 160 367 160q218 0 327 -170l39 143h465l-387 -1446h-465l119 443q-62 -64 -147.5 -103t-172.5 -39q-155 0 -260.5 118.5t-105.5 318.5zM496 512q0 -71 42 -115.5t107 -44.5q81 0 143 62q76 76 76 190q0 71 -42 115.5t-107 44.5 q-82 0 -144 -62q-75 -75 -75 -190z" />
<glyph unicode="r" horiz-adv-x="903" d="M-78 0l299 1118h465l-59 -225q166 242 393 242h20l-131 -494h-49q-162 0 -256.5 -87.5t-142.5 -274.5l-74 -279h-465z" />
<glyph unicode="s" horiz-adv-x="1069" d="M-102 160l204 266q77 -62 193 -107t209 -45q33 0 49 11t16 28q0 27 -34 47.5t-140 59.5q-151 55 -228 127.5t-77 195.5q0 174 140 288t384 114q161 0 300 -43t229 -111l-205 -266q-70 48 -165.5 83.5t-174.5 35.5q-74 0 -74 -37q0 -23 28.5 -38.5t133.5 -53.5 q59 -21 102 -40.5t86 -49t70 -63t43.5 -81t16.5 -104.5q0 -58 -16 -113.5t-54.5 -109t-95.5 -93t-145 -64t-197 -24.5q-180 0 -333.5 51.5t-264.5 135.5z" />
<glyph unicode="t" horiz-adv-x="909" d="M70 760l96 358h131l76 281h465l-76 -281h258l-96 -358h-258l-64 -240q-14 -52 -14 -86q0 -72 94 -72q43 0 135 25l-100 -379q-132 -33 -236 -33q-389 0 -389 306q0 61 23 155l86 324h-131z" />
<glyph unicode="u" d="M23 315q0 91 26 189l164 614h465l-150 -557q-12 -44 -12 -84q0 -46 24.5 -72t73.5 -26q67 0 108 44.5t66 137.5l150 557h465l-299 -1118h-465l37 139q-60 -73 -147.5 -119.5t-186.5 -46.5q-152 0 -235.5 91.5t-83.5 250.5z" />
<glyph unicode="v" horiz-adv-x="1331" d="M160 1118h477l31 -561l331 561h492l-754 -1126h-426z" />
<glyph unicode="w" horiz-adv-x="1763" d="M162 1118h434l-6 -450l258 454h371l14 -458l240 454h448l-643 -1126h-383l-21 479l-282 -479h-393z" />
<glyph unicode="x" horiz-adv-x="1226" d="M-152 0l525 575l-219 543h473l71 -229l189 229h506l-519 -567l224 -551h-473l-76 238l-195 -238h-506z" />
<glyph unicode="y" horiz-adv-x="1335" d="M-121 -250l180 342q94 -65 187 -65q36 0 73 12l-153 1079h471l39 -588l334 588h483l-690 -1079q-131 -205 -267.5 -289t-324.5 -84q-199 0 -332 84z" />
<glyph unicode="z" horiz-adv-x="1144" d="M-106 0l77 291l584 463h-440l96 364h1059l-78 -291l-584 -462h461l-98 -365h-1077z" />
<glyph unicode="{" horiz-adv-x="1032" d="M20 449l74 278h43q164 0 232 68q58 58 80 198q1 7 5.5 36t6.5 39t7 36.5t9 39t11 36t15 38.5t18.5 34t23.5 35.5t28 31.5q72 72 209 108.5t365 36.5l31 -247q-180 -11 -258 -89q-31 -31 -50.5 -77.5t-25 -76t-15.5 -95.5q-21 -146 -90 -215q-79 -79 -256 -101 q179 -40 179 -207q0 -58 -21 -133q-27 -94 -27 -137q0 -62 41.5 -96t145.5 -47l-113 -232q-116 7 -204 25.5t-141.5 44.5t-87 61.5t-46 72.5t-12.5 81q0 64 26 162q31 128 31 166q0 63 -42.5 94t-148.5 31h-43z" />
<glyph unicode="|" horiz-adv-x="737" d="M-25 -262l508 1896h348l-509 -1896h-347z" />
<glyph unicode="}" horiz-adv-x="1032" d="M-129 -41q181 11 258 88q19 19 33.5 44.5t22 42.5t16 56t10 49t8.5 58q21 146 90 215q78 78 256 100q-178 40 -178 207q0 58 21 133q26 91 26 138q0 62 -41 96t-145 47l112 231q144 -8 244 -33.5t152.5 -65.5t74 -84.5t21.5 -100.5q0 -60 -27 -162q-30 -124 -30 -166 q0 -63 42 -94t148 -31h43l-74 -278h-43q-163 0 -231 -68q-57 -57 -80 -199q0 -2 -5.5 -35.5t-7 -39.5t-7 -36t-9.5 -39.5t-11 -35t-15 -38.5t-18.5 -33.5t-23.5 -36.5t-28 -31q-72 -72 -208.5 -109t-364.5 -37z" />
<glyph unicode="~" horiz-adv-x="1024" d="M55 520q62 159 152.5 237.5t191.5 78.5q89 0 183 -66q68 -47 102 -47q36 0 65.5 28t61.5 85l199 -84q-62 -159 -152.5 -237.5t-191.5 -78.5q-89 0 -183 66q-68 47 -102 47q-36 0 -65.5 -28t-61.5 -85z" />
<glyph unicode="&#xa1;" horiz-adv-x="655" d="M-82 0l84 307l326 680h233l-39 -680l-84 -307h-520zM227 1065l99 369h475l-99 -369h-475z" />
<glyph unicode="&#xa2;" horiz-adv-x="1198" d="M88 639q0 141 52 266.5t147 220.5q93 93 217.5 145t267.5 52q23 0 33 -2l49 125h238l-70 -176q99 -45 162.5 -126t85.5 -186l-324 -129q-14 84 -63 123l-183 -471q93 20 170 119l275 -182q-188 -266 -512 -266h-51l-64 -164h-237l84 215q-133 57 -205 170t-72 266z M459 670q0 -90 49 -142l182 465q-77 -9 -133 -65q-48 -48 -73 -117.5t-25 -140.5z" />
<glyph unicode="&#xa3;" horiz-adv-x="1267" d="M-63 0l71 266l168 66l57 209h-151l78 288h151l11 43q67 276 213 422q166 166 456 166q134 0 257 -50.5t186 -127.5l-283 -309q-77 80 -170 80q-71 0 -123 -52q-41 -41 -63 -124l-13 -48h383l-78 -288h-382l-50 -185h543l-96 -356h-1165z" />
<glyph unicode="&#xa5;" horiz-adv-x="1482" d="M25 193l71 268h377l21 80h-375l71 268h279l-244 625h498l127 -414l313 414h561l-569 -625h268l-71 -268h-375l-23 -80h375l-72 -268h-376l-52 -193h-479l51 193h-376z" />
<glyph unicode="&#xa7;" horiz-adv-x="1267" d="M-2 164l209 256q71 -62 177 -107t185 -45q72 0 72 43q0 24 -36.5 42.5t-153.5 56.5q-163 52 -251.5 120t-88.5 168q0 198 235 258q-59 69 -59 164q0 69 31.5 130t91 109.5t155.5 76.5t217 28q170 0 324.5 -53.5t247.5 -140.5l-209 -256q-71 62 -177.5 106.5t-185.5 44.5 q-71 0 -71 -43q0 -24 36 -41.5t154 -56.5q163 -52 251.5 -120.5t88.5 -168.5q0 -60 -21 -107t-57.5 -76.5t-74.5 -47t-82 -27.5q59 -75 59 -164q0 -144 -129.5 -244t-366.5 -100q-170 0 -324 54t-247 141zM436 778q0 -27 39 -50.5t141 -61.5q165 -62 220 -62q79 0 79 51 q0 27 -39 51.5t-141 61.5q-163 61 -219 61q-80 0 -80 -51z" />
<glyph unicode="&#xa8;" horiz-adv-x="1024" d="M262 1188l84 307h377l-84 -307h-377zM721 1188l84 307h377l-84 -307h-377z" />
<glyph unicode="&#xa9;" horiz-adv-x="1699" d="M156 625q0 169 64 327t183 277q111 111 255.5 173t312.5 62q195 0 346 -87t231 -235.5t80 -332.5q0 -168 -64.5 -326.5t-183.5 -277.5q-236 -236 -567 -236q-195 0 -346 87t-231 236t-80 333zM242 631q0 -164 66.5 -294t198.5 -208t310 -78q293 0 496 203 q112 112 170.5 252.5t58.5 296.5q0 122 -39 227.5t-111 183.5t-181 123t-242 45q-296 0 -498 -202q-112 -112 -170.5 -252.5t-58.5 -296.5zM487 666q0 90 34 175.5t100 151.5q142 142 350 142q133 0 224 -62.5t116 -169.5l-238 -100q-9 47 -44 71.5t-83 24.5q-76 0 -131 -55 q-61 -61 -61 -156q0 -63 37 -98t94 -35q84 0 151 82l185 -145q-140 -173 -369 -173q-162 0 -263.5 94t-101.5 253z" />
<glyph unicode="&#xaa;" horiz-adv-x="819" d="M82 541l49 178h631l-49 -178h-631zM197 979q0 98 73 156.5t201 58.5q57 0 139 -25l4 11q4 8 4 30q0 60 -90 60q-84 0 -163 -27l-33 172q109 33 248 33q147 0 220.5 -52.5t73.5 -146.5q0 -39 -12 -86l-90 -338h-256l19 62q-45 -39 -84.5 -57.5t-90.5 -18.5 q-72 0 -117.5 45t-45.5 123zM444 1006q0 -23 11.5 -36.5t29.5 -13.5q30 0 59.5 27.5t39.5 69.5l6 24q-29 10 -53 10q-39 0 -66 -22.5t-27 -58.5z" />
<glyph unicode="&#xab;" horiz-adv-x="1265" d="M29 512l49 180l432 387l215 -213l-289 -319l142 -359l-295 -129zM537 537l6 24l532 486l215 -213l-309 -340l121 -318l-295 -129z" />
<glyph unicode="&#xad;" horiz-adv-x="864" d="M47 455l103 381h712l-102 -381h-713z" />
<glyph unicode="&#xae;" horiz-adv-x="753" d="M166 1051q0 169 117 286t276 117q142 0 230 -90t88 -223q0 -170 -117 -287t-277 -117q-142 0 -229.5 90t-87.5 224zM207 1055q0 -120 75.5 -199.5t204.5 -79.5q139 0 240 101q109 109 109 260q0 120 -75.5 199t-205.5 79q-140 0 -240 -100q-108 -108 -108 -260zM307 915 l101 377h153q78 0 121 -30t43 -88q0 -49 -28.5 -83.5t-78.5 -48.5l54 -127h-135l-43 107h-31l-29 -107h-127zM487 1114h50q37 0 53 16q10 10 10 27q0 31 -43 31h-49z" />
<glyph unicode="&#xaf;" horiz-adv-x="1024" d="M285 1198l67 256h799l-68 -256h-798z" />
<glyph unicode="&#xb0;" horiz-adv-x="940" d="M188 1022q0 184 125 309q121 121 299 121q166 0 266.5 -101t100.5 -247q0 -184 -125 -309q-121 -121 -299 -121q-166 0 -266.5 101t-100.5 247zM438 1036q0 -60 36 -98.5t93 -38.5q62 0 105 43q57 57 57 148q0 60 -36 98.5t-93 38.5q-61 0 -104 -43q-58 -58 -58 -148z " />
<glyph unicode="&#xb1;" horiz-adv-x="1310" d="M-47 0l84 315h1108l-84 -315h-1108zM154 762l94 348l368 -2l84 326h377l-88 -326l369 2l-94 -348l-367 2l-86 -326h-377l90 326z" />
<glyph unicode="&#xb2;" horiz-adv-x="819" d="M156 848l51 201l393 251q45 30 64.5 52.5t19.5 46.5q0 51 -59 51q-65 0 -176 -92l-134 166q83 75 172 115t207 40q127 0 199 -58t72 -157q0 -53 -17.5 -97.5t-54 -83t-78 -68.5t-102.5 -66l-144 -84h310l-60 -217h-663z" />
<glyph unicode="&#xb3;" horiz-adv-x="819" d="M152 981l180 147q76 -92 186 -92q46 0 78.5 21.5t32.5 58.5q0 66 -101 66h-104v121l235 147h-317l55 209h621l-51 -191l-240 -145q76 -14 122 -62t46 -128q0 -95 -59.5 -167.5t-147 -107.5t-184.5 -35q-231 0 -352 158z" />
<glyph unicode="&#xb4;" horiz-adv-x="1024" d="M395 1188l303 393l447 -117l-414 -276h-336z" />
<glyph unicode="&#xb6;" horiz-adv-x="1218" d="M106 858q0 233 150 383q193 193 573 193h547l-383 -1434h-479l115 434q-292 20 -422 150q-101 101 -101 274z" />
<glyph unicode="&#xb7;" horiz-adv-x="583" d="M12 410l127 471h475l-127 -471h-475z" />
<glyph unicode="&#xb8;" horiz-adv-x="1024" d="M-4 -201l258 242h301l-223 -395z" />
<glyph unicode="&#xb9;" horiz-adv-x="665" d="M313 1386v205l308 82h200l-219 -825h-276l153 577z" />
<glyph unicode="&#xba;" horiz-adv-x="823" d="M94 541l47 178h590l-47 -178h-590zM207 1094q0 141 104 245q107 107 264 107q142 0 225 -82t83 -209q0 -67 -27.5 -131.5t-77.5 -114.5q-106 -106 -264 -106q-142 0 -224.5 81.5t-82.5 209.5zM449 1100q0 -39 22.5 -64.5t58.5 -25.5q40 0 68 28q43 43 43 111 q0 39 -23 64.5t-59 25.5q-38 0 -67 -29q-43 -43 -43 -110z" />
<glyph unicode="&#xbb;" horiz-adv-x="1265" d="M-25 293l310 340l-121 317l295 129l270 -489l-6 -25l-533 -485zM541 260l288 320l-141 358l295 129l254 -453l-49 -180l-432 -387z" />
<glyph unicode="&#xbc;" horiz-adv-x="1689" d="M51 0l725 748l629 686h182l-727 -748l-627 -686h-182zM199 1161v205l307 82h201l-220 -825h-276l154 577zM791 129l18 199l455 491h319l-133 -502h92l-51 -188h-92l-35 -133h-264l35 133h-344zM1026 309h166l70 264z" />
<glyph unicode="&#xbd;" horiz-adv-x="1689" d="M31 0l725 748l628 686h183l-727 -748l-627 -686h-182zM199 1161v205l307 82h201l-220 -825h-276l154 577zM776 0l51 201l394 252q46 30 65 52t19 46q0 51 -60 51q-65 0 -176 -92l-133 166q83 75 172 115t207 40q127 0 198.5 -58t71.5 -157q0 -53 -17.5 -97.5t-54 -83 t-78 -68.5t-102.5 -66l-143 -84h309l-59 -217h-664z" />
<glyph unicode="&#xbe;" horiz-adv-x="1843" d="M47 756l180 147q76 -92 187 -92q46 0 78 21.5t32 58.5q0 65 -100 65h-105v121l236 148h-317l55 209h620l-51 -191l-239 -145q76 -14 122 -62.5t46 -128.5q0 -72 -34.5 -132t-91 -97.5t-125.5 -58.5t-141 -21q-231 0 -352 158zM195 0l725 748l628 686h183l-727 -748 l-627 -686h-182zM944 129l19 199l454 491h320l-133 -502h92l-51 -188h-93l-34 -133h-265l35 133h-344zM1180 309h166l69 264z" />
<glyph unicode="&#xbf;" horiz-adv-x="1099" d="M6 352q0 85 28.5 159t87 137.5t158 109t232.5 67.5l63 162h283l-31 -356l-26 -23q-170 -17 -252 -53t-82 -96q0 -35 25.5 -55.5t76.5 -20.5q123 0 262 100l156 -346q-219 -160 -510 -160q-214 0 -342.5 104t-128.5 271zM512 1065l100 369h475l-100 -369h-475z" />
<glyph unicode="&#xc0;" horiz-adv-x="1605" d="M-184 0l991 1444h475l217 -1444h-510l-24 193h-502l-125 -193h-522zM633 1772l477 106l104 -342h-317zM676 532h262l-39 349z" />
<glyph unicode="&#xc1;" horiz-adv-x="1605" d="M-184 0l991 1444h475l217 -1444h-510l-24 193h-502l-125 -193h-522zM676 532h262l-39 349zM889 1536l289 342l469 -106l-392 -236h-366z" />
<glyph unicode="&#xc2;" horiz-adv-x="1605" d="M-184 0l991 1444h475l217 -1444h-510l-24 193h-502l-125 -193h-522zM612 1536l326 311h397l158 -311h-260l-133 104l-191 -104h-297zM676 532h262l-39 349z" />
<glyph unicode="&#xc3;" horiz-adv-x="1605" d="M-184 0l991 1444h475l217 -1444h-510l-24 193h-502l-125 -193h-522zM621 1581q61 174 131.5 248t173.5 74q73 0 215 -48q106 -32 127 -32q37 0 60.5 20t51.5 70l209 -55q-61 -174 -131.5 -248t-173.5 -74q-76 0 -215 47q-109 33 -127 33q-37 0 -61.5 -20.5t-51.5 -69.5z M676 532h262l-39 349z" />
<glyph unicode="&#xc4;" horiz-adv-x="1605" d="M-184 0l991 1444h475l217 -1444h-510l-24 193h-502l-125 -193h-522zM657 1536l84 307h377l-84 -307h-377zM676 532h262l-39 349zM1116 1536l84 307h377l-84 -307h-377z" />
<glyph unicode="&#xc5;" horiz-adv-x="1605" d="M-184 0l938 1366q-27 56 -27 109q0 134 108 230.5t259 96.5q127 0 208.5 -71.5t81.5 -176.5q0 -120 -88 -211l203 -1343h-510l-24 193h-502l-125 -193h-522zM676 532h262l-39 349zM887 1493q0 -58 40.5 -93.5t108.5 -35.5q85 0 137 54.5t52 117.5q0 58 -41 93.5 t-109 35.5q-85 0 -136.5 -54.5t-51.5 -117.5z" />
<glyph unicode="&#xc6;" horiz-adv-x="2254" d="M-186 0l1097 1434h1502l-107 -394h-711l-39 -145h660l-92 -346h-660l-43 -156h721l-104 -393h-1182l51 193h-430l-141 -193h-522zM729 532h270l144 537h-17z" />
<glyph unicode="&#xc7;" horiz-adv-x="1488" d="M72 598q0 162 65.5 322.5t194.5 289.5q117 117 284 185.5t375 68.5q230 0 386.5 -112.5t201.5 -304.5l-428 -187q-23 86 -81 130t-142 44q-138 0 -236 -98q-57 -57 -88 -135t-31 -160q0 -115 63.5 -180.5t162.5 -65.5q156 0 278 150l332 -262q-228 -296 -610 -312 l-183 -325l-335 153l219 205q-199 62 -313.5 217.5t-114.5 376.5z" />
<glyph unicode="&#xc8;" horiz-adv-x="1378" d="M-72 0l385 1434h1223l-106 -394h-752l-39 -145h700l-92 -346h-700l-43 -156h762l-105 -393h-1233zM504 1751l477 107l104 -342h-317z" />
<glyph unicode="&#xc9;" horiz-adv-x="1378" d="M-72 0l385 1434h1223l-106 -394h-752l-39 -145h700l-92 -346h-700l-43 -156h762l-105 -393h-1233zM760 1516l289 342l469 -107l-392 -235h-366z" />
<glyph unicode="&#xca;" horiz-adv-x="1378" d="M-72 0l385 1434h1223l-106 -394h-752l-39 -145h700l-92 -346h-700l-43 -156h762l-105 -393h-1233zM483 1516l326 311h397l158 -311h-260l-133 104l-191 -104h-297z" />
<glyph unicode="&#xcb;" horiz-adv-x="1378" d="M-72 0l385 1434h1223l-106 -394h-752l-39 -145h700l-92 -346h-700l-43 -156h762l-105 -393h-1233zM528 1516l84 307h377l-84 -307h-377zM987 1516l84 307h377l-84 -307h-377z" />
<glyph unicode="&#xcc;" horiz-adv-x="643" d="M-68 0l385 1434h480l-385 -1434h-480zM137 1751l477 107l105 -342h-318z" />
<glyph unicode="&#xcd;" horiz-adv-x="643" d="M-68 0l385 1434h480l-385 -1434h-480zM393 1516l289 342l469 -107l-391 -235h-367z" />
<glyph unicode="&#xce;" horiz-adv-x="643" d="M-68 0l385 1434h480l-385 -1434h-480zM117 1516l325 311h398l157 -311h-260l-133 104l-190 -104h-297z" />
<glyph unicode="&#xcf;" horiz-adv-x="643" d="M-68 0l385 1434h480l-385 -1434h-480zM162 1516l84 307h377l-84 -307h-377zM621 1516l84 307h376l-84 -307h-376z" />
<glyph unicode="&#xd0;" horiz-adv-x="1650" d="M45 549l92 346h174l146 539h487q376 0 561 -185q156 -156 156 -420q0 -329 -236 -565q-264 -264 -751 -264h-602l147 549h-174zM637 395h90q111 0 208 33.5t155 91.5q51 51 82.5 122t31.5 140q0 113 -63 176q-78 78 -248 78h-86l-39 -141h178l-92 -346h-176z" />
<glyph unicode="&#xd1;" horiz-adv-x="1589" d="M-72 0l385 1434h449l325 -684l185 684h475l-385 -1434h-426l-340 713l-193 -713h-475zM596 1561q61 174 131.5 247.5t173.5 73.5q76 0 215 -47q109 -33 127 -33q37 0 61.5 20.5t51.5 69.5l209 -55q-61 -174 -131.5 -247.5t-173.5 -73.5q-77 0 -216 47q-106 32 -126 32 q-37 0 -61.5 -20.5t-51.5 -69.5z" />
<glyph unicode="&#xd2;" horiz-adv-x="1628" d="M78 621q0 168 66 323t184 273q115 115 268 180t326 65q155 0 288.5 -50t226 -136.5t145 -206.5t52.5 -256q0 -168 -66 -323t-184 -273q-116 -116 -268 -181t-325 -65q-155 0 -289 50t-226.5 137t-145 207t-52.5 256zM559 664q0 -119 69.5 -195t194.5 -76q123 0 213 90 q55 55 86 131.5t31 155.5q0 118 -69.5 194t-194.5 76q-123 0 -213 -90q-55 -55 -86 -131t-31 -155zM618 1772l478 106l104 -342h-317z" />
<glyph unicode="&#xd3;" horiz-adv-x="1628" d="M78 621q0 168 66 323t184 273q115 115 268 180t326 65q155 0 288.5 -50t226 -136.5t145 -206.5t52.5 -256q0 -168 -66 -323t-184 -273q-116 -116 -268 -181t-325 -65q-155 0 -289 50t-226.5 137t-145 207t-52.5 256zM559 664q0 -119 69.5 -195t194.5 -76q123 0 213 90 q55 55 86 131.5t31 155.5q0 118 -69.5 194t-194.5 76q-123 0 -213 -90q-55 -55 -86 -131t-31 -155zM854 1536l289 342l469 -106l-391 -236h-367z" />
<glyph unicode="&#xd4;" horiz-adv-x="1628" d="M78 621q0 168 66 323t184 273q115 115 268 180t326 65q155 0 288.5 -50t226 -136.5t145 -206.5t52.5 -256q0 -168 -66 -323t-184 -273q-116 -116 -268 -181t-325 -65q-155 0 -289 50t-226.5 137t-145 207t-52.5 256zM559 664q0 -119 69.5 -195t194.5 -76q123 0 213 90 q55 55 86 131.5t31 155.5q0 118 -69.5 194t-194.5 76q-123 0 -213 -90q-55 -55 -86 -131t-31 -155zM598 1536l326 311h397l158 -311h-260l-134 104l-190 -104h-297z" />
<glyph unicode="&#xd5;" horiz-adv-x="1628" d="M78 621q0 168 66 323t184 273q115 115 268 180t326 65q155 0 288.5 -50t226 -136.5t145 -206.5t52.5 -256q0 -168 -66 -323t-184 -273q-116 -116 -268 -181t-325 -65q-155 0 -289 50t-226.5 137t-145 207t-52.5 256zM559 664q0 -119 69.5 -195t194.5 -76q123 0 213 90 q55 55 86 131.5t31 155.5q0 118 -69.5 194t-194.5 76q-123 0 -213 -90q-55 -55 -86 -131t-31 -155zM604 1581q61 174 131.5 248t173.5 74q73 0 215 -48q106 -32 127 -32q37 0 61.5 20.5t51.5 69.5l209 -55q-61 -174 -131.5 -248t-173.5 -74q-76 0 -215 47q-109 33 -127 33 q-37 0 -61.5 -20.5t-51.5 -69.5z" />
<glyph unicode="&#xd6;" horiz-adv-x="1628" d="M78 621q0 168 66 323t184 273q115 115 268 180t326 65q155 0 288.5 -50t226 -136.5t145 -206.5t52.5 -256q0 -168 -66 -323t-184 -273q-116 -116 -268 -181t-325 -65q-155 0 -289 50t-226.5 137t-145 207t-52.5 256zM559 664q0 -119 69.5 -195t194.5 -76q123 0 213 90 q55 55 86 131.5t31 155.5q0 118 -69.5 194t-194.5 76q-123 0 -213 -90q-55 -55 -86 -131t-31 -155zM641 1536l84 307h377l-84 -307h-377zM1100 1536l84 307h377l-84 -307h-377z" />
<glyph unicode="&#xd7;" horiz-adv-x="1310" d="M61 457l373 288l-219 289l328 252l209 -297l368 297l228 -301l-375 -289l219 -288l-328 -252l-209 297l-368 -297z" />
<glyph unicode="&#xd8;" horiz-adv-x="1628" d="M-104 -10l294 264q-112 162 -112 367q0 168 66 323t184 273q115 115 268 180t326 65q265 0 456 -141l138 123h301l-297 -266q114 -157 114 -365q0 -168 -66 -323t-184 -273q-116 -116 -268 -181t-325 -65q-267 0 -459 140l-135 -121h-301zM549 664q0 -48 8 -84l481 432 q-64 39 -149 39q-124 0 -219 -95q-57 -57 -89 -134t-32 -158zM672 420q61 -37 151 -37q125 0 219 94q57 57 89 134t32 159q0 40 -10 82z" />
<glyph unicode="&#xd9;" horiz-adv-x="1548" d="M78 487q0 111 31 232l192 715h487l-200 -746q-17 -70 -17 -113q0 -89 50.5 -134.5t146.5 -45.5q94 0 154 60q61 61 102 209l207 770h487l-227 -844q-75 -280 -225 -430q-189 -189 -568 -189q-300 0 -460 135.5t-160 380.5zM594 1751l477 107l105 -342h-318z" />
<glyph unicode="&#xda;" horiz-adv-x="1548" d="M78 487q0 111 31 232l192 715h487l-200 -746q-17 -70 -17 -113q0 -89 50.5 -134.5t146.5 -45.5q94 0 154 60q61 61 102 209l207 770h487l-227 -844q-75 -280 -225 -430q-189 -189 -568 -189q-300 0 -460 135.5t-160 380.5zM850 1516l289 342l469 -107l-391 -235h-367z " />
<glyph unicode="&#xdb;" horiz-adv-x="1548" d="M78 487q0 111 31 232l192 715h487l-200 -746q-17 -70 -17 -113q0 -89 50.5 -134.5t146.5 -45.5q94 0 154 60q61 61 102 209l207 770h487l-227 -844q-75 -280 -225 -430q-189 -189 -568 -189q-300 0 -460 135.5t-160 380.5zM573 1516l326 311h397l158 -311h-260l-133 104 l-191 -104h-297z" />
<glyph unicode="&#xdc;" horiz-adv-x="1548" d="M78 487q0 111 31 232l192 715h487l-200 -746q-17 -70 -17 -113q0 -89 50.5 -134.5t146.5 -45.5q94 0 154 60q61 61 102 209l207 770h487l-227 -844q-75 -280 -225 -430q-189 -189 -568 -189q-300 0 -460 135.5t-160 380.5zM616 1516l84 307h377l-84 -307h-377zM1075 1516 l84 307h377l-84 -307h-377z" />
<glyph unicode="&#xdd;" horiz-adv-x="1441" d="M172 1434h504l117 -480l372 480h568l-815 -947l-132 -487h-479l146 547zM764 1516l289 342l469 -107l-392 -235h-366z" />
<glyph unicode="&#xde;" horiz-adv-x="1382" d="M-72 0l385 1434h480l-52 -201h15q192 0 317.5 -37.5t204.5 -116.5q111 -111 111 -282q0 -240 -154 -394q-194 -194 -557 -194h-217l-53 -209h-480zM559 561h86q149 0 219 70q47 47 47 121q0 50 -34 84q-45 45 -144 45h-90z" />
<glyph unicode="&#xdf;" horiz-adv-x="1323" d="M-70 0l250 932q76 283 209 416q85 85 194 125t259 40q231 0 373.5 -112.5t142.5 -302.5q0 -155 -82 -267t-248 -155q106 -33 164.5 -105t58.5 -161q0 -73 -28.5 -139.5t-89.5 -123.5t-148 -95.5t-213 -54.5t-276 -3l84 319q113 6 171 51.5t58 110.5q0 49 -39 83t-115 38 l58 209q110 21 162.5 77t52.5 134q0 54 -30.5 85.5t-74.5 31.5q-124 0 -182 -215l-246 -918h-465z" />
<glyph unicode="&#xe0;" horiz-adv-x="1239" d="M-10 281q0 156 100 256q133 133 399 133q130 0 254 -37l5 12q8 28 8 55q0 109 -172 109q-77 0 -162.5 -13.5t-142.5 -35.5l-62 315q196 60 461 60q271 0 407 -96.5t136 -268.5q0 -74 -21 -156l-164 -614h-465l31 113q-84 -71 -153.5 -104.5t-159.5 -33.5 q-132 0 -215.5 82t-83.5 224zM389 1481l459 116l90 -393h-287zM438 328q0 -41 21.5 -64.5t54.5 -23.5q56 0 108 51.5t72 128.5l13 47q-47 12 -86 12q-97 0 -144 -47q-39 -39 -39 -104z" />
<glyph unicode="&#xe1;" horiz-adv-x="1239" d="M-10 281q0 156 100 256q133 133 399 133q130 0 254 -37l5 12q8 28 8 55q0 109 -172 109q-77 0 -162.5 -13.5t-142.5 -35.5l-62 315q196 60 461 60q271 0 407 -96.5t136 -268.5q0 -74 -21 -156l-164 -614h-465l31 113q-84 -71 -153.5 -104.5t-159.5 -33.5 q-132 0 -215.5 82t-83.5 224zM438 328q0 -41 21.5 -64.5t54.5 -23.5q56 0 108 51.5t72 128.5l13 47q-47 12 -86 12q-97 0 -144 -47q-39 -39 -39 -104zM621 1204l303 393l446 -116l-414 -277h-335z" />
<glyph unicode="&#xe2;" horiz-adv-x="1239" d="M-10 281q0 156 100 256q133 133 399 133q130 0 254 -37l5 12q8 28 8 55q0 109 -172 109q-77 0 -162.5 -13.5t-142.5 -35.5l-62 315q196 60 461 60q271 0 407 -96.5t136 -268.5q0 -74 -21 -156l-164 -614h-465l31 113q-84 -71 -153.5 -104.5t-159.5 -33.5 q-132 0 -215.5 82t-83.5 224zM340 1204l367 352h335l179 -352h-240l-152 115l-213 -115h-276zM438 328q0 -41 21.5 -64.5t54.5 -23.5q56 0 108 51.5t72 128.5l13 47q-47 12 -86 12q-97 0 -144 -47q-39 -39 -39 -104z" />
<glyph unicode="&#xe3;" horiz-adv-x="1239" d="M-10 281q0 156 100 256q133 133 399 133q130 0 254 -37l5 12q8 28 8 55q0 109 -172 109q-77 0 -162.5 -13.5t-142.5 -35.5l-62 315q196 60 461 60q271 0 407 -96.5t136 -268.5q0 -74 -21 -156l-164 -614h-465l31 113q-84 -71 -153.5 -104.5t-159.5 -33.5 q-132 0 -215.5 82t-83.5 224zM358 1251q61 175 129.5 247.5t171.5 72.5q72 0 195 -45q103 -35 123 -35q36 0 58 19.5t50 70.5l209 -57q-61 -175 -129.5 -247.5t-171.5 -72.5q-71 0 -194 45q-103 35 -123 35q-36 0 -58.5 -19.5t-50.5 -70.5zM438 328q0 -41 21.5 -64.5 t54.5 -23.5q56 0 108 51.5t72 128.5l13 47q-47 12 -86 12q-97 0 -144 -47q-39 -39 -39 -104z" />
<glyph unicode="&#xe4;" horiz-adv-x="1239" d="M-10 281q0 156 100 256q133 133 399 133q130 0 254 -37l5 12q8 28 8 55q0 109 -172 109q-77 0 -162.5 -13.5t-142.5 -35.5l-62 315q196 60 461 60q271 0 407 -96.5t136 -268.5q0 -74 -21 -156l-164 -614h-465l31 113q-84 -71 -153.5 -104.5t-159.5 -33.5 q-132 0 -215.5 82t-83.5 224zM379 1204l84 307h377l-84 -307h-377zM438 328q0 -41 21.5 -64.5t54.5 -23.5q56 0 108 51.5t72 128.5l13 47q-47 12 -86 12q-97 0 -144 -47q-39 -39 -39 -104zM838 1204l84 307h376l-84 -307h-376z" />
<glyph unicode="&#xe5;" horiz-adv-x="1239" d="M-10 281q0 156 100 256q133 133 399 133q130 0 254 -37l5 12q8 28 8 55q0 109 -172 109q-77 0 -162.5 -13.5t-142.5 -35.5l-62 315q196 60 461 60q271 0 407 -96.5t136 -268.5q0 -74 -21 -156l-164 -614h-465l31 113q-84 -71 -153.5 -104.5t-159.5 -33.5 q-132 0 -215.5 82t-83.5 224zM438 328q0 -41 21.5 -64.5t54.5 -23.5q56 0 108 51.5t72 128.5l13 47q-47 12 -86 12q-97 0 -144 -47q-39 -39 -39 -104zM578 1460q0 131 95 223.5t230 92.5q121 0 194.5 -70t73.5 -176q0 -131 -95 -223.5t-230 -92.5q-121 0 -194.5 70 t-73.5 176zM735 1468q0 -53 33.5 -87.5t85.5 -34.5q68 0 114 51t46 125q0 53 -33.5 88t-85.5 35q-68 0 -114 -51.5t-46 -125.5z" />
<glyph unicode="&#xe6;" horiz-adv-x="1890" d="M-10 281q0 156 100 256q133 133 399 133q130 0 254 -37l5 12q8 28 8 55q0 109 -172 109q-77 0 -162.5 -13.5t-142.5 -35.5l-62 315q196 60 461 60q245 0 360 -103q171 113 365 113q101 0 182.5 -28t134 -75t88.5 -110.5t51 -131t15 -141.5q0 -104 -33 -208h-719 q5 -69 48.5 -109.5t119.5 -40.5q107 0 226 90l215 -235q-206 -183 -494 -183q-135 0 -244 50t-182 139q-109 -103 -218.5 -145t-242.5 -42q-162 0 -261 81.5t-99 224.5zM438 328q0 -41 26.5 -65.5t72.5 -24.5q95 0 188 81q-23 71 -23 148q-49 12 -81 12q-97 0 -144 -47 q-39 -39 -39 -104zM1151 655h315q9 24 9 50q0 48 -33 83t-88 35q-78 0 -137 -59q-44 -44 -66 -109z" />
<glyph unicode="&#xe7;" horiz-adv-x="1157" d="M29 449q0 293 202 495q95 95 219.5 147t264.5 52q197 0 325.5 -101.5t161.5 -263.5l-368 -147q-31 135 -144 135q-76 0 -133 -57q-40 -40 -63 -100t-23 -122t35.5 -99.5t91.5 -37.5q48 0 87.5 22.5t82.5 71.5l313 -208q-171 -249 -483 -263l-184 -327l-336 153l231 217 q-131 54 -205.5 165.5t-74.5 267.5z" />
<glyph unicode="&#xe8;" horiz-adv-x="1220" d="M33 465q0 136 51.5 264t146.5 223q193 193 482 193q107 0 192.5 -28t140.5 -74.5t91.5 -110.5t51.5 -131.5t15 -141.5q0 -104 -33 -208h-718q5 -69 48.5 -109.5t119.5 -40.5q106 0 225 90l215 -235q-206 -183 -479 -183q-253 0 -401 135t-148 357zM383 1481l459 116 l90 -393h-287zM481 655h316q8 21 8 50q0 48 -33 83t-88 35q-78 0 -137 -59q-44 -44 -66 -109z" />
<glyph unicode="&#xe9;" horiz-adv-x="1220" d="M33 465q0 136 51.5 264t146.5 223q193 193 482 193q107 0 192.5 -28t140.5 -74.5t91.5 -110.5t51.5 -131.5t15 -141.5q0 -104 -33 -208h-718q5 -69 48.5 -109.5t119.5 -40.5q106 0 225 90l215 -235q-206 -183 -479 -183q-253 0 -401 135t-148 357zM481 655h316q8 21 8 50 q0 48 -33 83t-88 35q-78 0 -137 -59q-44 -44 -66 -109zM614 1204l304 393l446 -116l-414 -277h-336z" />
<glyph unicode="&#xea;" horiz-adv-x="1220" d="M33 465q0 136 51.5 264t146.5 223q193 193 482 193q107 0 192.5 -28t140.5 -74.5t91.5 -110.5t51.5 -131.5t15 -141.5q0 -104 -33 -208h-718q5 -69 48.5 -109.5t119.5 -40.5q106 0 225 90l215 -235q-206 -183 -479 -183q-253 0 -401 135t-148 357zM334 1204l366 352h336 l178 -352h-239l-152 115l-213 -115h-276zM481 655h316q8 21 8 50q0 48 -33 83t-88 35q-78 0 -137 -59q-44 -44 -66 -109z" />
<glyph unicode="&#xeb;" horiz-adv-x="1220" d="M33 465q0 136 51.5 264t146.5 223q193 193 482 193q107 0 192.5 -28t140.5 -74.5t91.5 -110.5t51.5 -131.5t15 -141.5q0 -104 -33 -208h-718q5 -69 48.5 -109.5t119.5 -40.5q106 0 225 90l215 -235q-206 -183 -479 -183q-253 0 -401 135t-148 357zM375 1204l84 307h377 l-84 -307h-377zM481 655h316q8 21 8 50q0 48 -33 83t-88 35q-78 0 -137 -59q-44 -44 -66 -109zM834 1204l84 307h376l-84 -307h-376z" />
<glyph unicode="&#xec;" horiz-adv-x="616" d="M-74 0l299 1118h465l-299 -1118h-465zM68 1464l458 117l90 -393h-286z" />
<glyph unicode="&#xed;" horiz-adv-x="616" d="M-74 0l299 1118h465l-299 -1118h-465zM299 1188l303 393l447 -117l-414 -276h-336z" />
<glyph unicode="&#xee;" horiz-adv-x="616" d="M-74 0l299 1118h465l-299 -1118h-465zM18 1188l367 352h336l178 -352h-240l-151 115l-213 -115h-277z" />
<glyph unicode="&#xef;" horiz-adv-x="616" d="M-74 0l299 1118h465l-299 -1118h-465zM57 1188l84 307h377l-84 -307h-377zM516 1188l84 307h377l-84 -307h-377z" />
<glyph unicode="&#xf0;" horiz-adv-x="1323" d="M37 494q0 126 50.5 248.5t139.5 211.5q160 160 373 160q167 0 268 -106q-43 107 -116 211l-230 -50l-53 168l162 35q-52 58 -121 123h506l26 -33l205 45l53 -168l-143 -32q143 -235 143 -512q0 -189 -62 -352.5t-173 -274.5q-195 -195 -461 -195q-136 0 -245 41 t-178.5 112t-106.5 165t-37 203zM475 514q0 -71 41.5 -116.5t108.5 -45.5q71 0 127 56q75 75 75 196q0 71 -41 116.5t-108 45.5q-72 0 -127 -55q-76 -76 -76 -197z" />
<glyph unicode="&#xf1;" d="M-78 0l299 1118h465l-37 -139q60 73 147.5 119.5t186.5 46.5q152 0 236 -91.5t84 -250.5q0 -87 -27 -189l-164 -614h-465l150 557q12 43 12 84q0 46 -24.5 72t-73.5 26q-67 0 -108 -44.5t-66 -137.5l-150 -557h-465zM403 1251q61 174 130 247t172 73q71 0 194 -45 q103 -35 123 -35q36 0 58 19.5t50 70.5l209 -57q-61 -175 -129.5 -247.5t-171.5 -72.5q-71 0 -194 45q-103 35 -123 35q-36 0 -58.5 -19.5t-50.5 -70.5z" />
<glyph unicode="&#xf2;" horiz-adv-x="1302" d="M37 494q0 128 50 246t142 210t214.5 143.5t263.5 51.5q129 0 235.5 -40.5t176.5 -110.5t108.5 -165t38.5 -204q0 -128 -50.5 -246.5t-142.5 -210.5t-214 -143.5t-263 -51.5q-129 0 -235.5 40.5t-176.5 111t-108.5 165.5t-38.5 204zM416 1481l458 116l91 -393h-287z M475 514q0 -71 41.5 -116.5t108.5 -45.5q71 0 127 56q75 75 75 196q0 71 -41 116.5t-108 45.5q-72 0 -127 -55q-76 -76 -76 -197z" />
<glyph unicode="&#xf3;" horiz-adv-x="1302" d="M37 494q0 128 50 246t142 210t214.5 143.5t263.5 51.5q129 0 235.5 -40.5t176.5 -110.5t108.5 -165t38.5 -204q0 -128 -50.5 -246.5t-142.5 -210.5t-214 -143.5t-263 -51.5q-129 0 -235.5 40.5t-176.5 111t-108.5 165.5t-38.5 204zM475 514q0 -71 41.5 -116.5 t108.5 -45.5q71 0 127 56q75 75 75 196q0 71 -41 116.5t-108 45.5q-72 0 -127 -55q-76 -76 -76 -197zM627 1204l303 393l446 -116l-413 -277h-336z" />
<glyph unicode="&#xf4;" horiz-adv-x="1302" d="M37 494q0 128 50 246t142 210t214.5 143.5t263.5 51.5q129 0 235.5 -40.5t176.5 -110.5t108.5 -165t38.5 -204q0 -128 -50.5 -246.5t-142.5 -210.5t-214 -143.5t-263 -51.5q-129 0 -235.5 40.5t-176.5 111t-108.5 165.5t-38.5 204zM367 1204l366 352h336l178 -352h-239 l-152 115l-213 -115h-276zM475 514q0 -71 41.5 -116.5t108.5 -45.5q71 0 127 56q75 75 75 196q0 71 -41 116.5t-108 45.5q-72 0 -127 -55q-76 -76 -76 -197z" />
<glyph unicode="&#xf5;" horiz-adv-x="1302" d="M37 494q0 128 50 246t142 210t214.5 143.5t263.5 51.5q129 0 235.5 -40.5t176.5 -110.5t108.5 -165t38.5 -204q0 -128 -50.5 -246.5t-142.5 -210.5t-214 -143.5t-263 -51.5q-129 0 -235.5 40.5t-176.5 111t-108.5 165.5t-38.5 204zM385 1251q61 175 129.5 247.5 t171.5 72.5q72 0 195 -45q103 -35 123 -35q36 0 58 19.5t50 70.5l209 -57q-61 -175 -129.5 -247.5t-171.5 -72.5q-72 0 -195 45q-103 35 -123 35q-36 0 -58 -19.5t-50 -70.5zM475 514q0 -71 41.5 -116.5t108.5 -45.5q71 0 127 56q75 75 75 196q0 71 -41 116.5t-108 45.5 q-72 0 -127 -55q-76 -76 -76 -197z" />
<glyph unicode="&#xf6;" horiz-adv-x="1302" d="M37 494q0 128 50 246t142 210t214.5 143.5t263.5 51.5q129 0 235.5 -40.5t176.5 -110.5t108.5 -165t38.5 -204q0 -128 -50.5 -246.5t-142.5 -210.5t-214 -143.5t-263 -51.5q-129 0 -235.5 40.5t-176.5 111t-108.5 165.5t-38.5 204zM408 1204l84 307h376l-84 -307h-376z M475 514q0 -71 41.5 -116.5t108.5 -45.5q71 0 127 56q75 75 75 196q0 71 -41 116.5t-108 45.5q-72 0 -127 -55q-76 -76 -76 -197zM866 1204l84 307h377l-84 -307h-377z" />
<glyph unicode="&#xf7;" horiz-adv-x="1310" d="M90 541l96 360h1123l-97 -360h-1122zM322 76l98 364h409l-98 -364h-409zM569 1001l99 365h409l-98 -365h-410z" />
<glyph unicode="&#xf8;" horiz-adv-x="1302" d="M-133 -10l248 219q-78 122 -78 285q0 128 50 246t142 210t214.5 143.5t263.5 51.5q211 0 354 -105l102 90h273l-250 -221q80 -129 80 -284q0 -128 -50.5 -246.5t-142.5 -210.5t-214 -143.5t-263 -51.5q-213 0 -356 105l-101 -88h-272zM455 487l311 277q-39 22 -86 22 q-80 0 -143 -63q-82 -82 -82 -211v-25zM535 354q36 -20 88 -20q80 0 143 63q82 82 82 211q0 17 -2 23z" />
<glyph unicode="&#xf9;" d="M23 315q0 91 26 189l164 614h465l-150 -557q-12 -44 -12 -84q0 -46 24.5 -72t73.5 -26q67 0 108 44.5t66 137.5l150 557h465l-299 -1118h-465l37 139q-60 -73 -147.5 -119.5t-186.5 -46.5q-152 0 -235.5 91.5t-83.5 250.5zM420 1464l459 117l90 -393h-287z" />
<glyph unicode="&#xfa;" d="M23 315q0 91 26 189l164 614h465l-150 -557q-12 -44 -12 -84q0 -46 24.5 -72t73.5 -26q67 0 108 44.5t66 137.5l150 557h465l-299 -1118h-465l37 139q-60 -73 -147.5 -119.5t-186.5 -46.5q-152 0 -235.5 91.5t-83.5 250.5zM651 1188l303 393l447 -117l-414 -276h-336z " />
<glyph unicode="&#xfb;" d="M23 315q0 91 26 189l164 614h465l-150 -557q-12 -44 -12 -84q0 -46 24.5 -72t73.5 -26q67 0 108 44.5t66 137.5l150 557h465l-299 -1118h-465l37 139q-60 -73 -147.5 -119.5t-186.5 -46.5q-152 0 -235.5 91.5t-83.5 250.5zM371 1188l366 352h336l178 -352h-239l-152 115 l-213 -115h-276z" />
<glyph unicode="&#xfc;" d="M23 315q0 91 26 189l164 614h465l-150 -557q-12 -44 -12 -84q0 -46 24.5 -72t73.5 -26q67 0 108 44.5t66 137.5l150 557h465l-299 -1118h-465l37 139q-60 -73 -147.5 -119.5t-186.5 -46.5q-152 0 -235.5 91.5t-83.5 250.5zM410 1188l84 307h376l-84 -307h-376zM868 1188 l84 307h377l-84 -307h-377z" />
<glyph unicode="&#xfd;" horiz-adv-x="1335" d="M-121 -250l180 342q94 -65 187 -65q36 0 73 12l-153 1079h471l39 -588l334 588h483l-690 -1079q-131 -205 -267.5 -289t-324.5 -84q-199 0 -332 84zM662 1188l303 393l446 -117l-414 -276h-335z" />
<glyph unicode="&#xfe;" horiz-adv-x="1374" d="M-166 -328l488 1823h464l-131 -491q62 63 147.5 102t172.5 39q155 0 260.5 -118t105.5 -318q0 -172 -59 -322.5t-162 -253.5q-160 -160 -366 -160q-219 0 -328 170l-127 -471h-465zM510 514q0 -71 42 -115.5t107 -44.5q82 0 144 62q76 76 76 190q0 71 -42.5 115.5 t-107.5 44.5q-82 0 -143 -61q-76 -76 -76 -191z" />
<glyph unicode="&#xff;" horiz-adv-x="1335" d="M-121 -250l180 342q94 -65 187 -65q36 0 73 12l-153 1079h471l39 -588l334 588h483l-690 -1079q-131 -205 -267.5 -289t-324.5 -84q-199 0 -332 84zM420 1188l84 307h377l-84 -307h-377zM879 1188l84 307h376l-84 -307h-376z" />
<glyph unicode="&#x152;" horiz-adv-x="2228" d="M74 604q0 330 235 565q265 265 752 265h1325l-107 -394h-710l-39 -145h659l-92 -346h-659l-43 -156h721l-105 -393h-1220q-378 0 -562 184q-155 155 -155 420zM561 655q0 -106 60 -166q71 -71 231 -71h80l160 598h-84q-108 0 -198 -30.5t-146 -86.5q-45 -45 -74 -112 t-29 -132z" />
<glyph unicode="&#x153;" horiz-adv-x="1998" d="M37 494q0 128 50 246t142 210t214.5 143.5t263.5 51.5q231 0 378 -150q182 150 416 150q103 0 185.5 -28t137 -75t91 -110.5t52 -131t15.5 -141.5q0 -107 -32 -208h-719q5 -69 48.5 -109.5t119.5 -40.5q106 0 225 90l215 -235q-206 -183 -493 -183q-211 0 -357 146 q-176 -146 -393 -146q-129 0 -235.5 40.5t-176.5 111t-108.5 165.5t-38.5 204zM475 514q0 -71 41.5 -116.5t108.5 -45.5q71 0 127 56q75 75 75 196q0 71 -41 116.5t-108 45.5q-72 0 -127 -55q-76 -76 -76 -197zM1260 655h315q8 21 8 50q0 48 -33 83t-88 35q-78 0 -137 -59 q-42 -42 -65 -109z" />
<glyph unicode="&#x178;" horiz-adv-x="1441" d="M172 1434h504l117 -480l372 480h568l-815 -947l-132 -487h-479l146 547zM532 1516l84 307h377l-84 -307h-377zM991 1516l84 307h377l-84 -307h-377z" />
<glyph unicode="&#x2c6;" horiz-adv-x="1024" d="M240 1188l366 352h336l178 -352h-239l-152 115l-213 -115h-276z" />
<glyph unicode="&#x2dc;" horiz-adv-x="1024" d="M260 1235q61 174 129.5 246.5t171.5 72.5q72 0 195 -45q100 -34 123 -34q36 0 58 19.5t50 70.5l209 -58q-61 -174 -129.5 -246.5t-171.5 -72.5q-72 0 -195 45q-103 35 -122 35q-36 0 -58.5 -19.5t-50.5 -70.5z" />
<glyph unicode="&#x2000;" horiz-adv-x="956" />
<glyph unicode="&#x2001;" horiz-adv-x="1913" />
<glyph unicode="&#x2002;" horiz-adv-x="956" />
<glyph unicode="&#x2003;" horiz-adv-x="1913" />
<glyph unicode="&#x2004;" horiz-adv-x="637" />
<glyph unicode="&#x2005;" horiz-adv-x="478" />
<glyph unicode="&#x2006;" horiz-adv-x="318" />
<glyph unicode="&#x2007;" horiz-adv-x="318" />
<glyph unicode="&#x2008;" horiz-adv-x="239" />
<glyph unicode="&#x2009;" horiz-adv-x="382" />
<glyph unicode="&#x200a;" horiz-adv-x="106" />
<glyph unicode="&#x2010;" horiz-adv-x="864" d="M47 455l103 381h712l-102 -381h-713z" />
<glyph unicode="&#x2011;" horiz-adv-x="864" d="M47 455l103 381h712l-102 -381h-713z" />
<glyph unicode="&#x2012;" horiz-adv-x="864" d="M47 455l103 381h712l-102 -381h-713z" />
<glyph unicode="&#x2013;" horiz-adv-x="1067" d="M47 459l100 372h918l-100 -372h-918z" />
<glyph unicode="&#x2014;" horiz-adv-x="1824" d="M47 459l100 372h1676l-101 -372h-1675z" />
<glyph unicode="&#x2018;" horiz-adv-x="583" d="M68 625l110 413q27 100 65.5 169.5t103 123t161 82t231.5 35.5l13 -170q-226 -26 -269 -182h187l-127 -471h-475z" />
<glyph unicode="&#x2019;" horiz-adv-x="583" d="M82 780q224 26 268 183h-186l127 471h475l-111 -414q-28 -100 -66.5 -169t-102.5 -123t-160.5 -82.5t-231.5 -35.5z" />
<glyph unicode="&#x201a;" horiz-adv-x="583" d="M-178 -182q225 26 268 182h-186l127 471h475l-111 -414q-28 -100 -66.5 -168.5t-102.5 -122.5t-160.5 -82.5t-231.5 -35.5z" />
<glyph unicode="&#x201c;" horiz-adv-x="1142" d="M70 623l110 413q27 101 64 169.5t99.5 123t157.5 82.5t230 35l12 -170q-113 -13 -174.5 -57.5t-83.5 -124.5h177l-127 -471h-465zM639 623l111 413q22 80 48.5 139t69 109.5t101 83t141 53t190.5 25.5l13 -170q-113 -13 -174.5 -57.5t-83.5 -124.5h176l-127 -471h-465z " />
<glyph unicode="&#x201d;" horiz-adv-x="1142" d="M82 780q113 13 174.5 58t83.5 125h-176l127 471h465l-111 -414q-22 -80 -49 -138t-70 -109t-101 -84t-140.5 -53.5t-190.5 -25.5zM651 780q113 13 174.5 58t83.5 125h-176l127 471h465l-111 -414q-22 -80 -49 -138t-69.5 -109.5t-100.5 -84t-140.5 -53t-190.5 -25.5z" />
<glyph unicode="&#x201e;" horiz-adv-x="1142" d="M-178 -182q113 13 174.5 57.5t83.5 124.5h-176l127 471h465l-111 -414q-28 -101 -65 -169t-99.5 -122.5t-157 -82.5t-229.5 -35zM391 -182q113 13 174.5 57.5t83.5 124.5h-176l127 471h465l-111 -414q-28 -101 -65 -169t-99.5 -122.5t-157 -82.5t-229.5 -35z" />
<glyph unicode="&#x2022;" horiz-adv-x="1028" d="M193 641q0 98 38.5 193t106.5 163q117 117 274 117q145 0 228.5 -87.5t83.5 -225.5q0 -97 -38.5 -192.5t-107.5 -164.5q-116 -116 -274 -116q-145 0 -228 87.5t-83 225.5z" />
<glyph unicode="&#x2026;" horiz-adv-x="1730" d="M-96 0l125 467h471l-125 -467h-471zM479 0l125 467h471l-125 -467h-471zM1055 0l125 467h471l-125 -467h-471z" />
<glyph unicode="&#x202f;" horiz-adv-x="382" />
<glyph unicode="&#x2039;" horiz-adv-x="698" d="M20 479l50 180l442 398l215 -213l-299 -330l131 -338l-295 -129z" />
<glyph unicode="&#x203a;" horiz-adv-x="698" d="M-29 254l299 330l-131 338l295 129l244 -433l-49 -180l-443 -397z" />
<glyph unicode="&#x205f;" horiz-adv-x="478" />
<glyph unicode="&#x20ac;" horiz-adv-x="1300" d="M31 469l57 217h121l18 70h-121l58 217h119q68 168 184 284q207 207 522 207q168 0 292.5 -72.5t197.5 -195.5l-314 -252q-82 125 -221 125q-104 0 -178 -74l-27 -28h297l-55 -209h-319q-15 -65 -17 -74h318l-56 -209h-274q28 -110 160 -110q118 0 227 100l244 -301 q-207 -195 -496 -195q-237 0 -396.5 136t-176.5 364h-164z" />
<glyph unicode="&#x2122;" horiz-adv-x="1413" d="M186 1253l47 181h582l-47 -181h-186l-121 -450h-209l121 450h-187zM715 803l168 631h209l75 -222l195 222h231l-168 -631h-211l84 313l-206 -225h-2l-84 225l-84 -313h-207z" />
<glyph unicode="&#x25fc;" horiz-adv-x="1116" d="M0 0v1116h1116v-1116h-1116z" />
</font>
</defs>
</svg>
