<?xml version="1.0" standalone="no"?> <!DOCTYPE svg PUBLIC "-//W3C//DTD SVG 1.0//EN" "http://www.w3.org/TR/2001/REC-SVG-20010904/DTD/svg10.dtd" > <svg xmlns="http://www.w3.org/2000/svg" width="100%" height="100%">
<defs >
<font id="avantgardelight" horiz-adv-x="477" ><font-face
    font-family="AvantGarde LT ExtraLightTest"
    units-per-em="1000"
    panose-1="2 0 4 3 3 0 0 2 0 4"
    ascent="951"
    descent="-274"
    alphabetic="0" />
<missing-glyph horiz-adv-x="500" />
<glyph unicode=" " glyph-name="space" horiz-adv-x="277" />
<glyph unicode="!" glyph-name="exclam" horiz-adv-x="259" d="M145 0H115V81H145V0ZM145 166H115V740H145V166Z" />
<glyph unicode="&quot;" glyph-name="quotedbl" horiz-adv-x="333" d="M209 444V740H239V444H209ZM94 444V740H124V444H94Z" />
<glyph unicode="#" glyph-name="numbersign" horiz-adv-x="555" d="M359 431H216L196 294H339L359 431ZM327 31H303L336 271H193L160 31H135L169 271H18L21 294H172L191 431H40L44 454H195L226 675H250L219 454H362L393 675H417L386 454H537L534 431H382L363 294H515L512
271H361L327 31Z" />
<glyph unicode="$" glyph-name="dollar" horiz-adv-x="555" d="M296 730Q338 725 368 709T417 670T445 620T457 568H427Q422 607 406 632T369 674T324 696T283 703Q257 703 232 693T187 665T155 619T142 559Q142 521 155 497T191 457T243 431T305 412Q324 406
353 396T408 366T454 311T473 225Q473 191 460 159T424 100T369 58T296 38V-57H266V38Q228 41 196 56T139 96T100 154T83 227H113Q117 184 133 154T174 105T227 76T283 67Q317 67 346 79T396 113T430 164T443 226Q443 270 428 298T386 344T327 373T260 394Q238
400 213 410T165 440T127 488T112 559Q112 593 123 622T154 673T203 710T266 730V810H296V730Z" />
<glyph unicode="%" glyph-name="percent" horiz-adv-x="719" d="M146 0H114L571 740H603L146 0ZM669 150Q669 180 659 205T632 249T589 277T534 288Q504 288 479 278T437 249T409 206T399 150Q399 120 409 95T436 51T479 23T534 12Q564 12 589 22T631 51T659 94T669
150ZM371 150Q371 185 383 215T417 266T469 300T534 313Q569 313 599 301T650 267T684 215T697 150Q697 115 685 85T651 33T599 -1T534 -13Q499 -13 469 -1T417 33T383 85T371 150ZM320 590Q320 620 310 645T283 689T240 717T185 728Q155 728 130 718T88 689T60
646T50 590Q50 560 60 535T87 491T130 463T185 452Q215 452 240 462T282 491T310 534T320 590ZM22 590Q22 625 34 655T68 706T120 740T185 753Q220 753 250 741T301 707T335 655T348 590Q348 555 336 525T302 473T250 439T185 427Q150 427 120 439T68 473T34 525T22
590Z" />
<glyph unicode="&amp;" glyph-name="ampersand" horiz-adv-x="721" d="M281 438Q322 456 352 471T401 503T430 541T440 593Q440 618 431 641T404 683T362 713T307 725Q276 724 252 712T212 682T188 643T180 600Q180 563 196 537T231 491L281 438ZM273 404Q215
378 179 352T122 300T93 246T85 193Q85 159 98 127T134 70T192 30T270 15Q298 15 321 21T366 42T406 82T443 144L470 200L273 404ZM507 206L699 9L678 -11L493 178L469 131Q456 107 441 82T403 35T347 1T267 -13Q217 -13 178 5T112 52T70 118T55 194Q55 242 74
279T123 345T187 393T253 425L215 466Q200 482 189 496T169 526T156 558T150 596Q150 627 161 655T194 705T243 740T306 753Q340 753 370 740T422 705T457 654T470 592Q470 554 456 527T419 481T365 446T301 416L485 228L610 467H643L507 206Z" />
<glyph unicode="&apos;" glyph-name="quotesingle" horiz-adv-x="222" d="M96 444V740H126V444H96Z" />
<glyph unicode="(" glyph-name="parenleft" horiz-adv-x="425" d="M393 718Q340 685 293 636T211 525T156 391T135 241Q135 163 155 91T211 -43T293 -154T393 -237V-274Q363 -254 328 -228T254 -158Q185 -78 144 24T103 241Q103 320 124 396T184 539T275 660T393
753V718Z" />
<glyph unicode=")" glyph-name="parenright" horiz-adv-x="425" d="M32 -240Q85 -207 132 -157T214 -46T269 88T290 238Q290 316 270 388T214 522T132 633T32 716V753Q62 733 97 707T171 637Q241 556 281 454T322 238Q322 158 301 82T241 -60T150 -182T32 -274V-240Z" />
<glyph unicode="*" glyph-name="asterisk" horiz-adv-x="573" d="M301 617L407 679L421 654L316 593L423 530L409 506L301 567V444H272V568L166 506L151 531L258 593L151 653L166 679L272 617V740H301V617Z" />
<glyph unicode="+" glyph-name="plus" horiz-adv-x="600" d="M314 264H550V236H314V0H286V236H50V264H286V501H314V264Z" />
<glyph unicode="," glyph-name="comma" horiz-adv-x="277" d="M93 -72H61L124 82H156L93 -72Z" />
<glyph unicode="-" glyph-name="hyphen" horiz-adv-x="266" d="M266 291V262H0V291H266Z" />
<glyph unicode="." glyph-name="period" horiz-adv-x="277" d="M154 0H124V81H154V0Z" />
<glyph unicode="/" glyph-name="slash" horiz-adv-x="518" d="M100 -100H67L418 740H451L100 -100Z" />
<glyph unicode="0" glyph-name="zero" horiz-adv-x="555" d="M69 222Q69 172 86 133T133 68T199 28T277 14Q304 14 340 24T408 58T463 122T485 222V518Q485 555 473 592T434 659T369 707T274 726Q234 726 197 713T132 672T86 605T69 512V222ZM39 509Q39 563 52
601T88 667T136 711T189 737T237 750T274 753Q323 753 367 736T444 689T496 615T515 518V222Q515 175 502 139T468 77T421 34T369 6T319 -9T279 -13Q247 -13 206 -2T127 37T65 109T39 222V509Z" />
<glyph unicode="1" glyph-name="one" horiz-adv-x="555" d="M305 0H275V713H111V740H305V0Z" />
<glyph unicode="2" glyph-name="two" horiz-adv-x="555" d="M504 0H57V27L375 352Q423 401 447 442T474 531Q474 574 460 610T421 671T361 711T286 726Q250 726 217 713T158 674T116 608T99 514H69Q70 578 90 623T142 697T213 739T290 753Q336 753 375 736T444
689T489 617T504 526Q502 498 494 474T471 427T438 380T395 330L97 27H504V0Z" />
<glyph unicode="3" glyph-name="three" horiz-adv-x="555" d="M69 215Q70 162 89 125T136 62T199 26T267 14Q312 14 348 29T409 72T448 135T462 211Q462 242 451 277T414 341T348 390T251 410H211V437H250Q306 437 338 455T387 498T408 547T413 582Q413 613 403
639T374 685T330 715T273 726Q240 726 214 715T169 684T139 639T126 585H96Q99 627 115 658T155 711T210 742T270 753Q303 753 334 742T389 710T428 656T443 581Q443 560 437 537T419 492T386 453T339 426V424Q386 407 416 381T463 325T486 267T492 217Q492 165
475 123T428 50T356 4T264 -13Q222 -13 182 2T111 47T59 118T39 215H69Z" />
<glyph unicode="4" glyph-name="four" horiz-adv-x="555" d="M52 171H404V704H402L52 171ZM434 171H509V144H434V0H404V144H17V170L393 740H434V171Z" />
<glyph unicode="5" glyph-name="five" horiz-adv-x="555" d="M473 740V713H165L111 434Q121 442 136 452T170 471T214 486T270 492Q324 492 369 471T446 416T497 336T515 241Q515 187 495 141T440 60T361 7T267 -13Q231 -13 191 0T115 42T53 113T21 217H51Q57
167 78 130T129 66T196 27T268 14Q311 14 350 31T420 79T467 151T485 238Q485 286 467 327T419 399T350 447T268 465Q256 465 238 463T197 452T149 426T99 379L73 386L141 740H473Z" />
<glyph unicode="6" glyph-name="six" horiz-adv-x="555" d="M63 231Q63 188 77 149T119 80T186 32T276 14Q324 14 363 32T431 80T475 151T491 237Q491 294 472 336T422 406T354 448T281 462Q249 462 211 450T140 410T85 338T63 231ZM156 452L158 451Q178 465 209
477T280 489Q328 489 372 471T449 420T501 341T521 240Q521 190 503 144T453 63T375 8T277 -13Q213 -13 167 10T91 69T47 147T33 229Q33 293 53 337T96 414L320 740H354L156 452Z" />
<glyph unicode="7" glyph-name="seven" horiz-adv-x="555" d="M480 740V713L150 0H119L448 713H87V740H480Z" />
<glyph unicode="8" glyph-name="eight" horiz-adv-x="555" d="M82 209Q82 168 97 133T138 71T200 29T277 14Q318 14 353 29T415 70T457 132T472 209Q472 250 457 285T416 347T354 389T277 404Q236 404 201 389T139 348T97 286T82 209ZM129 578Q129 547 140 521T172
474T219 443T277 431Q308 431 335 442T382 474T413 520T425 578Q425 609 414 636T382 683T335 714T277 726Q246 726 219 715T172 683T141 636T129 578ZM99 579Q99 614 113 645T151 701T207 739T277 753Q314 753 346 740T403 703T441 647T455 579Q455 527 425 483T347
419Q380 408 408 388T457 341T489 280T502 209Q501 162 483 122T435 51T364 4T277 -13Q230 -13 190 4T119 51T71 121T52 209Q54 284 96 340T207 419Q159 439 129 483T99 579Z" />
<glyph unicode="9" glyph-name="nine" horiz-adv-x="555" d="M492 509Q492 552 478 591T436 660T369 708T279 726Q231 726 192 708T124 660T80 589T64 503Q64 446 83 404T133 334T201 292T274 278Q306 278 344 290T415 330T470 402T492 509ZM399 288L397 289Q377
275 345 263Q329 258 312 255T275 251Q227 251 183 269T106 320T54 398T34 500Q34 550 52 596T102 677T180 732T278 753Q342 753 388 730T464 671T508 593T522 511Q522 479 517 452T502 403T482 361T459 326L235 0H201L399 288Z" />
<glyph unicode=":" glyph-name="colon" horiz-adv-x="277" d="M154 449H124V530H154V449ZM154 0H124V81H154V0Z" />
<glyph unicode=";" glyph-name="semicolon" horiz-adv-x="277" d="M153 449H123V530H153V449ZM93 -72H61L124 82H156L93 -72Z" />
<glyph unicode="&lt;" glyph-name="less" horiz-adv-x="600" d="M550 502V471L83 251L550 31V0L50 235V267L550 502Z" />
<glyph unicode="=" glyph-name="equal" horiz-adv-x="600" d="M550 167V139H50V167H550ZM550 361V333H50V361H550Z" />
<glyph unicode="&gt;" glyph-name="greater" horiz-adv-x="600" d="M517 251L50 471V502L550 267V235L50 0V31L517 251Z" />
<glyph unicode="?" glyph-name="question" horiz-adv-x="536" d="M272 0H243V81H272V0ZM243 166Q244 190 246 214T256 265T283 319T334 378Q353 398 371 416T404 453T427 493T437 544Q437 580 424 612T386 668T329 707T256 721Q227 721 195 712T136 681T91 626T70
543H40Q43 603 66 643T121 707T189 742T255 752Q297 752 335 737T402 694T449 628T467 542Q467 512 457 486T429 437T390 392T348 350Q319 322 304 296T282 247T274 203T273 166H243Z" />
<glyph unicode="@" glyph-name="at" horiz-adv-x="796" d="M503 397Q511 421 515 433T519 462Q518 487 509 504T486 531T457 546T431 550Q400 550 367 530T307 476T263 395T245 295Q245 263 253 243T273 212T300 196T327 191Q364 191 390 206T433 242T460 286T475
324L503 397ZM748 187Q725 133 686 95T602 33T508 -2T418 -13Q338 -13 270 16T150 97T70 217T41 365Q41 445 70 516T151 639T273 722T425 753Q486 753 547 733T657 674T737 577T768 441Q768 367 742 314T678 227T600 177T533 161Q527 161 514 162T487 171T464 194T454
236H452Q445 225 435 213T409 190T373 172T325 165Q312 165 294 170T258 189T229 228T217 295Q217 347 234 397T281 487T349 551T429 576Q459 576 478 567T510 545T527 518T535 493H537L560 560H588L492 288Q491 285 485 269T479 237Q478 219 484 209T499 194T517
188T534 187Q561 187 596 203T664 250T718 329T740 440Q740 513 712 567T638 656T537 709T427 727Q355 727 291 701T177 627T98 513T69 365Q69 284 98 219T175 109T287 38T417 13Q457 13 501 23T586 54T663 108T723 187H748Z" />
<glyph unicode="A" glyph-name="A" horiz-adv-x="687" d="M163 285H524L343 712L163 285ZM39 0H7L324 740H363L680 0H648L537 258H150L39 0Z" />
<glyph unicode="B" glyph-name="B" horiz-adv-x="540" d="M107 27H263Q292 27 319 31T369 43Q411 61 438 98T467 197Q467 253 440 294T367 356Q352 362 339 366T312 371T280 373T241 374H107V27ZM107 401H241Q274 401 300 405T346 420Q392 446 406 482T421 558Q421
609 398 643T346 691Q330 700 306 706T234 713H107V401ZM234 740Q282 740 312 733T364 713Q389 699 406 681T433 641T447 597T451 554Q451 546 450 527T439 483T408 435T349 393V391Q400 376 429 349T474 293T493 237T497 197Q496 128 465 84T380 17Q331 0 262
0H77V740H234Z" />
<glyph unicode="C" glyph-name="C" horiz-adv-x="786" d="M748 161Q729 129 698 98T626 42T534 2T425 -13Q345 -13 276 15T154 95T71 216T41 370Q41 453 71 523T153 645T275 724T425 753Q484 753 534 737T626 696T698 638T749 575H714Q703 590 680 615T621 664T535
707T425 726Q351 726 287 699T174 625T99 512T71 370Q71 293 98 228T174 116T286 41T425 14Q490 14 540 33T626 76T684 125T714 161H748Z" />
<glyph unicode="D" glyph-name="D" horiz-adv-x="701" d="M107 27H286Q366 27 429 50T537 117T605 224T629 368Q629 449 606 513T539 621T431 689T286 713H107V27ZM77 740H286Q373 740 442 715T560 643T633 526T659 370Q659 283 634 214T560 98T443 25T286 0H77V740Z" />
<glyph unicode="E" glyph-name="E" horiz-adv-x="547" d="M483 740V713H107V386H483V359H107V27H483V0H77V740H483Z" />
<glyph unicode="F" glyph-name="F" d="M440 740V713H107V386H440V359H107V0H77V740H440Z" />
<glyph unicode="G" glyph-name="G" horiz-adv-x="853" d="M819 313Q811 246 778 187T692 83T571 13T425 -13Q345 -13 276 15T154 95T71 216T41 370Q41 453 71 523T153 645T275 724T425 753Q476 753 525 741T619 706T699 650T761 576H725Q669 649 593 687T425 726Q351
726 287 699T174 625T99 512T71 370Q71 293 98 228T174 116T286 41T425 14Q495 14 556 37T664 98T742 185T783 286H342V313H819Z" />
<glyph unicode="H" glyph-name="H" horiz-adv-x="628" d="M107 386H521V740H551V0H521V359H107V0H77V740H107V386Z" />
<glyph unicode="I" glyph-name="I" horiz-adv-x="185" d="M107 0H77V740H107V0Z" />
<glyph unicode="J" glyph-name="J" horiz-adv-x="453" d="M377 212Q377 186 375 154T359 90Q351 73 339 56T308 25Q281 5 250 -4T190 -13Q159 -13 129 -4T74 25T31 74T6 141H39Q49 98 69 73T113 35T158 18T192 14Q250 16 285 43T331 101Q341 126 344 152T347 212V740H377V212Z"
/>
<glyph unicode="K" glyph-name="K" horiz-adv-x="536" d="M121 240H123L500 740H536L260 375L536 0H500L241 351L121 193V0H91V740H121V240Z" />
<glyph unicode="L" glyph-name="L" horiz-adv-x="423" d="M107 27H420V0H77V740H107V27Z" />
<glyph unicode="M" glyph-name="M" horiz-adv-x="933" d="M467 48L808 740H855V0H825V710H824H825H823L475 0H458L109 710H107V0H77V740H125L467 48Z" />
<glyph unicode="N" glyph-name="N" horiz-adv-x="738" d="M629 40H631V740H661V0H623L109 710H107V0H77V740H122L629 40Z" />
<glyph unicode="O" glyph-name="O" horiz-adv-x="851" d="M71 370Q71 293 98 228T174 116T286 41T425 14Q498 14 562 41T675 115T751 228T779 370Q779 447 751 512T675 624T563 699T425 726Q351 726 287 699T174 625T99 512T71 370ZM41 370Q41 453 71 523T153
645T275 724T425 753Q504 753 574 725T696 645T779 524T809 370Q809 287 779 217T697 95T574 16T425 -13Q345 -13 276 15T154 95T71 216T41 370Z" />
<glyph unicode="P" glyph-name="P" horiz-adv-x="511" d="M97 347H240Q271 347 295 349T339 356T375 368T408 388Q435 408 452 447T469 529Q469 573 452 612T408 672Q392 684 376 691T340 704T296 711T240 713H97V347ZM239 740Q272 740 298 738T346 732T387 718T424
696Q457 672 478 627T499 530Q499 479 478 434T424 364Q406 350 387 342T345 329T297 322T239 320H97V0H67V740H239Z" />
<glyph unicode="Q" glyph-name="Q" horiz-adv-x="882" d="M119 217Q152 149 197 109T287 47T375 20T444 14Q478 14 509 20T566 36T613 57T648 80Q641 85 621 100T580 130T542 159Q527 171 526 172Q466 211 405 230T275 249Q221 249 185 239T119 217ZM107 246Q137
256 178 266T279 276Q340 276 395 262T499 222Q511 216 521 210T549 190T595 156T672 98Q733 151 763 221T794 370Q794 447 766 512T690 624T578 699T440 726Q366 726 302 699T189 625T114 512T86 370Q86 323 93 294T107 246ZM885 -13Q841 -7 811 0T757 16T714
36T671 61Q657 51 636 39T585 15T521 -5T443 -13Q354 -13 283 18T161 102T84 224T56 370Q56 453 86 523T168 645T290 724T440 753Q519 753 589 725T711 645T794 524T824 370Q824 309 810 262T776 180T733 120T696 80Q717 68 737 59T778 42T826 28T885 18V-13Z"
/>
<glyph unicode="R" glyph-name="R" horiz-adv-x="554" d="M236 740Q279 740 310 738T364 733T403 723T433 709Q455 698 475 678T509 632T531 575T540 512Q541 477 530 437T493 362T425 304T322 280L293 279L492 0H454L237 306H283Q309 306 331 307T372 314T410
328T447 353Q482 390 496 428T510 511Q510 559 488 607T422 683Q405 694 386 700T345 709T296 712T236 713H97V0H67V740H236Z" />
<glyph unicode="S" glyph-name="S" horiz-adv-x="518" d="M75 187Q82 134 103 100T152 47T208 21T258 14Q293 14 326 26T386 62T428 117T444 190Q444 241 425 273T376 325T315 355T255 373Q231 379 198 389T134 420T82 473T61 559Q60 605 76 641T120 701T185 739T262
752Q295 752 326 742T384 711T428 658T453 580H423Q419 602 410 627T382 674T335 710T260 725Q225 725 194 714T140 681T104 630T91 564Q91 520 107 492T152 444T216 414T290 392Q299 389 316 385T353 372T395 350T434 315T463 264T474 194Q474 148 456 110T408
45T339 2T259 -13Q226 -13 190 -2T123 34T71 96T45 187H75Z" />
<glyph unicode="T" glyph-name="T" horiz-adv-x="443" d="M437 740V713H236V0H206V713H5V740H437Z" />
<glyph unicode="U" glyph-name="U" horiz-adv-x="605" d="M76 740H106V260Q106 233 106 210T111 166T125 125T152 82Q176 50 217 32T304 14Q346 14 387 32T453 82Q470 104 479 124T493 166T498 210T499 260V740H529V260Q529 235 528 205T518 144T491 84T440 32Q411
11 376 -1T302 -13Q264 -13 229 -1T165 32Q132 55 114 84T88 143T78 204T76 260V740Z" />
<glyph unicode="V" glyph-name="V" horiz-adv-x="666" d="M333 50L626 740H659L343 0H322L7 740H41L333 50Z" />
<glyph unicode="W" glyph-name="W" horiz-adv-x="888" d="M242 41H244L433 740H454L645 41H647L845 740H876L664 0H625L444 661H442L263 0H223L12 740H44L242 41Z" />
<glyph unicode="X" glyph-name="X" horiz-adv-x="555" d="M276 404L501 740H536L293 376L547 0H512L276 350L41 0H8L260 376L17 740H53L276 404Z" />
<glyph unicode="Y" glyph-name="Y" horiz-adv-x="554" d="M277 289L505 740H539L292 255V0H262V255L15 740H48L277 289Z" />
<glyph unicode="Z" glyph-name="Z" horiz-adv-x="499" d="M20 0L423 713H6V740H472L69 27H493V0H20Z" />
<glyph unicode="[" glyph-name="bracketleft" horiz-adv-x="425" d="M344 717Q271 681 241 624T210 495V-15Q210 -34 213 -62T229 -121T269 -182T344 -236V-272Q256 -230 217 -167T178 -15V495Q178 513 180 544T198 612T248 686T344 753V717Z" />
<glyph unicode="\" glyph-name="backslash" horiz-adv-x="518" d="M67 740H100L451 -100H418L67 740Z" />
<glyph unicode="]" glyph-name="bracketright" horiz-adv-x="425" d="M81 -236Q154 -200 184 -144T215 -15V495Q215 514 212 542T196 602T156 663T81 717V753Q169 710 208 647T247 495V-15Q247 -33 245 -64T227 -132T177 -205T81 -272V-236Z" />
<glyph unicode="^" glyph-name="asciicircum" horiz-adv-x="600" d="M300 707L144 375H112L284 740H316L488 375H456L300 707Z" />
<glyph unicode="_" glyph-name="underscore" horiz-adv-x="500" d="M0 -125V-75H500V-125H0Z" />
<glyph unicode="`" glyph-name="grave" horiz-adv-x="555" d="M395 628L382 605L144 743L158 766L395 628Z" />
<glyph unicode="a" glyph-name="a" horiz-adv-x="674" d="M323 13Q378 13 423 33T502 87T553 168T571 265Q571 319 552 365T499 445T419 498T320 517Q268 517 223 499T143 447T89 368T69 265Q69 220 85 175T132 94T211 36T323 13ZM596 0H568V132H566Q531 64 468
26T320 -13Q255 -13 203 10T115 72T60 161T41 265Q41 320 60 370T116 458T204 520T320 543Q368 543 409 530T481 495T534 448T566 395H568V530H596V0Z" />
<glyph unicode="b" glyph-name="b" horiz-adv-x="674" d="M351 13Q415 13 462 35T541 94T589 175T605 265Q605 321 585 367T531 447T452 498T354 517Q301 517 255 498T175 446T122 366T103 265Q103 214 121 168T172 88T250 33T351 13ZM78 740H106V395H108Q122
424 144 450T197 497T267 529T354 543Q418 543 469 520T557 459T613 370T633 265Q633 211 614 161T559 73T471 11T354 -13Q269 -13 206 25T108 132H106V0H78V740Z" />
<glyph unicode="c" glyph-name="c" horiz-adv-x="619" d="M583 167Q569 126 544 94T485 38T409 1T320 -13Q262 -13 212 7T123 63T63 151T41 265V264Q41 323 62 374T120 462T208 521T320 543Q360 543 400 532T476 497T540 440T584 358H553Q538 402 511 432T452
482T385 509T321 517Q265 516 224 500T142 446Q110 417 90 368T69 265Q69 209 89 163T143 83T223 32T320 13Q365 13 403 26T471 60T521 109T552 167H583Z" />
<glyph unicode="d" glyph-name="d" horiz-adv-x="677" d="M323 13Q378 13 423 33T502 87T553 168T571 265Q571 319 552 365T499 445T419 498T320 517Q268 517 223 499T143 447T89 368T69 265Q69 220 85 175T132 94T211 36T323 13ZM596 0H568V132H566Q531 64 468
26T320 -13Q255 -13 203 10T115 72T60 161T41 265Q41 320 60 370T116 458T204 520T320 543Q368 543 409 530T481 495T534 448T566 395H568V740H596V0Z" />
<glyph unicode="e" glyph-name="e" horiz-adv-x="619" d="M560 288Q558 336 536 378T480 452T401 501T311 517Q262 517 218 500T140 453T85 380T61 288H560ZM60 262Q61 197 85 150T147 73T228 28T311 13Q385 13 445 49T537 153H568Q550 111 522 80T461 28T389
-3T310 -13Q249 -13 198 8T110 66T52 155T31 265V264Q31 324 52 375T111 463T200 522T311 543Q364 543 413 525T500 472T562 388T589 277L588 262H60Z" />
<glyph unicode="f" glyph-name="f" horiz-adv-x="263" d="M94 504H7V530H94V582Q94 591 95 607T100 641T115 678T143 713T190 740T260 753V726Q246 725 223 722T177 705T138 663T122 585V530H260V504H122V0H94V504Z" />
<glyph unicode="g" glyph-name="g" horiz-adv-x="675" d="M573 265Q573 319 554 365T501 445T421 498T322 517Q269 517 223 499T143 447T88 368T68 265Q68 220 84 175T132 94T212 36T325 13Q380 13 425 33T504 87T555 168T573 265ZM100 -63Q110 -79 125 -101T169
-145Q206 -174 247 -187T325 -200Q371 -200 415 -182T494 -131T549 -51T570 54V132H567Q533 64 470 26T322 -13Q256 -13 204 10T115 72T59 161T40 265Q40 320 59 370T115 458T204 520T322 543Q370 543 411 530T483 495T536 448T568 395H570V530H598V59Q598 4 584
-39T546 -113T494 -166T435 -201T377 -220T329 -226Q289 -226 250 -216T176 -184T113 -133T68 -63H100Z" />
<glyph unicode="h" glyph-name="h" horiz-adv-x="640" d="M106 428H108Q120 457 143 479T195 515T256 537T321 543Q423 543 487 490Q564 425 564 280V0H536V280Q536 349 519 394T471 467Q440 495 401 506T321 517Q221 515 164 460T106 305V0H78V740H106V428Z" />
<glyph unicode="i" glyph-name="i" horiz-adv-x="184" d="M106 649H78V740H106V649ZM106 0H78V530H106V0Z" />
<glyph unicode="j" glyph-name="j" horiz-adv-x="219" d="M123 648H95V740H123V648ZM123 6Q123 -25 121 -61T106 -128T65 -183T-14 -213V-183Q23 -177 44 -162T77 -122T91 -66T95 6V530H123V6Z" />
<glyph unicode="k" glyph-name="k" horiz-adv-x="467" d="M106 145H108L397 530H434L238 271L451 0H414L220 249L106 97V0H78V740H106V145Z" />
<glyph unicode="l" glyph-name="l" horiz-adv-x="183" d="M106 0H78V740H106V0Z" />
<glyph unicode="m" glyph-name="m" horiz-adv-x="949" d="M106 436H108Q126 472 151 493T201 526T249 540T284 543Q332 543 372 527T440 478Q451 466 460 450T475 416H477Q481 427 489 443T514 478Q542 509 582 526T668 543Q716 543 752 529T813 490Q846 458 860
408T874 297V0H846V297Q846 352 834 397T792 472Q749 517 668 517Q633 517 595 503T531 456Q518 439 510 424T498 391T492 351T490 297V0H462V297Q463 328 461 351T454 393T442 425T424 454Q378 514 284 517Q264 518 246 514T210 502T179 483T155 459Q133 434 120
397T106 302V0H78V530H106V436Z" />
<glyph unicode="n" glyph-name="n" horiz-adv-x="641" d="M106 428H108Q120 457 143 479T195 515T256 537T321 543Q423 543 487 490Q564 425 564 280V0H536V280Q536 349 519 394T471 467Q440 495 401 506T321 517Q221 515 164 460T106 305V0H78V530H106V428Z" />
<glyph unicode="o" glyph-name="o" horiz-adv-x="641" d="M69 265Q69 211 88 165T141 85T220 32T320 13Q374 13 419 32T499 85T552 165T571 265Q571 319 552 365T499 445T420 498T320 517Q266 517 221 498T141 445T88 365T69 265ZM41 265Q41 324 62 375T120 463T209
522T320 543Q380 543 431 522T519 464T578 375T599 265Q599 205 578 155T520 67T431 8T320 -13Q260 -13 209 8T121 66T62 154T41 265Z" />
<glyph unicode="p" glyph-name="p" horiz-adv-x="677" d="M351 517Q296 517 251 497T172 443T121 362T103 265Q103 211 122 165T175 85T255 32T354 13Q406 13 451 31T531 83T585 162T605 265Q605 310 589 355T542 436T463 494T351 517ZM78 530H106V398H108Q143
466 206 504T354 543Q419 543 471 520T559 458T614 369T633 265Q633 210 614 160T558 72T470 10T354 -13Q306 -13 265 0T193 35T140 82T108 135H106V-213H78V530Z" />
<glyph unicode="q" glyph-name="q" horiz-adv-x="674" d="M323 517Q259 517 212 495T133 436T85 355T69 265Q69 209 89 163T143 83T222 32T320 13Q373 13 419 32T498 84T551 164T571 265Q571 316 553 362T502 442T424 497T323 517ZM596 -213H568V135H566Q556 109
535 83T482 35T409 1T320 -13Q256 -13 205 10T117 71T61 160T41 265Q41 319 60 369T115 457T203 519T320 543Q405 543 468 505T566 398H568V530H596V-213Z" />
<glyph unicode="r" glyph-name="r" horiz-adv-x="302" d="M106 434H108Q126 471 150 492T201 525T251 539T293 543V516Q269 515 241 510T177 479Q153 458 139 436T118 389T108 340T106 287V0H78V530H106V434Z" />
<glyph unicode="s" glyph-name="s" horiz-adv-x="426" d="M76 147Q76 83 114 48T211 13Q241 13 264 23T304 51T330 92T338 142Q336 197 306 226T210 269Q180 278 155 287T110 312T80 349T67 406Q67 439 78 464T109 507T155 534T211 543Q240 543 265 534T310 508T340
465T351 405H323Q323 435 314 456T289 491T253 511T211 517Q157 517 125 486T95 406Q97 358 126 336T211 297Q237 290 264 282T312 257T349 215T366 146Q368 113 357 85T324 34T274 0T211 -13Q178 -13 148 -2T94 31T59 81T48 147H76Z" />
<glyph unicode="t" glyph-name="t" horiz-adv-x="296" d="M124 740H152V530H288V504H152V0H124V504H7V530H124V740Z" />
<glyph unicode="u" glyph-name="u" horiz-adv-x="641" d="M536 107H534Q522 76 500 53T449 15T387 -7T321 -13Q219 -13 155 40Q78 105 78 250V530H106V250Q106 181 123 136T171 63Q202 35 241 24T321 13Q421 14 478 70T536 229V530H564V0H536V107Z" />
<glyph unicode="v" glyph-name="v" horiz-adv-x="481" d="M4 530H33L240 33L444 530H476L258 0H222L4 530Z" />
<glyph unicode="w" glyph-name="w" horiz-adv-x="758" d="M220 42H222L369 458H390L537 42H539L717 530H749L553 0H521L379 402H377L237 0H205L10 530H41L220 42Z" />
<glyph unicode="x" glyph-name="x" horiz-adv-x="407" d="M204 293L363 530H397L221 266L397 0H363L204 239L46 0H10L187 266L10 530H46L204 293Z" />
<glyph unicode="y" glyph-name="y" horiz-adv-x="481" d="M238 39L447 530H480L159 -213H127L221 1L11 530H42L238 39Z" />
<glyph unicode="z" glyph-name="z" horiz-adv-x="407" d="M377 530V503L48 26H394V0H12V24L341 504H30V530H377Z" />
<glyph unicode="{" glyph-name="braceleft" horiz-adv-x="425" d="M278 -272Q230 -272 213 -242T196 -146V37Q196 106 180 152T115 223V251Q151 260 173 312T196 443V630Q196 694 213 723T278 753H344V727H290Q270 727 258 722T239 705T230 670T228 612V427Q228
402 224 374T209 320T184 271T147 237Q184 220 206 169T228 54V-129Q228 -167 230 -190T240 -225T259 -242T290 -246H344V-272H278Z" />
<glyph unicode="|" glyph-name="bar" horiz-adv-x="555" d="M293 740V-100H263V740H293Z" />
<glyph unicode="}" glyph-name="braceright" horiz-adv-x="425" d="M81 -246H135Q154 -246 166 -242T185 -226T194 -190T197 -129V54Q197 86 202 115T218 169T244 211T278 237Q256 249 241 271T216 319T202 374T197 427V612Q197 647 195 669T186 704T167 722T135
727H81V753H147Q195 753 212 724T229 630V443Q229 365 251 313T310 251V223Q285 211 270 193T245 152T233 100T229 37V-146Q229 -211 212 -241T147 -272H81V-246Z" />
<glyph unicode="~" glyph-name="asciitilde" horiz-adv-x="600" d="M76 229Q96 266 128 285T198 301Q228 301 257 289T316 264Q345 250 372 239T422 228Q451 228 470 248T504 290L523 271Q505 238 479 219T424 200Q395 200 367 211T310 236Q281 250 252 261T198
273Q185 274 172 272T145 263T120 244T95 211L76 229Z" />
</font>
</defs>
</svg>
