<?xml version="1.0" standalone="no"?>
<!DOCTYPE svg PUBLIC "-//W3C//DTD SVG 1.1//EN" "http://www.w3.org/Graphics/SVG/1.1/DTD/svg11.dtd" >
<svg xmlns="http://www.w3.org/2000/svg">
<metadata></metadata>
<defs>
<font id="novecento_wide_lightbold" horiz-adv-x="1644" >
<font-face units-per-em="2048" ascent="1741" descent="-307" />
<missing-glyph horiz-adv-x="512" />
<glyph horiz-adv-x="2048" />
<glyph horiz-adv-x="2048" />
<glyph unicode="&#xd;" horiz-adv-x="2048" />
<glyph unicode=" "  horiz-adv-x="512" />
<glyph unicode="&#x09;" horiz-adv-x="512" />
<glyph unicode="&#xa0;" horiz-adv-x="512" />
<glyph unicode="!" horiz-adv-x="624" d="M170 0v322h285v-322h-285zM170 449v985h285v-985h-285z" />
<glyph unicode="&#x22;" horiz-adv-x="1120" d="M170 989v445h268v-445h-268zM682 989v445h268v-445h-268z" />
<glyph unicode="#" horiz-adv-x="1859" d="M57 303l129 246h195l170 334h-199l131 247h195l156 304h272l-150 -304h338l156 304h272l-149 -304h225l-129 -247h-219l-166 -334h219l-129 -246h-211l-149 -303h-297l155 303h-327l-150 -303h-295l156 303h-199zM668 549h329l170 334h-333z" />
<glyph unicode="$" horiz-adv-x="1245" d="M51 401l275 74q25 -104 111 -177t212 -73q111 0 172.5 48.5t61.5 123.5q0 30 -10.5 55.5t-34 46t-47.5 35.5t-65 31.5t-72 27t-84 27.5t-85 29q-44 16 -75.5 28.5t-74.5 33.5t-73 42.5t-62.5 52.5t-52 65t-32.5 80t-13 98q0 142 109 254t283 147v168h284v-174 q146 -37 250 -136t141 -235l-274 -76q-24 103 -104.5 160t-180.5 57q-97 0 -156 -42t-59 -107q0 -19 5 -35.5t18 -31.5t24.5 -26.5t36.5 -24.5t40.5 -21t49.5 -20.5t51.5 -18.5t58.5 -19.5t58 -19.5q73 -25 128 -48.5t119 -62.5t105.5 -83t69 -107t27.5 -137 q0 -162 -110.5 -277t-297.5 -149v-168h-284v170q-165 33 -279 141.5t-164 273.5z" />
<glyph unicode="%" horiz-adv-x="1810" d="M23 1034q0 179 102 297.5t264 118.5t263.5 -118.5t101.5 -297.5t-101 -295t-264 -116t-264.5 116t-101.5 295zM215 1034q0 -92 48.5 -156.5t125.5 -64.5t125.5 64.5t48.5 156.5q0 95 -48 159t-126 64t-126 -64t-48 -159zM305 0l1012 1434h186l-1009 -1434h-189zM1057 397 q0 179 102 296.5t264 117.5t263.5 -117.5t101.5 -296.5t-101.5 -296t-263.5 -117q-163 0 -264.5 117t-101.5 296zM1249 397q0 -93 48 -157t126 -64t126 64t48 157q0 94 -48.5 159t-125.5 65t-125.5 -65t-48.5 -159z" />
<glyph unicode="&#x26;" horiz-adv-x="1452" d="M78 418q0 126 83.5 214.5t205.5 106.5v2q-45 6 -90 27.5t-85.5 58t-66 94t-25.5 126.5q0 84 32.5 158.5t94 132t158.5 91t217 33.5q202 0 338.5 -107.5t179.5 -297.5l-239 -68q-36 120 -99 176t-174 56q-59 0 -102.5 -18.5t-66 -48t-32.5 -59.5t-10 -59q0 -82 61.5 -135 t178.5 -53h803v-223h-256v-138q0 -109 -32.5 -200.5t-98.5 -163t-177 -112t-258 -40.5q-243 0 -391.5 123t-148.5 324zM356 424q0 -91 74 -149t188 -58q152 0 223.5 68.5t71.5 216.5v123h-295q-125 0 -193.5 -53.5t-68.5 -147.5z" />
<glyph unicode="'" horiz-adv-x="608" d="M170 989v445h268v-445h-268z" />
<glyph unicode="(" horiz-adv-x="784" d="M78 705q0 801 586 997l73 -270q-200 -63 -287.5 -240t-87.5 -487q0 -309 88 -487t287 -241l-73 -268q-586 196 -586 996z" />
<glyph unicode=")" horiz-adv-x="784" d="M47 -23l74 -268q586 196 586 996q0 801 -586 997l-74 -270q200 -63 287.5 -240t87.5 -487q0 -309 -88 -487t-287 -241z" />
<glyph unicode="*" horiz-adv-x="1050" d="M170 1106l55 172l209 -70v226h178v-226l213 70l56 -172l-215 -62l137 -182l-148 -108l-131 190l-127 -190l-149 108l137 182z" />
<glyph unicode="+" horiz-adv-x="1429" d="M248 610v234h342v350h250v-350h344v-234h-342v-354h-250v354h-344z" />
<glyph unicode="," horiz-adv-x="528" d="M90 -270q51 35 96 114t45 133l27 9l-27 4q-42 3 -75 38.5t-33 90.5q0 58 41.5 98.5t101.5 40.5t100 -44.5t40 -115.5q0 -93 -59.5 -193t-149.5 -175h-107z" />
<glyph unicode="-" horiz-adv-x="1273" d="M170 610v234h934v-234h-934z" />
<glyph unicode="." horiz-adv-x="528" d="M123 117q0 58 41 98.5t100 40.5q58 0 100 -41t42 -98q0 -60 -41.5 -101t-100.5 -41t-100 41t-41 101z" />
<glyph unicode="/" horiz-adv-x="1030" d="M12 0l733 1434h273l-709 -1434h-297z" />
<glyph unicode="0" horiz-adv-x="1468" d="M78 717q0 153 45 288.5t127.5 237t207 160.5t275.5 59t276 -59t208 -160.5t128.5 -237t45.5 -288.5t-45.5 -288.5t-128.5 -237.5t-208 -161t-276 -59t-275.5 59t-207 161t-127.5 237.5t-45 288.5zM375 717q0 -133 37 -235.5t119 -166t202 -63.5q119 0 202.5 63.5 t122 166.5t38.5 235t-38.5 235t-122 166.5t-202.5 63.5q-120 0 -202 -63.5t-119 -166t-37 -235.5z" />
<glyph unicode="1" horiz-adv-x="921" d="M78 958l475 476h199v-1434h-285v784q0 43 2 102t3.5 94.5t0.5 35.5h-2q-1 0 -18 -19.5t-45.5 -51t-51.5 -54.5l-102 -103z" />
<glyph unicode="2" horiz-adv-x="1226" d="M102 1069q54 181 194 287t341 106q225 0 367.5 -131t142.5 -330q0 -43 -7.5 -84t-16.5 -74t-30 -68t-35.5 -58.5t-45.5 -55t-48 -48t-55 -46t-54 -41t-58 -41.5q-13 -9 -19 -14q-57 -42 -132 -96t-117 -84t-42 -31l2 -2h8q8 1 23 1.5t35.5 1.5t49 2t60 1.5t71.5 1t81 0.5 h330v-266h-1034v233q91 78 193 166.5t225 195.5t192 167q135 115 135 239q0 88 -63.5 148.5t-165.5 60.5q-105 0 -170 -61t-94 -150z" />
<glyph unicode="3" horiz-adv-x="1245" d="M78 373l258 71q25 -99 102 -158t189 -59q108 0 176.5 58t68.5 151q0 88 -68.5 138.5t-185.5 50.5h-122v225h122q114 0 173 48t59 134q0 75 -60 126.5t-169 51.5q-101 0 -165 -52.5t-98 -160.5l-256 70q46 183 188.5 289t346.5 106q239 0 373.5 -117.5t134.5 -293.5 q0 -90 -47 -162t-111.5 -108t-128.5 -38v-2q126 -2 217.5 -88t91.5 -231q0 -199 -148.5 -325t-379.5 -126q-204 0 -362.5 113.5t-198.5 288.5z" />
<glyph unicode="4" horiz-adv-x="1327" d="M78 293v211l770 930h231v-893h168v-248h-168v-293h-268v293h-733zM401 539q3 0 33 0.5t75.5 1t86.5 0.5h215v174q0 31 0.5 66t1 66t1 61t1 54t1 42.5t0.5 29.5l1 10h-2q-1 0 -22.5 -29t-57.5 -76.5t-63 -80.5l-176 -207q-29 -35 -53 -62.5t-33 -37t-9 -10.5v-2z" />
<glyph unicode="5" horiz-adv-x="1247" d="M102 344l260 70q25 -84 91.5 -140.5t177.5 -56.5q107 0 177.5 71.5t70.5 180.5t-72 179.5t-176 70.5q-177 0 -232 -127l-245 67l127 775h798v-267h-590l-16 -88q-13 -62 -24 -112.5t-16 -69.5t-5 -20l2 -3q27 25 84 44.5t127 19.5q148 0 268 -60t189 -168.5t69 -244.5 q0 -212 -150 -353t-376 -141q-208 0 -354 108t-185 265z" />
<glyph unicode="6" horiz-adv-x="1230" d="M78 475q0 147 57 270.5t180 288.5l303 400h310l-408 -539l2 -2q30 30 68 47.5t104 17.5q148 0 261 -69t171 -181.5t58 -248.5q0 -142 -72.5 -254t-199 -173t-283.5 -61q-153 0 -277.5 60t-199 176.5t-74.5 267.5zM367 475q0 -114 76 -184t196 -70q121 0 196.5 71.5 t75.5 182.5q1 112 -74.5 181t-197.5 69t-197 -70t-75 -180z" />
<glyph unicode="7" horiz-adv-x="1165" d="M63 1167v267h1074v-166l-711 -1268h-305l491 866q37 66 84 141.5t75 118.5l28 43l-2 2l-14 -1q-14 0 -35.5 -0.5t-47 -1t-54 -1t-50.5 -0.5h-533z" />
<glyph unicode="8" horiz-adv-x="1243" d="M78 403q0 73 27 137.5t71 108.5t97 73.5t108 39.5v2q-31 5 -70.5 28.5t-77.5 62t-64 98.5t-26 126q0 163 135.5 273t344.5 110q207 0 343 -110t136 -273q0 -66 -26 -126t-65 -98.5t-78.5 -62t-70.5 -28.5v-2q120 -24 211.5 -121t91.5 -238q0 -187 -152.5 -310 t-389.5 -124q-237 1 -391 124.5t-154 309.5zM350 412q0 -98 75.5 -157.5t197.5 -59.5q123 0 197.5 60.5t74.5 156.5t-75.5 154.5t-196.5 58.5q-123 0 -198 -59t-75 -154zM385 1065q0 -79 67.5 -129.5t170.5 -50.5t169 51.5t66 128.5q0 84 -66.5 137t-168.5 53 q-105 0 -171.5 -53t-66.5 -137z" />
<glyph unicode="9" horiz-adv-x="1236" d="M47 971q0 147 73 260t199.5 172t284.5 59q154 0 279 -58.5t200.5 -174.5t75.5 -271q0 -273 -254 -569l-332 -389h-325l467 537l-2 2q-55 -64 -168 -64q-120 0 -216.5 39.5t-157 107.5t-92.5 157t-32 192zM324 956q0 -116 78 -182.5t196 -66.5q121 0 197.5 68.5 t76.5 180.5q0 119 -77 186.5t-197 67.5t-197 -68.5t-77 -185.5z" />
<glyph unicode=":" horiz-adv-x="528" d="M123 117q0 58 41 98.5t100 40.5q58 0 100 -41t42 -98q0 -60 -41.5 -101t-100.5 -41t-100 41t-41 101zM123 725q0 58 41 98.5t100 40.5q58 0 100 -41t42 -98q0 -60 -41.5 -100.5t-100.5 -40.5t-100 40.5t-41 100.5z" />
<glyph unicode=";" horiz-adv-x="563" d="M123 -272q51 35 96 114t45 133l27 9l-27 4q-42 3 -75 38.5t-33 90.5q0 58 41.5 98.5t101.5 40.5q59 0 99 -44.5t40 -115.5q0 -93 -59.5 -193t-149.5 -175h-106zM156 725q0 58 41 98.5t100 40.5q58 0 99.5 -41t41.5 -98q0 -60 -41 -100.5t-100 -40.5t-100 40.5t-41 100.5z " />
<glyph unicode="&#x3c;" horiz-adv-x="1429" d="M236 752l604 -502h331l-579 502l579 499h-331z" />
<glyph unicode="=" horiz-adv-x="1429" d="M248 367v233h936v-233h-936zM248 821v234h936v-234h-936z" />
<glyph unicode="&#x3e;" horiz-adv-x="1429" d="M258 250l580 502l-580 499h332l604 -499l-604 -502h-332z" />
<glyph unicode="?" horiz-adv-x="1196" d="M78 1065q44 184 187.5 290.5t348.5 106.5q239 0 372.5 -118t133.5 -297q0 -52 -12.5 -98.5t-29.5 -81.5t-51 -71t-61 -59t-75.5 -53t-78 -46.5t-85.5 -45.5v-143h-287v247q69 38 111 61.5t88 51t71 46.5t50.5 41.5t37 42t18.5 42t7 47.5q0 31 -11 61t-35 58t-68.5 45.5 t-104.5 17.5q-117 0 -184 -51t-103 -162zM440 0v322h287v-322h-287z" />
<glyph unicode="@" horiz-adv-x="1638" d="M78 711q0 214 95 386t264 268.5t380 96.5q127 0 242 -36t206 -103.5t157.5 -159.5t102.5 -208t36 -244q0 -78 -18.5 -150.5t-56 -136.5t-103.5 -102.5t-152 -38.5q-82 0 -147 49.5t-78 122.5l-2 2q-24 -63 -98 -113.5t-154 -50.5q-163 0 -264 111t-101 292 q0 186 104.5 301t274.5 115q46 0 86 -14t64.5 -34.5t38.5 -36.5t18 -26h2v76h184v-514q0 -141 96 -141q49 0 81.5 44t44.5 106t12 139q0 170 -74.5 306t-206 213t-295.5 77q-247 0 -409 -169t-162 -427q0 -168 73.5 -304t204 -213t293.5 -77q73 0 135.5 10.5t100 25.5 t64.5 29.5t41.5 24.5t17.5 10l127 -63q-1 -6 -18.5 -24.5t-57.5 -46t-93.5 -52.5t-138 -42.5t-178.5 -17.5q-211 0 -380 96.5t-264 265.5t-95 378zM600 702q1 -54 18 -95.5t45 -66t61 -36.5t69 -12q67 0 123 49.5t59 144.5v45q1 52 -15.5 91t-44.5 59t-58.5 29.5t-63.5 9.5 q-78 0 -136 -57.5t-57 -160.5z" />
<glyph unicode="A" horiz-adv-x="1472" d="M12 0l590 1434h268l590 -1434h-307l-106 274h-621l-107 -274h-307zM524 526h424l-141 363q-13 34 -30.5 84.5t-28 82t-11.5 31.5h-2q-1 0 -11 -31.5t-27.5 -82t-30.5 -84.5z" />
<glyph unicode="B" horiz-adv-x="1343" d="M170 0v1434h594q188 0 308 -106t120 -265q0 -98 -61 -180t-138 -105v-2q107 -24 193 -125t86 -221q0 -92 -31 -169.5t-91.5 -136t-157 -91.5t-220.5 -33h-602zM455 242h290q102 0 165 55t63 145q0 89 -66 145t-164 56h-288v-401zM455 862h252q86 0 142 48t56 118 q0 72 -55 118t-143 46h-252v-330z" />
<glyph unicode="C" horiz-adv-x="1548" d="M78 717q0 159 58.5 298t158 237t236.5 154t290 56q209 0 382 -102.5t270 -276.5l-291 -75q-57 79 -156 126.5t-205 47.5q-200 0 -323 -130t-123 -335q0 -208 125.5 -334.5t320.5 -126.5q122 0 227 58t160 153l287 -76q-90 -192 -270 -306t-404 -114q-204 0 -374 95.5 t-269.5 267t-99.5 383.5z" />
<glyph unicode="D" horiz-adv-x="1607" d="M170 0v1434h618q204 0 373 -90t269 -256.5t100 -376.5q0 -157 -58 -291t-157.5 -225.5t-234.5 -143t-287 -51.5h-623zM455 266h338q120 0 220 52t161 155t61 238q0 136 -61.5 241t-162.5 160t-223 55h-333v-901z" />
<glyph unicode="E" horiz-adv-x="1335" d="M170 0v1434h1014v-267h-729v-305h575v-250h-575v-346h741v-266h-1026z" />
<glyph unicode="F" horiz-adv-x="1234" d="M170 0v1434h993v-267h-708v-350h555v-256h-555v-561h-285z" />
<glyph unicode="G" horiz-adv-x="1624" d="M78 717q0 159 58.5 298t158 237t236.5 154t290 56q211 -1 382.5 -103t269.5 -276l-291 -75q-58 79 -156.5 126.5t-204.5 47.5q-200 0 -323 -130t-123 -335q0 -211 130.5 -339t332.5 -128q88 0 162 22.5t124 59.5t82.5 78t50.5 86v61h-397v231h641v-788h-246v45.5t0.5 36 t0.5 26.5v19.5t0.5 12.5t0.5 8v2h-2q-64 -72 -183.5 -125.5t-250.5 -53.5q-204 0 -374 95.5t-269.5 267t-99.5 383.5z" />
<glyph unicode="H" horiz-adv-x="1529" d="M170 0v1434h285v-574h620v574h285v-1434h-285v592h-620v-592h-285z" />
<glyph unicode="I" horiz-adv-x="624" d="M170 0v1434h285v-1434h-285z" />
<glyph unicode="J" horiz-adv-x="1374" d="M23 338l280 76q40 -84 118.5 -130t182.5 -46q164 0 255 99.5t91 272.5v824h285v-811q0 -309 -170.5 -480.5t-460.5 -171.5q-200 0 -358.5 102.5t-222.5 264.5z" />
<glyph unicode="K" horiz-adv-x="1470" d="M170 0v1434h285v-283q0 -100 -1 -188.5t-1.5 -102.5t0.5 -31h2q1 0 22 23t72.5 76.5t109.5 111.5l394 394h350l-600 -603l618 -831h-338l-469 643l-159 -160v-483h-285z" />
<glyph unicode="L" horiz-adv-x="1204" d="M170 0v1434h285v-1168h708v-266h-993z" />
<glyph unicode="M" horiz-adv-x="1736" d="M170 0v1434h268l297 -492q48 -79 81 -137t42 -74l8 -16h2l8 16q9 16 42 74t81 137l299 492h269v-1434h-281v449q0 131 2.5 260t4.5 188t1 59h-2q-1 0 -27 -44.5t-58 -100.5t-42 -72l-223 -385h-147l-224 385q-11 17 -43.5 72t-58.5 100t-27 45h-2q-1 0 1.5 -59.5 t6 -187.5t3.5 -260v-449h-281z" />
<glyph unicode="N" horiz-adv-x="1589" d="M170 0v1434h268l416 -560q42 -56 113 -153.5t119 -164.5t49 -67h2q1 17 1 42v27q0 44 -1.5 175.5t-1.5 231.5v469h284v-1434h-268l-408 553q-55 75 -128 177.5t-116 163t-44 60.5h-2q-1 -17 -1 -40v-24q0 -38 1.5 -173t1.5 -254v-463h-285z" />
<glyph unicode="O" d="M78 717q0 159 58.5 298t158 237t236.5 154t290 56q204 0 374.5 -95t271 -266.5t100.5 -383.5q0 -159 -59 -298.5t-159.5 -237t-237.5 -154t-290 -56.5q-204 0 -374 95.5t-269.5 267t-99.5 383.5zM375 717q0 -205 124.5 -335t321.5 -130q198 0 323.5 130t125.5 335 q0 207 -125.5 336t-323.5 129q-197 0 -321.5 -129.5t-124.5 -335.5z" />
<glyph unicode="P" horiz-adv-x="1296" d="M170 0v1434h512q258 0 405.5 -128t147.5 -352q0 -225 -147.5 -353t-405.5 -128h-227v-473h-285zM455 739h221q125 0 194.5 57.5t69.5 157.5q0 101 -70 157t-194 56h-221v-428z" />
<glyph unicode="Q" d="M78 717q0 159 58.5 298t158 237t236.5 154t290 56q204 0 374.5 -95t271 -266.5t100.5 -383.5q0 -141 -46 -267t-127 -220.5t-192.5 -158.5t-240.5 -87v-254h-285v256q-128 23 -238 87.5t-189.5 159t-125 219.5t-45.5 265zM375 717q0 -205 124.5 -335t321.5 -130 q198 0 323.5 130t125.5 335q0 207 -125.5 336t-323.5 129q-197 0 -321.5 -129.5t-124.5 -335.5z" />
<glyph unicode="R" horiz-adv-x="1363" d="M170 0v1434h502q262 0 412.5 -130.5t150.5 -349.5q0 -147 -69.5 -252t-200.5 -159l327 -543h-319l-285 489h-16h-217v-489h-285zM455 743h254q112 0 171.5 61.5t59.5 149.5q0 91 -60 152t-171 61h-254v-424z" />
<glyph unicode="S" horiz-adv-x="1245" d="M51 401l275 74q25 -104 111 -177t212 -73q111 0 172.5 48.5t61.5 123.5q0 30 -10.5 55.5t-34 46t-47.5 35.5t-65 31.5t-72 27t-84 27.5t-85 29q-44 16 -75.5 28.5t-74.5 33.5t-73 42.5t-62.5 52.5t-52 65t-32.5 80t-13 98q0 170 150.5 291.5t374.5 121.5q198 0 347 -109 t195 -280l-274 -76q-24 103 -104.5 160t-180.5 57q-97 0 -156 -42t-59 -107q0 -19 5 -35.5t18 -31.5t24.5 -26.5t36.5 -24.5t40.5 -21t49.5 -20.5t51.5 -18.5t58.5 -19.5t58 -19.5q73 -25 128 -48.5t119 -62.5t105.5 -83t69 -107t27.5 -137q0 -193 -152 -316t-397 -123 q-221 0 -373.5 115.5t-212.5 314.5z" />
<glyph unicode="T" horiz-adv-x="1239" d="M29 1167v267h1181v-267h-450v-1167h-285v1167h-446z" />
<glyph unicode="U" horiz-adv-x="1515" d="M139 623v811h285v-807q0 -389 334 -389q332 0 332 389v807h286v-811q0 -312 -165.5 -482t-452.5 -170q-288 0 -453.5 170t-165.5 482z" />
<glyph unicode="V" horiz-adv-x="1472" d="M12 1434h312l329 -869q21 -60 41.5 -124t30 -94t10.5 -30h2q1 0 10 30.5t29.5 93.5t42.5 124l328 869h311l-571 -1434h-303z" />
<glyph unicode="W" horiz-adv-x="2103" d="M45 1434h303l225 -775q14 -54 29 -113t21.5 -84.5t7.5 -25.5h2q1 0 7.5 26.5t23.5 83t38 113.5l218 621h264l217 -621q21 -57 38 -113.5t23.5 -83t7.5 -26.5h3q1 0 7.5 26t21 83.5t30.5 113.5l225 775h301l-450 -1434h-265l-221 692q-22 71 -39 135.5t-23 91.5t-7 27h-2 l-6 -27q-6 -27 -23 -91.5t-39 -135.5l-221 -692h-266z" />
<glyph unicode="X" horiz-adv-x="1396" d="M25 0l501 735l-473 699h342l221 -330q8 -13 29 -49t36.5 -63t16.5 -27h2q1 0 16.5 27t35.5 63t28 49l221 330h345l-476 -699l502 -735h-340l-229 326q-11 16 -36.5 59t-45.5 77t-21 34h-2q-1 0 -21.5 -34t-46 -77t-36.5 -59l-229 -326h-340z" />
<glyph unicode="Y" horiz-adv-x="1435" d="M25 1434h319l295 -412q73 -107 78 -107h2q5 0 78 107l293 412h321l-553 -777v-657h-283v657z" />
<glyph unicode="Z" horiz-adv-x="1443" d="M123 0v266l711 785q21 23 52 52.5t51.5 47t20.5 18.5l-2 2l-14 -1q-13 0 -34.5 -0.5t-47.5 -1t-57.5 -1t-57.5 -0.5h-602v267h1178v-267l-688 -774q-26 -29 -57.5 -62t-48.5 -50.5t-17 -18.5l2 -2h6q6 1 16 1.5t24 1t32.5 1t38.5 1t44 1t48 0.5h600v-266h-1198z" />
<glyph unicode="[" horiz-adv-x="763" d="M170 -311v2064h561v-266h-274v-1530h274v-268h-561z" />
<glyph unicode="\" horiz-adv-x="1030" d="M12 1434l711 -1434h295l-733 1434h-273z" />
<glyph unicode="]" horiz-adv-x="770" d="M39 -43v-268h561v2064h-561v-266h274v-1530h-274z" />
<glyph unicode="^" horiz-adv-x="1298" d="M170 977l479 481l479 -481l-124 -113l-355 363l-352 -363z" />
<glyph unicode="_" horiz-adv-x="1589" d="M170 0h1249v-225h-1249v225z" />
<glyph unicode="`" horiz-adv-x="647" d="M12 1708l99 195l473 -254l-84 -152z" />
<glyph unicode="a" horiz-adv-x="1472" d="M12 0l590 1434h268l590 -1434h-307l-106 274h-621l-107 -274h-307zM524 526h424l-141 363q-13 34 -30.5 84.5t-28 82t-11.5 31.5h-2q-1 0 -11 -31.5t-27.5 -82t-30.5 -84.5z" />
<glyph unicode="b" horiz-adv-x="1343" d="M170 0v1434h594q188 0 308 -106t120 -265q0 -98 -61 -180t-138 -105v-2q107 -24 193 -125t86 -221q0 -92 -31 -169.5t-91.5 -136t-157 -91.5t-220.5 -33h-602zM455 242h290q102 0 165 55t63 145q0 89 -66 145t-164 56h-288v-401zM455 862h252q86 0 142 48t56 118 q0 72 -55 118t-143 46h-252v-330z" />
<glyph unicode="c" horiz-adv-x="1548" d="M78 717q0 159 58.5 298t158 237t236.5 154t290 56q209 0 382 -102.5t270 -276.5l-291 -75q-57 79 -156 126.5t-205 47.5q-200 0 -323 -130t-123 -335q0 -208 125.5 -334.5t320.5 -126.5q122 0 227 58t160 153l287 -76q-90 -192 -270 -306t-404 -114q-204 0 -374 95.5 t-269.5 267t-99.5 383.5z" />
<glyph unicode="d" horiz-adv-x="1607" d="M170 0v1434h618q204 0 373 -90t269 -256.5t100 -376.5q0 -157 -58 -291t-157.5 -225.5t-234.5 -143t-287 -51.5h-623zM455 266h338q120 0 220 52t161 155t61 238q0 136 -61.5 241t-162.5 160t-223 55h-333v-901z" />
<glyph unicode="e" horiz-adv-x="1335" d="M170 0v1434h1014v-267h-729v-305h575v-250h-575v-346h741v-266h-1026z" />
<glyph unicode="f" horiz-adv-x="1234" d="M170 0v1434h993v-267h-708v-350h555v-256h-555v-561h-285z" />
<glyph unicode="g" horiz-adv-x="1624" d="M78 717q0 159 58.5 298t158 237t236.5 154t290 56q211 -1 382.5 -103t269.5 -276l-291 -75q-58 79 -156.5 126.5t-204.5 47.5q-200 0 -323 -130t-123 -335q0 -211 130.5 -339t332.5 -128q88 0 162 22.5t124 59.5t82.5 78t50.5 86v61h-397v231h641v-788h-246v45.5t0.5 36 t0.5 26.5v19.5t0.5 12.5t0.5 8v2h-2q-64 -72 -183.5 -125.5t-250.5 -53.5q-204 0 -374 95.5t-269.5 267t-99.5 383.5z" />
<glyph unicode="h" horiz-adv-x="1529" d="M170 0v1434h285v-574h620v574h285v-1434h-285v592h-620v-592h-285z" />
<glyph unicode="i" horiz-adv-x="624" d="M170 0v1434h285v-1434h-285z" />
<glyph unicode="j" horiz-adv-x="1374" d="M23 338l280 76q40 -84 118.5 -130t182.5 -46q164 0 255 99.5t91 272.5v824h285v-811q0 -309 -170.5 -480.5t-460.5 -171.5q-200 0 -358.5 102.5t-222.5 264.5z" />
<glyph unicode="k" horiz-adv-x="1470" d="M170 0v1434h285v-283q0 -100 -1 -188.5t-1.5 -102.5t0.5 -31h2q1 0 22 23t72.5 76.5t109.5 111.5l394 394h350l-600 -603l618 -831h-338l-469 643l-159 -160v-483h-285z" />
<glyph unicode="l" horiz-adv-x="1204" d="M170 0v1434h285v-1168h708v-266h-993z" />
<glyph unicode="m" horiz-adv-x="1736" d="M170 0v1434h268l297 -492q48 -79 81 -137t42 -74l8 -16h2l8 16q9 16 42 74t81 137l299 492h269v-1434h-281v449q0 131 2.5 260t4.5 188t1 59h-2q-1 0 -27 -44.5t-58 -100.5t-42 -72l-223 -385h-147l-224 385q-11 17 -43.5 72t-58.5 100t-27 45h-2q-1 0 1.5 -59.5 t6 -187.5t3.5 -260v-449h-281z" />
<glyph unicode="n" horiz-adv-x="1589" d="M170 0v1434h268l416 -560q42 -56 113 -153.5t119 -164.5t49 -67h2q1 17 1 42v27q0 44 -1.5 175.5t-1.5 231.5v469h284v-1434h-268l-408 553q-55 75 -128 177.5t-116 163t-44 60.5h-2q-1 -17 -1 -40v-24q0 -38 1.5 -173t1.5 -254v-463h-285z" />
<glyph unicode="o" d="M78 717q0 159 58.5 298t158 237t236.5 154t290 56q204 0 374.5 -95t271 -266.5t100.5 -383.5q0 -159 -59 -298.5t-159.5 -237t-237.5 -154t-290 -56.5q-204 0 -374 95.5t-269.5 267t-99.5 383.5zM375 717q0 -205 124.5 -335t321.5 -130q198 0 323.5 130t125.5 335 q0 207 -125.5 336t-323.5 129q-197 0 -321.5 -129.5t-124.5 -335.5z" />
<glyph unicode="p" horiz-adv-x="1296" d="M170 0v1434h512q258 0 405.5 -128t147.5 -352q0 -225 -147.5 -353t-405.5 -128h-227v-473h-285zM455 739h221q125 0 194.5 57.5t69.5 157.5q0 101 -70 157t-194 56h-221v-428z" />
<glyph unicode="q" d="M78 717q0 159 58.5 298t158 237t236.5 154t290 56q204 0 374.5 -95t271 -266.5t100.5 -383.5q0 -141 -46 -267t-127 -220.5t-192.5 -158.5t-240.5 -87v-254h-285v256q-128 23 -238 87.5t-189.5 159t-125 219.5t-45.5 265zM375 717q0 -205 124.5 -335t321.5 -130 q198 0 323.5 130t125.5 335q0 207 -125.5 336t-323.5 129q-197 0 -321.5 -129.5t-124.5 -335.5z" />
<glyph unicode="r" horiz-adv-x="1363" d="M170 0v1434h502q262 0 412.5 -130.5t150.5 -349.5q0 -147 -69.5 -252t-200.5 -159l327 -543h-319l-285 489h-16h-217v-489h-285zM455 743h254q112 0 171.5 61.5t59.5 149.5q0 91 -60 152t-171 61h-254v-424z" />
<glyph unicode="s" horiz-adv-x="1245" d="M51 401l275 74q25 -104 111 -177t212 -73q111 0 172.5 48.5t61.5 123.5q0 30 -10.5 55.5t-34 46t-47.5 35.5t-65 31.5t-72 27t-84 27.5t-85 29q-44 16 -75.5 28.5t-74.5 33.5t-73 42.5t-62.5 52.5t-52 65t-32.5 80t-13 98q0 170 150.5 291.5t374.5 121.5q198 0 347 -109 t195 -280l-274 -76q-24 103 -104.5 160t-180.5 57q-97 0 -156 -42t-59 -107q0 -19 5 -35.5t18 -31.5t24.5 -26.5t36.5 -24.5t40.5 -21t49.5 -20.5t51.5 -18.5t58.5 -19.5t58 -19.5q73 -25 128 -48.5t119 -62.5t105.5 -83t69 -107t27.5 -137q0 -193 -152 -316t-397 -123 q-221 0 -373.5 115.5t-212.5 314.5z" />
<glyph unicode="t" horiz-adv-x="1239" d="M29 1167v267h1181v-267h-450v-1167h-285v1167h-446z" />
<glyph unicode="u" horiz-adv-x="1515" d="M139 623v811h285v-807q0 -389 334 -389q332 0 332 389v807h286v-811q0 -312 -165.5 -482t-452.5 -170q-288 0 -453.5 170t-165.5 482z" />
<glyph unicode="v" horiz-adv-x="1472" d="M12 1434h312l329 -869q21 -60 41.5 -124t30 -94t10.5 -30h2q1 0 10 30.5t29.5 93.5t42.5 124l328 869h311l-571 -1434h-303z" />
<glyph unicode="w" horiz-adv-x="2103" d="M45 1434h303l225 -775q14 -54 29 -113t21.5 -84.5t7.5 -25.5h2q1 0 7.5 26.5t23.5 83t38 113.5l218 621h264l217 -621q21 -57 38 -113.5t23.5 -83t7.5 -26.5h3q1 0 7.5 26t21 83.5t30.5 113.5l225 775h301l-450 -1434h-265l-221 692q-22 71 -39 135.5t-23 91.5t-7 27h-2 l-6 -27q-6 -27 -23 -91.5t-39 -135.5l-221 -692h-266z" />
<glyph unicode="x" horiz-adv-x="1396" d="M25 0l501 735l-473 699h342l221 -330q8 -13 29 -49t36.5 -63t16.5 -27h2q1 0 16.5 27t35.5 63t28 49l221 330h345l-476 -699l502 -735h-340l-229 326q-11 16 -36.5 59t-45.5 77t-21 34h-2q-1 0 -21.5 -34t-46 -77t-36.5 -59l-229 -326h-340z" />
<glyph unicode="y" horiz-adv-x="1435" d="M25 1434h319l295 -412q73 -107 78 -107h2q5 0 78 107l293 412h321l-553 -777v-657h-283v657z" />
<glyph unicode="z" horiz-adv-x="1443" d="M123 0v266l711 785q21 23 52 52.5t51.5 47t20.5 18.5l-2 2l-14 -1q-13 0 -34.5 -0.5t-47.5 -1t-57.5 -1t-57.5 -0.5h-602v267h1178v-267l-688 -774q-26 -29 -57.5 -62t-48.5 -50.5t-17 -18.5l2 -2h6q6 1 16 1.5t24 1t32.5 1t38.5 1t44 1t48 0.5h600v-266h-1198z" />
<glyph unicode="{" horiz-adv-x="886" d="M170 721q5 2 14 6t32 25.5t40.5 53t32 92.5t14.5 138v217q0 250 144.5 392.5t414.5 142.5v-266q-46 0 -82 -6.5t-73.5 -26t-62 -52.5t-40.5 -91t-16 -136v-161q0 -77 -10.5 -138.5t-25 -95t-31.5 -56.5t-27.5 -30t-16.5 -8q6 -1 16.5 -8.5t27.5 -30.5t31.5 -56.5 t25 -95.5t10.5 -139v-160q0 -78 16 -135.5t40.5 -90.5t62.5 -53t73.5 -26t81.5 -6v-266q-270 0 -414.5 142t-144.5 392v218q0 56 -7.5 104t-19 79.5t-25.5 56.5t-28.5 38.5t-26 22t-18.5 11.5z" />
<glyph unicode="|" horiz-adv-x="567" d="M170 -152v1739h227v-1739h-227z" />
<glyph unicode="}" horiz-adv-x="886" d="M25 -80v-266q270 0 414.5 142t144.5 392v218q0 77 13.5 138t33 92.5t39.5 52.5t34 27l13 5q-5 2 -14 6t-32 25.5t-40.5 53t-32 92.5t-14.5 138v217q0 250 -144.5 392.5t-414.5 142.5v-266q46 0 82 -6.5t73.5 -26t62 -52.5t40.5 -91t16 -136v-161q0 -77 10.5 -138.5 t25 -95t31.5 -56.5t27.5 -30t16.5 -8q-6 -1 -16.5 -8.5t-27.5 -30.5t-31.5 -56.5t-25 -95.5t-10.5 -139v-160q0 -78 -16 -135.5t-40.5 -90.5t-62.5 -53t-73.5 -26t-81.5 -6z" />
<glyph unicode="~" horiz-adv-x="1429" d="M160 606q10 71 44.5 126t83 86.5t101 47t107.5 15.5q61 0 126.5 -21.5t110.5 -46.5t95.5 -46.5t86.5 -21.5q72 0 105 38.5t33 88.5l237 -63q-10 -71 -43.5 -125.5t-82 -86t-101 -47t-107.5 -15.5q-62 0 -127.5 21t-110.5 46.5t-96 46.5t-87 21q-74 0 -106 -37t-34 -88z " />
<glyph unicode="&#xa1;" horiz-adv-x="624" d="M170 0v985h285v-985h-285zM170 1112v322h285v-322h-285z" />
<glyph unicode="&#xa2;" horiz-adv-x="1181" d="M78 711q0 199 120.5 346.5t305.5 187.5v217h229v-215q126 -26 226.5 -104t154.5 -191l-250 -65q-83 125 -241 125q-130 0 -206.5 -81t-76.5 -220t77 -221t206 -82q181 0 258 157l247 -69q-49 -124 -154.5 -210t-240.5 -114v-201h-229v203q-185 41 -305.5 188.5 t-120.5 348.5z" />
<glyph unicode="&#xa3;" horiz-adv-x="1335" d="M170 0v266q94 19 123 79.5t16 184.5l-6 60h-129v225h109l-17 184q-12 122 49.5 229t171.5 169t238 65q56 1 115.5 -10t124.5 -40.5t119.5 -73.5t99.5 -114.5t67 -158.5l-241 -68q-34 108 -102.5 162.5t-166.5 50.5q-95 -4 -147 -72.5t-43 -164.5l14 -158h418v-225h-395 l4 -51q20 -210 -80 -279l2 -2h9q9 1 26 1.5t40 1.5t53 2t63 1.5t74 1t81 0.5h393v-266h-1083z" />
<glyph unicode="&#xa4;" horiz-adv-x="1361" d="M84 1147l141 141l142 -141q140 100 311 100q172 0 315 -100l144 141l139 -141l-141 -141q98 -141 98 -312q0 -172 -98 -313l139 -141l-141 -142l-142 142q-146 -101 -313 -101q-168 0 -309 101l-142 -142l-139 142l137 139q-98 145 -98 315q0 173 98 314zM383 698 q0 -131 86 -216t211 -85q126 0 212.5 84.5t86.5 216.5q0 129 -86.5 215t-212.5 86q-124 0 -210.5 -86t-86.5 -215z" />
<glyph unicode="&#xa5;" horiz-adv-x="1433" d="M25 1434h319l295 -412q73 -107 78 -107h2q5 0 78 107l293 412h321l-354 -498h213v-186h-346l-47 -68h393v-188h-412v-494h-283v494h-405v188h387l-47 68h-340v186h207z" />
<glyph unicode="&#xa6;" horiz-adv-x="567" d="M170 -152v594h227v-594h-227zM170 1014v573h227v-573h-227z" />
<glyph unicode="&#xa7;" horiz-adv-x="1087" d="M51 270l232 62q25 -76 97 -127t181 -51q97 0 151 33.5t54 86.5q0 22 -9 40t-29 33t-40 25.5t-56.5 22.5t-62 19.5t-72 20t-73.5 20.5q-56 16 -92.5 29t-87 37.5t-80.5 52t-52 70.5t-22 95q0 71 46.5 126t131.5 89q-162 77 -162 222q0 119 126.5 203.5t316.5 84.5 q164 0 288.5 -74t166.5 -190l-232 -61q-19 71 -85 109t-152 38q-81 0 -130 -28.5t-49 -71.5q0 -19 7.5 -34.5t24 -27.5t34 -21t46 -18t52 -15t60 -15.5t61.5 -16.5q77 -21 135 -44t117.5 -59t92 -87.5t32.5 -114.5q0 -152 -180 -207q188 -90 188 -241q0 -139 -130.5 -227.5 t-342.5 -88.5q-190 0 -319.5 81t-182.5 220zM330 752q0 -20 8 -36t26 -28.5t37 -22t50.5 -19t56 -15.5t64 -16t65.5 -17q65 11 102 42t37 81q0 17 -4 31t-15 26t-21 21.5t-30 18.5t-33.5 14.5t-41 13.5t-42 11.5t-47.5 11.5t-48 12q-67 -8 -115.5 -42t-48.5 -87z" />
<glyph unicode="&#xa8;" horiz-adv-x="878" d="M12 1704q0 56 39 94.5t96 38.5q56 0 95 -39t39 -94q0 -57 -39 -95t-95 -38q-57 0 -96 38t-39 95zM541 1704q0 56 39 94.5t96 38.5t96 -38.5t39 -94.5q0 -57 -39 -95t-96 -38t-96 38t-39 95z" />
<glyph unicode="&#xa9;" d="M78 717q0 159 58.5 298t158 237t236.5 154t290 56q204 0 374.5 -95t271 -266.5t100.5 -383.5q0 -159 -59 -298.5t-159.5 -237t-237.5 -154t-290 -56.5q-204 0 -374 95.5t-269.5 267t-99.5 383.5zM289 717q0 -238 150.5 -391.5t381.5 -153.5t382 153.5t151 391.5 q0 159 -69 285t-190.5 195t-273.5 69q-231 0 -381.5 -153.5t-150.5 -395.5zM475 717q0 151 102 251.5t248 100.5q102 0 189.5 -54.5t128.5 -142.5l-164 -43q-53 78 -154 78q-82 0 -131 -51.5t-49 -138.5q0 -86 49 -137.5t131 -51.5q55 0 97.5 26.5t64.5 72.5l164 -45 q-37 -96 -127.5 -156.5t-198.5 -60.5q-146 0 -248 101t-102 251z" />
<glyph unicode="&#xaa;" horiz-adv-x="743" d="M41 465v174h661v-174h-661zM43 768l248 682h160l249 -682h-178l-39 125h-225l-41 -125h-174zM301 1024h139l-28 90q-13 39 -22 82.5t-13 66.5l-4 23h-2q-1 0 -5 -23t-14 -66.5t-22 -82.5z" />
<glyph unicode="&#xab;" horiz-adv-x="1595" d="M170 721l481 -481l158 157l-338 324l336 323l-154 156zM786 721l482 -481l157 157l-338 324l336 323l-153 156z" />
<glyph unicode="&#xad;" horiz-adv-x="1273" d="M170 610v234h934v-234h-934z" />
<glyph unicode="&#xae;" d="M78 717q0 159 58.5 298t158 237t236.5 154t290 56q204 0 374.5 -95t271 -266.5t100.5 -383.5q0 -159 -59 -298.5t-159.5 -237t-237.5 -154t-290 -56.5q-204 0 -374 95.5t-269.5 267t-99.5 383.5zM289 717q0 -238 150.5 -391.5t381.5 -153.5t382 153.5t151 391.5 q0 159 -69 285t-190.5 195t-273.5 69q-231 0 -381.5 -153.5t-150.5 -395.5zM580 371v696h245q127 0 200 -62t73 -167q0 -143 -127 -197l164 -270h-170l-138 243h-2h-88v-243h-157zM737 743h107q48 0 73 25.5t25 65.5q0 38 -26 63t-72 25h-107v-179z" />
<glyph unicode="&#xaf;" horiz-adv-x="704" d="M-20 1380v222h694v-222h-694z" />
<glyph unicode="&#xb0;" horiz-adv-x="659" d="M49 1454q0 115 83.5 198t199.5 83q115 0 196.5 -82.5t81.5 -198.5q0 -114 -81.5 -196t-196.5 -82q-116 0 -199.5 82t-83.5 196zM219 1456q0 -44 33.5 -77t79.5 -33q47 0 80.5 32.5t33.5 77.5q0 49 -33 82t-81 33q-46 0 -79.5 -33t-33.5 -82z" />
<glyph unicode="&#xb1;" horiz-adv-x="1429" d="M248 -18v233h936v-233h-936zM248 610v234h342v350h250v-350h344v-234h-342v-239h-250v239h-344z" />
<glyph unicode="&#xb2;" horiz-adv-x="688" d="M41 1524q25 108 108.5 183t200.5 75q124 0 206.5 -78t82.5 -193q0 -129 -129 -237q-41 -34 -111 -86q-26 -18 -54 -34.5t-43 -24.5t-15 -9l2 -2q1 0 12.5 1.5t31 4t44.5 4.5t58.5 3.5t66.5 1.5h133v-162h-586v123l277 231q46 39 68.5 60.5t42.5 56t20 69.5q0 43 -32 72 t-79 29q-33 0 -58 -11.5t-41 -33.5t-25 -41t-17 -45z" />
<glyph unicode="&#xb3;" horiz-adv-x="704" d="M41 1190l160 43q19 -121 157 -121q56 0 88.5 28t32.5 72q0 45 -35.5 73t-91.5 28h-76v131h76q49 0 82 27.5t33 66.5q0 36 -30.5 62t-80.5 26q-59 0 -93.5 -27.5t-51.5 -91.5l-158 43q24 106 105 169t198 63q133 0 210 -66.5t77 -165.5q0 -74 -53 -121t-113 -49v-2 q72 -3 125 -47.5t53 -122.5q0 -112 -84.5 -183t-212.5 -71q-118 0 -208 67t-109 169z" />
<glyph unicode="&#xb4;" horiz-adv-x="647" d="M12 1649l473 254l99 -195l-490 -211z" />
<glyph unicode="&#xb6;" horiz-adv-x="1566" d="M78 1024q0 192 132.5 301t367.5 109h817v-1434h-285v1165h-172v-1165h-268v612h-92q-235 0 -367.5 109.5t-132.5 302.5z" />
<glyph unicode="&#xb7;" horiz-adv-x="528" d="M123 725q0 58 41 98.5t100 40.5q58 0 100 -41t42 -98q0 -60 -41.5 -100.5t-100.5 -40.5t-100 40.5t-41 100.5z" />
<glyph unicode="&#xb8;" horiz-adv-x="532" d="M12 -535l60 152h159q38 0 58 18t20 46q0 27 -22 44t-56 19h-190l88 256h160l-41 -111q91 2 155 -55t64 -151q0 -109 -66.5 -163.5t-169.5 -54.5h-219z" />
<glyph unicode="&#xb9;" horiz-adv-x="514" d="M23 1497l292 268h131v-794h-186v401q0 20 1 43t3 42.5t4 36t3 26.5l1 10h-2q-1 0 -9 -11t-25 -31.5t-37 -37.5l-60 -57z" />
<glyph unicode="&#xba;" horiz-adv-x="745" d="M20 1106q0 152 102 253t251 101q148 0 250 -101t102 -253q0 -151 -102 -251.5t-250 -100.5q-149 0 -251 100.5t-102 251.5zM41 465v174h664v-174h-664zM195 1106q0 -79 50.5 -131.5t127.5 -52.5t127.5 52.5t50.5 131.5q0 81 -50.5 133.5t-127.5 52.5t-127.5 -52.5 t-50.5 -133.5z" />
<glyph unicode="&#xbb;" horiz-adv-x="1595" d="M170 397l338 324l-336 323l154 156l483 -479l-481 -481zM786 397l338 324l-336 323l154 156l483 -479l-481 -481z" />
<glyph unicode="&#xbc;" horiz-adv-x="1476" d="M23 1165l292 269h131v-795h-186v401q0 20 1 43t3 42.5t4 36t3 26.5l1 10h-2q-1 0 -9 -11t-25 -31.5t-37 -37.5l-60 -57zM129 0l1010 1434h188l-1012 -1434h-186zM774 154v127l422 514h141v-488h90v-153h-90v-154h-166v154h-397zM961 301l2 -2l6 1q6 0 15.5 1t22 2t28 1.5 t30.5 0.5h106v133q0 15 0.5 31.5t1.5 29.5t1.5 24t1.5 17v7h-2q-1 0 -9.5 -12t-24 -32t-28.5 -34l-96 -113q-13 -14 -27.5 -28t-21 -20t-6.5 -7z" />
<glyph unicode="&#xbd;" horiz-adv-x="1544" d="M23 1165l292 269h131v-795h-186v401q0 20 1 43t3 42.5t4 36t3 26.5l1 10h-2q-1 0 -9 -11t-25 -31.5t-37 -37.5l-60 -57zM129 0l1010 1434h188l-1012 -1434h-186zM897 553q25 108 108.5 183t200.5 75q124 0 206.5 -77.5t82.5 -192.5q0 -130 -129 -238q-41 -34 -111 -86 q-26 -18 -54 -34.5t-43 -24t-15 -8.5l2 -3q1 0 12.5 1.5t31 3.5t44.5 4.5t58.5 4t66.5 1.5h133v-162h-586v123l277 231q45 38 68 60.5t43 57t20 69.5q0 43 -32 71.5t-79 28.5q-33 0 -58 -11.5t-41 -33.5t-25 -41t-17 -45z" />
<glyph unicode="&#xbe;" horiz-adv-x="1609" d="M41 858l160 43q19 -121 157 -121q56 0 88.5 28.5t32.5 72.5q0 45 -35.5 72.5t-91.5 27.5h-76v131h76q49 0 82 27.5t33 66.5q0 36 -30.5 62t-80.5 26q-59 0 -93.5 -27t-51.5 -91l-158 43q23 105 104.5 168t198.5 63q133 0 210 -66t77 -165q0 -74 -53 -121t-113 -49v-2 q72 -3 125 -47.5t53 -122.5q0 -112 -84.5 -183t-212.5 -71q-118 0 -208 66.5t-109 168.5zM260 0l1012 1434h188l-1011 -1434h-189zM907 154v127l422 514h141v-488h91v-153h-91v-154h-165v154h-398zM1094 301l2 -2l6 1q6 0 15.5 1t22 2t28 1.5t30.5 0.5h107v133 q0 15 0.5 31.5t1 29.5t1 24t0.5 17l1 7h-2q-1 0 -9.5 -12t-24 -32t-28.5 -34l-96 -113q-13 -14 -27.5 -28t-21 -20t-6.5 -7z" />
<glyph unicode="&#xbf;" horiz-adv-x="1196" d="M76 387q0 52 12.5 98.5t29.5 81.5t51 71t61 59t75.5 53t78 46.5t85.5 45.5v143h287v-248q-232 -126 -307.5 -187t-75.5 -144q0 -31 11 -61t35 -58.5t68.5 -46t104.5 -17.5q117 0 184 51t103 162l239 -67q-44 -184 -187.5 -291t-348.5 -107q-239 0 -372.5 118.5 t-133.5 297.5zM469 1112v322h287v-322h-287z" />
<glyph unicode="&#xc0;" horiz-adv-x="1472" d="M12 0l590 1434h268l590 -1434h-307l-106 274h-621l-107 -274h-307zM356 1708l101 195l471 -254l-82 -152zM524 526h424l-141 363q-13 34 -30.5 84.5t-28 82t-11.5 31.5h-2q-1 0 -11 -31.5t-27.5 -82t-30.5 -84.5z" />
<glyph unicode="&#xc1;" horiz-adv-x="1472" d="M12 0l590 1434h268l590 -1434h-307l-106 274h-621l-107 -274h-307zM498 1649l473 254l98 -195l-487 -211zM524 526h424l-141 363q-13 34 -30.5 84.5t-28 82t-11.5 31.5h-2q-1 0 -11 -31.5t-27.5 -82t-30.5 -84.5z" />
<glyph unicode="&#xc2;" horiz-adv-x="1472" d="M12 0l590 1434h268l590 -1434h-307l-106 274h-621l-107 -274h-307zM346 1638l383 326l381 -326l-137 -141l-244 203l-244 -203zM524 526h424l-141 363q-13 34 -30.5 84.5t-28 82t-11.5 31.5h-2q-1 0 -11 -31.5t-27.5 -82t-30.5 -84.5z" />
<glyph unicode="&#xc3;" horiz-adv-x="1472" d="M12 0l590 1434h268l590 -1434h-307l-106 274h-621l-107 -274h-307zM279 1561q0 123 82 203.5t208 80.5q51 0 98.5 -19.5t77 -43t65 -43t64.5 -19.5q41 0 68 26t27 64h223q0 -123 -82 -202.5t-209 -79.5q-39 0 -76.5 12.5t-66 31t-55 36.5t-54.5 30.5t-53 12.5 q-41 0 -67.5 -25t-26.5 -65h-223zM524 526h424l-141 363q-13 34 -30.5 84.5t-28 82t-11.5 31.5h-2q-1 0 -11 -31.5t-27.5 -82t-30.5 -84.5z" />
<glyph unicode="&#xc4;" horiz-adv-x="1472" d="M12 0l590 1434h268l590 -1434h-307l-106 274h-621l-107 -274h-307zM328 1704q0 56 39.5 94.5t97.5 38.5q55 0 94 -38.5t39 -94.5q0 -57 -38.5 -95t-94.5 -38q-59 0 -98 38t-39 95zM524 526h424l-141 363q-13 34 -30.5 84.5t-28 82t-11.5 31.5h-2q-1 0 -11 -31.5 t-27.5 -82t-30.5 -84.5zM858 1704q0 56 39 94.5t96 38.5q55 0 94 -38.5t39 -94.5q0 -57 -38.5 -95t-94.5 -38q-57 0 -96 38t-39 95z" />
<glyph unicode="&#xc5;" horiz-adv-x="1472" d="M12 0l588 1430q-66 37 -105.5 102.5t-39.5 142.5q0 114 82.5 196.5t197.5 82.5t198 -82.5t83 -196.5q0 -76 -39.5 -141.5t-104.5 -101.5l588 -1432h-307l-106 274h-621l-107 -274h-307zM524 526h424l-141 363q-13 34 -30.5 84.5t-28 82t-11.5 31.5h-2q-1 0 -11 -31.5 t-27.5 -82t-30.5 -84.5zM623 1675q0 -44 34 -77t78 -33q47 0 81 33t34 77q0 49 -33.5 83t-81.5 34q-45 0 -78.5 -34t-33.5 -83z" />
<glyph unicode="&#xc6;" horiz-adv-x="2074" d="M12 0l596 1434h1315v-267h-727v-305h576v-250h-576v-346h739v-266h-1017v274h-488l-108 -274h-310zM528 526h390v641h-146q-1 0 -18.5 -47t-46 -126t-45.5 -124z" />
<glyph unicode="&#xc7;" horiz-adv-x="1548" d="M78 717q0 159 58.5 298t158 237t236.5 154t290 56q209 0 382 -102.5t270 -276.5l-291 -75q-57 79 -156 126.5t-205 47.5q-200 0 -323 -130t-123 -335q0 -208 125.5 -334.5t320.5 -126.5q122 0 227 58t160 153l287 -76q-84 -180 -247 -291.5t-367 -126.5l-31 -84 q91 2 155 -55t64 -151q0 -109 -67 -163.5t-171 -54.5h-217l60 152h157q39 0 58.5 18t19.5 46t-21.5 44.5t-56.5 18.5h-188l80 233q-136 17 -254.5 79.5t-205 158t-136 226t-49.5 276.5z" />
<glyph unicode="&#xc8;" horiz-adv-x="1335" d="M170 0v1434h1014v-267h-729v-305h575v-250h-575v-346h741v-266h-1026zM324 1708l100 195l471 -254l-82 -152z" />
<glyph unicode="&#xc9;" horiz-adv-x="1335" d="M170 0v1434h1014v-267h-729v-305h575v-250h-575v-346h741v-266h-1026zM465 1649l473 254l98 -195l-487 -211z" />
<glyph unicode="&#xca;" horiz-adv-x="1335" d="M170 0v1434h1014v-267h-729v-305h575v-250h-575v-346h741v-266h-1026zM313 1638l383 326l381 -326l-137 -141l-244 203l-243 -203z" />
<glyph unicode="&#xcb;" horiz-adv-x="1335" d="M170 0v1434h1014v-267h-729v-305h575v-250h-575v-346h741v-266h-1026zM295 1704q0 56 39.5 94.5t97.5 38.5q56 0 94.5 -38.5t38.5 -94.5q0 -57 -38.5 -95t-94.5 -38q-59 0 -98 38t-39 95zM825 1704q0 56 39.5 94.5t96.5 38.5q55 0 94 -38.5t39 -94.5q0 -57 -38.5 -95 t-94.5 -38q-57 0 -96.5 38t-39.5 95z" />
<glyph unicode="&#xcc;" horiz-adv-x="624" d="M-66 1708l101 195l471 -254l-82 -152zM170 0v1434h285v-1434h-285z" />
<glyph unicode="&#xcd;" horiz-adv-x="624" d="M76 1649l473 254l98 -195l-487 -211zM170 0v1434h285v-1434h-285z" />
<glyph unicode="&#xce;" horiz-adv-x="624" d="M-76 1638l383 326l381 -326l-137 -141l-244 203l-244 -203zM170 0v1434h285v-1434h-285z" />
<glyph unicode="&#xcf;" horiz-adv-x="624" d="M-94 1704q0 56 39.5 94.5t97.5 38.5q55 0 94 -38.5t39 -94.5q0 -57 -38.5 -95t-94.5 -38q-59 0 -98 38t-39 95zM170 0v1434h285v-1434h-285zM436 1704q0 56 39 94.5t96 38.5q56 0 95 -39t39 -94q0 -57 -39 -95t-95 -38q-57 0 -96 38t-39 95z" />
<glyph unicode="&#xd0;" horiz-adv-x="1630" d="M78 598v256h115v580h618q153 0 289 -53t235.5 -146.5t158 -229.5t58.5 -294q0 -157 -58 -291t-157.5 -225.5t-234.5 -143t-287 -51.5h-622v598h-115zM477 266h338q120 0 220 52t161 155t61 238q0 136 -61 241t-162 160t-223 55h-334v-313h268v-256h-268v-332z" />
<glyph unicode="&#xd1;" horiz-adv-x="1589" d="M170 0v1434h268l416 -560q42 -56 113 -153.5t119 -164.5t49 -67h2q1 25 0.5 69.5t-1.5 175.5t-1 231v469h284v-1434h-268l-408 553q-55 75 -128 177.5t-116 163t-44 60.5h-2q-1 -26 -0.5 -64t1.5 -173t1 -254v-463h-285zM340 1561q0 123 82.5 203.5t208.5 80.5 q51 0 98.5 -19.5t77 -43t65 -43t64.5 -19.5q41 0 67.5 25.5t26.5 64.5h223q0 -123 -81.5 -202.5t-208.5 -79.5q-48 0 -94.5 19t-77 42.5t-67.5 42.5t-67 19q-41 0 -67.5 -25t-26.5 -65h-223z" />
<glyph unicode="&#xd2;" d="M78 717q0 159 58.5 298t158 237t236.5 154t290 56q204 0 374.5 -95t271 -266.5t100.5 -383.5q0 -159 -59 -298.5t-159.5 -237t-237.5 -154t-290 -56.5q-204 0 -374 95.5t-269.5 267t-99.5 383.5zM375 717q0 -205 124.5 -335t321.5 -130q198 0 323.5 130t125.5 335 q0 207 -125.5 336t-323.5 129q-197 0 -321.5 -129.5t-124.5 -335.5zM453 1708l100 195l471 -254l-82 -152z" />
<glyph unicode="&#xd3;" d="M78 717q0 159 58.5 298t158 237t236.5 154t290 56q204 0 374.5 -95t271 -266.5t100.5 -383.5q0 -159 -59 -298.5t-159.5 -237t-237.5 -154t-290 -56.5q-204 0 -374 95.5t-269.5 267t-99.5 383.5zM375 717q0 -205 124.5 -335t321.5 -130q198 0 323.5 130t125.5 335 q0 207 -125.5 336t-323.5 129q-197 0 -321.5 -129.5t-124.5 -335.5zM594 1649l473 254l98 -195l-487 -211z" />
<glyph unicode="&#xd4;" d="M78 717q0 159 58.5 298t158 237t236.5 154t290 56q204 0 374.5 -95t271 -266.5t100.5 -383.5q0 -159 -59 -298.5t-159.5 -237t-237.5 -154t-290 -56.5q-204 0 -374 95.5t-269.5 267t-99.5 383.5zM375 717q0 -205 124.5 -335t321.5 -130q198 0 323.5 130t125.5 335 q0 207 -125.5 336t-323.5 129q-197 0 -321.5 -129.5t-124.5 -335.5zM442 1638l383 326l381 -326l-137 -141l-244 203l-243 -203z" />
<glyph unicode="&#xd5;" d="M78 717q0 159 58.5 298t158 237t236.5 154t290 56q204 0 374.5 -95t271 -266.5t100.5 -383.5q0 -159 -59 -298.5t-159.5 -237t-237.5 -154t-290 -56.5q-204 0 -374 95.5t-269.5 267t-99.5 383.5zM375 717q0 -205 124.5 -335t321.5 -130q198 0 323.5 130t125.5 335 q0 207 -125.5 336t-323.5 129q-197 0 -321.5 -129.5t-124.5 -335.5zM375 1561q0 123 82.5 203.5t208.5 80.5q51 0 98.5 -19.5t77 -43t65 -43t64.5 -19.5q41 0 67.5 25.5t26.5 64.5h223q0 -123 -82 -202.5t-209 -79.5q-39 0 -76.5 12.5t-66 31t-55 36.5t-54.5 30.5t-53 12.5 q-41 0 -67.5 -25t-26.5 -65h-223z" />
<glyph unicode="&#xd6;" d="M78 717q0 159 58.5 298t158 237t236.5 154t290 56q204 0 374.5 -95t271 -266.5t100.5 -383.5q0 -159 -59 -298.5t-159.5 -237t-237.5 -154t-290 -56.5q-204 0 -374 95.5t-269.5 267t-99.5 383.5zM375 717q0 -205 124.5 -335t321.5 -130q198 0 323.5 130t125.5 335 q0 207 -125.5 336t-323.5 129q-197 0 -321.5 -129.5t-124.5 -335.5zM424 1704q0 56 39.5 94.5t97.5 38.5q55 0 94 -38.5t39 -94.5q0 -57 -38.5 -95t-94.5 -38q-59 0 -98 38t-39 95zM954 1704q0 56 39.5 94.5t96.5 38.5q56 0 94.5 -38.5t38.5 -94.5q0 -57 -38.5 -95 t-94.5 -38q-57 0 -96.5 38t-39.5 95z" />
<glyph unicode="&#xd7;" horiz-adv-x="1429" d="M270 467l254 254l-254 254l189 188l256 -252l258 256l188 -190l-256 -256l256 -258l-190 -189l-256 256l-254 -254z" />
<glyph unicode="&#xd8;" d="M78 717q0 159 58.5 298t158 237t236.5 154t290 56q188 0 353 -84l75 99l203 -152l-78 -100q193 -209 193 -508q0 -159 -59 -298.5t-159.5 -237t-237.5 -154t-290 -56.5q-182 0 -342 80l-76 -98l-202 151l73 99q-93 101 -144.5 232.5t-51.5 281.5zM375 717q0 -162 80 -281 l544 713q-87 33 -178 33q-197 0 -321.5 -129.5t-124.5 -335.5zM653 281q82 -29 168 -29q198 0 323.5 130t125.5 335q0 155 -74 272z" />
<glyph unicode="&#xd9;" horiz-adv-x="1515" d="M139 623v811h285v-807q0 -389 334 -389q332 0 332 389v807h286v-811q0 -312 -165.5 -482t-452.5 -170q-288 0 -453.5 170t-165.5 482zM381 1708l100 195l471 -254l-82 -152z" />
<glyph unicode="&#xda;" horiz-adv-x="1515" d="M139 623v811h285v-807q0 -389 334 -389q332 0 332 389v807h286v-811q0 -312 -165.5 -482t-452.5 -170q-288 0 -453.5 170t-165.5 482zM522 1649l473 254l99 -195l-488 -211z" />
<glyph unicode="&#xdb;" horiz-adv-x="1515" d="M139 623v811h285v-807q0 -389 334 -389q332 0 332 389v807h286v-811q0 -312 -165.5 -482t-452.5 -170q-288 0 -453.5 170t-165.5 482zM371 1638l383 326l381 -326l-138 -141l-243 203l-244 -203z" />
<glyph unicode="&#xdc;" horiz-adv-x="1515" d="M139 623v811h285v-807q0 -389 334 -389q332 0 332 389v807h286v-811q0 -312 -165.5 -482t-452.5 -170q-288 0 -453.5 170t-165.5 482zM352 1704q0 56 39.5 94.5t97.5 38.5q56 0 95 -39t39 -94q0 -57 -39 -95t-95 -38q-59 0 -98 38t-39 95zM883 1704q0 56 39 94.5t96 38.5 q56 0 94.5 -38.5t38.5 -94.5q0 -57 -38.5 -95t-94.5 -38q-57 0 -96 38t-39 95z" />
<glyph unicode="&#xdd;" horiz-adv-x="1435" d="M25 1434h319l295 -412q73 -107 78 -107h2q5 0 78 107l293 412h321l-553 -777v-657h-283v657zM479 1649l473 254l99 -195l-488 -211z" />
<glyph unicode="&#xde;" horiz-adv-x="1302" d="M170 0v1434h285v-236h241q238 0 386.5 -134.5t148.5 -344.5t-148.5 -344.5t-386.5 -134.5h-241v-240h-285zM455 506h247q107 0 169.5 59t62.5 154q0 94 -62.5 153t-169.5 58h-247v-424z" />
<glyph unicode="&#xdf;" horiz-adv-x="1658" d="M170 0v1434h1274l-215 -402q-16 -31 -43.5 -82.5t-42.5 -80t-15 -29.5l2 -2h11q120 1 221.5 -54.5t160 -151.5t58.5 -210q0 -125 -59.5 -227t-174 -163t-264.5 -61q-162 0 -293.5 76t-203.5 203l270 74q84 -111 213 -111q108 0 166.5 60.5t58.5 152.5q0 85 -60.5 145 t-170.5 60h-207v207l94 186q12 25 31 63t30 59.5t11 22.5l-2 2l-8 -1q-8 0 -21.5 -0.5t-30 -1t-38 -1t-41.5 -0.5h-426v-1167h-285z" />
<glyph unicode="&#xe0;" horiz-adv-x="1472" d="M12 0l590 1434h268l590 -1434h-307l-106 274h-621l-107 -274h-307zM356 1708l101 195l471 -254l-82 -152zM524 526h424l-141 363q-13 34 -30.5 84.5t-28 82t-11.5 31.5h-2q-1 0 -11 -31.5t-27.5 -82t-30.5 -84.5z" />
<glyph unicode="&#xe1;" horiz-adv-x="1472" d="M12 0l590 1434h268l590 -1434h-307l-106 274h-621l-107 -274h-307zM498 1649l473 254l98 -195l-487 -211zM524 526h424l-141 363q-13 34 -30.5 84.5t-28 82t-11.5 31.5h-2q-1 0 -11 -31.5t-27.5 -82t-30.5 -84.5z" />
<glyph unicode="&#xe2;" horiz-adv-x="1472" d="M12 0l590 1434h268l590 -1434h-307l-106 274h-621l-107 -274h-307zM346 1638l383 326l381 -326l-137 -141l-244 203l-244 -203zM524 526h424l-141 363q-13 34 -30.5 84.5t-28 82t-11.5 31.5h-2q-1 0 -11 -31.5t-27.5 -82t-30.5 -84.5z" />
<glyph unicode="&#xe3;" horiz-adv-x="1472" d="M12 0l590 1434h268l590 -1434h-307l-106 274h-621l-107 -274h-307zM279 1561q0 123 82 203.5t208 80.5q51 0 98.5 -19.5t77 -43t65 -43t64.5 -19.5q41 0 68 26t27 64h223q0 -123 -82 -202.5t-209 -79.5q-39 0 -76.5 12.5t-66 31t-55 36.5t-54.5 30.5t-53 12.5 q-41 0 -67.5 -25t-26.5 -65h-223zM524 526h424l-141 363q-13 34 -30.5 84.5t-28 82t-11.5 31.5h-2q-1 0 -11 -31.5t-27.5 -82t-30.5 -84.5z" />
<glyph unicode="&#xe4;" horiz-adv-x="1472" d="M12 0l590 1434h268l590 -1434h-307l-106 274h-621l-107 -274h-307zM328 1704q0 56 39.5 94.5t97.5 38.5q55 0 94 -38.5t39 -94.5q0 -57 -38.5 -95t-94.5 -38q-59 0 -98 38t-39 95zM524 526h424l-141 363q-13 34 -30.5 84.5t-28 82t-11.5 31.5h-2q-1 0 -11 -31.5 t-27.5 -82t-30.5 -84.5zM858 1704q0 56 39 94.5t96 38.5q55 0 94 -38.5t39 -94.5q0 -57 -38.5 -95t-94.5 -38q-57 0 -96 38t-39 95z" />
<glyph unicode="&#xe5;" horiz-adv-x="1472" d="M12 0l588 1430q-66 37 -105.5 102.5t-39.5 142.5q0 114 82.5 196.5t197.5 82.5t198 -82.5t83 -196.5q0 -76 -39.5 -141.5t-104.5 -101.5l588 -1432h-307l-106 274h-621l-107 -274h-307zM524 526h424l-141 363q-13 34 -30.5 84.5t-28 82t-11.5 31.5h-2q-1 0 -11 -31.5 t-27.5 -82t-30.5 -84.5zM623 1675q0 -44 34 -77t78 -33q47 0 81 33t34 77q0 49 -33.5 83t-81.5 34q-45 0 -78.5 -34t-33.5 -83z" />
<glyph unicode="&#xe6;" horiz-adv-x="2074" d="M12 0l596 1434h1315v-267h-727v-305h576v-250h-576v-346h739v-266h-1017v274h-488l-108 -274h-310zM528 526h390v641h-146q-1 0 -18.5 -47t-46 -126t-45.5 -124z" />
<glyph unicode="&#xe7;" horiz-adv-x="1548" d="M78 717q0 159 58.5 298t158 237t236.5 154t290 56q209 0 382 -102.5t270 -276.5l-291 -75q-57 79 -156 126.5t-205 47.5q-200 0 -323 -130t-123 -335q0 -208 125.5 -334.5t320.5 -126.5q122 0 227 58t160 153l287 -76q-84 -180 -247 -291.5t-367 -126.5l-31 -84 q91 2 155 -55t64 -151q0 -109 -67 -163.5t-171 -54.5h-217l60 152h157q39 0 58.5 18t19.5 46t-21.5 44.5t-56.5 18.5h-188l80 233q-136 17 -254.5 79.5t-205 158t-136 226t-49.5 276.5z" />
<glyph unicode="&#xe8;" horiz-adv-x="1335" d="M170 0v1434h1014v-267h-729v-305h575v-250h-575v-346h741v-266h-1026zM322 1708l100 195l471 -254l-82 -152z" />
<glyph unicode="&#xe9;" horiz-adv-x="1335" d="M170 0v1434h1014v-267h-729v-305h575v-250h-575v-346h741v-266h-1026zM463 1649l473 254l98 -195l-487 -211z" />
<glyph unicode="&#xea;" horiz-adv-x="1335" d="M170 0v1434h1014v-267h-729v-305h575v-250h-575v-346h741v-266h-1026zM311 1638l383 326l381 -326l-137 -141l-244 203l-243 -203z" />
<glyph unicode="&#xeb;" horiz-adv-x="1335" d="M170 0v1434h1014v-267h-729v-305h575v-250h-575v-346h741v-266h-1026zM293 1704q0 56 39.5 94.5t97.5 38.5q56 0 94.5 -38.5t38.5 -94.5q0 -57 -38.5 -95t-94.5 -38q-59 0 -98 38t-39 95zM823 1704q0 56 39 94.5t96 38.5q56 0 95 -39t39 -94q0 -57 -39 -95t-95 -38 q-57 0 -96 38t-39 95z" />
<glyph unicode="&#xec;" horiz-adv-x="624" d="M-66 1708l101 195l471 -254l-82 -152zM170 0v1434h285v-1434h-285z" />
<glyph unicode="&#xed;" horiz-adv-x="624" d="M76 1649l473 254l98 -195l-487 -211zM170 0v1434h285v-1434h-285z" />
<glyph unicode="&#xee;" horiz-adv-x="624" d="M-76 1638l383 326l381 -326l-137 -141l-244 203l-244 -203zM170 0v1434h285v-1434h-285z" />
<glyph unicode="&#xef;" horiz-adv-x="624" d="M-94 1704q0 56 39.5 94.5t97.5 38.5q55 0 94 -38.5t39 -94.5q0 -57 -38.5 -95t-94.5 -38q-59 0 -98 38t-39 95zM170 0v1434h285v-1434h-285zM436 1704q0 56 39 94.5t96 38.5q56 0 95 -39t39 -94q0 -57 -39 -95t-95 -38q-57 0 -96 38t-39 95z" />
<glyph unicode="&#xf0;" horiz-adv-x="1630" d="M78 598v256h115v580h618q153 0 289 -53t235.5 -146.5t158 -229.5t58.5 -294q0 -157 -58 -291t-157.5 -225.5t-234.5 -143t-287 -51.5h-622v598h-115zM477 266h338q120 0 220 52t161 155t61 238q0 136 -61 241t-162 160t-223 55h-334v-313h268v-256h-268v-332z" />
<glyph unicode="&#xf1;" horiz-adv-x="1589" d="M170 0v1434h268l416 -560q42 -56 113 -153.5t119 -164.5t49 -67h2q1 25 0.5 69.5t-1.5 175.5t-1 231v469h284v-1434h-268l-408 553q-55 75 -128 177.5t-116 163t-44 60.5h-2q-1 -26 -0.5 -64t1.5 -173t1 -254v-463h-285zM340 1561q0 123 82.5 203.5t208.5 80.5 q51 0 98.5 -19.5t77 -43t65 -43t64.5 -19.5q41 0 67.5 25.5t26.5 64.5h223q0 -123 -81.5 -202.5t-208.5 -79.5q-48 0 -94.5 19t-77 42.5t-67.5 42.5t-67 19q-41 0 -67.5 -25t-26.5 -65h-223z" />
<glyph unicode="&#xf2;" d="M78 717q0 159 58.5 298t158 237t236.5 154t290 56q204 0 374.5 -95t271 -266.5t100.5 -383.5q0 -159 -59 -298.5t-159.5 -237t-237.5 -154t-290 -56.5q-204 0 -374 95.5t-269.5 267t-99.5 383.5zM375 717q0 -205 124.5 -335t321.5 -130q198 0 323.5 130t125.5 335 q0 207 -125.5 336t-323.5 129q-197 0 -321.5 -129.5t-124.5 -335.5zM449 1708l100 195l471 -254l-82 -152z" />
<glyph unicode="&#xf3;" d="M78 717q0 159 58.5 298t158 237t236.5 154t290 56q204 0 374.5 -95t271 -266.5t100.5 -383.5q0 -159 -59 -298.5t-159.5 -237t-237.5 -154t-290 -56.5q-204 0 -374 95.5t-269.5 267t-99.5 383.5zM375 717q0 -205 124.5 -335t321.5 -130q198 0 323.5 130t125.5 335 q0 207 -125.5 336t-323.5 129q-197 0 -321.5 -129.5t-124.5 -335.5zM590 1649l473 254l98 -195l-487 -211z" />
<glyph unicode="&#xf4;" d="M78 717q0 159 58.5 298t158 237t236.5 154t290 56q204 0 374.5 -95t271 -266.5t100.5 -383.5q0 -159 -59 -298.5t-159.5 -237t-237.5 -154t-290 -56.5q-204 0 -374 95.5t-269.5 267t-99.5 383.5zM375 717q0 -205 124.5 -335t321.5 -130q198 0 323.5 130t125.5 335 q0 207 -125.5 336t-323.5 129q-197 0 -321.5 -129.5t-124.5 -335.5zM438 1638l383 326l381 -326l-137 -141l-244 203l-243 -203z" />
<glyph unicode="&#xf5;" d="M78 717q0 159 58.5 298t158 237t236.5 154t290 56q204 0 374.5 -95t271 -266.5t100.5 -383.5q0 -159 -59 -298.5t-159.5 -237t-237.5 -154t-290 -56.5q-204 0 -374 95.5t-269.5 267t-99.5 383.5zM371 1561q0 123 82.5 203.5t208.5 80.5q51 0 98.5 -19.5t77 -43t65 -43 t64.5 -19.5q41 0 67.5 25.5t26.5 64.5h223q0 -123 -82 -202.5t-209 -79.5q-39 0 -76.5 12.5t-66 31t-55 36.5t-54.5 30.5t-53 12.5q-41 0 -67.5 -25t-26.5 -65h-223zM375 717q0 -205 124.5 -335t321.5 -130q198 0 323.5 130t125.5 335q0 207 -125.5 336t-323.5 129 q-197 0 -321.5 -129.5t-124.5 -335.5z" />
<glyph unicode="&#xf6;" d="M78 717q0 159 58.5 298t158 237t236.5 154t290 56q204 0 374.5 -95t271 -266.5t100.5 -383.5q0 -159 -59 -298.5t-159.5 -237t-237.5 -154t-290 -56.5q-204 0 -374 95.5t-269.5 267t-99.5 383.5zM375 717q0 -205 124.5 -335t321.5 -130q198 0 323.5 130t125.5 335 q0 207 -125.5 336t-323.5 129q-197 0 -321.5 -129.5t-124.5 -335.5zM420 1704q0 56 39.5 94.5t97.5 38.5q55 0 94 -38.5t39 -94.5q0 -57 -38.5 -95t-94.5 -38q-59 0 -98 38t-39 95zM950 1704q0 56 39 94.5t96 38.5q56 0 95 -39t39 -94q0 -57 -39 -95t-95 -38q-57 0 -96 38 t-39 95z" />
<glyph unicode="&#xf7;" horiz-adv-x="1429" d="M246 610v234h936v-234h-936zM561 270q0 58 41 99t100 41q58 0 100 -41.5t42 -98.5q0 -60 -41.5 -100.5t-100.5 -40.5t-100 40.5t-41 100.5zM561 1188q0 58 41 98.5t100 40.5q58 0 100 -41t42 -98q0 -60 -41.5 -100.5t-100.5 -40.5t-100 40.5t-41 100.5z" />
<glyph unicode="&#xf8;" d="M78 717q0 159 58.5 298t158 237t236.5 154t290 56q188 0 353 -84l75 99l203 -152l-78 -100q193 -209 193 -508q0 -159 -59 -298.5t-159.5 -237t-237.5 -154t-290 -56.5q-182 0 -342 80l-76 -98l-202 151l73 99q-93 101 -144.5 232.5t-51.5 281.5zM375 717q0 -162 80 -281 l544 713q-87 33 -178 33q-197 0 -321.5 -129.5t-124.5 -335.5zM653 281q82 -29 168 -29q198 0 323.5 130t125.5 335q0 155 -74 272z" />
<glyph unicode="&#xf9;" horiz-adv-x="1515" d="M139 623v811h285v-807q0 -389 334 -389q332 0 332 389v807h286v-811q0 -312 -165.5 -482t-452.5 -170q-288 0 -453.5 170t-165.5 482zM381 1708l100 195l471 -254l-82 -152z" />
<glyph unicode="&#xfa;" horiz-adv-x="1515" d="M139 623v811h285v-807q0 -389 334 -389q332 0 332 389v807h286v-811q0 -312 -165.5 -482t-452.5 -170q-288 0 -453.5 170t-165.5 482zM522 1649l473 254l99 -195l-488 -211z" />
<glyph unicode="&#xfb;" horiz-adv-x="1515" d="M139 623v811h285v-807q0 -389 334 -389q332 0 332 389v807h286v-811q0 -312 -165.5 -482t-452.5 -170q-288 0 -453.5 170t-165.5 482zM371 1638l383 326l381 -326l-138 -141l-243 203l-244 -203z" />
<glyph unicode="&#xfc;" horiz-adv-x="1515" d="M139 623v811h285v-807q0 -389 334 -389q332 0 332 389v807h286v-811q0 -312 -165.5 -482t-452.5 -170q-288 0 -453.5 170t-165.5 482zM352 1704q0 56 39.5 94.5t97.5 38.5q56 0 95 -39t39 -94q0 -57 -39 -95t-95 -38q-59 0 -98 38t-39 95zM883 1704q0 56 39 94.5t96 38.5 q56 0 94.5 -38.5t38.5 -94.5q0 -57 -38.5 -95t-94.5 -38q-57 0 -96 38t-39 95z" />
<glyph unicode="&#xfd;" horiz-adv-x="1435" d="M25 1434h319l295 -412q73 -107 78 -107h2q5 0 78 107l293 412h321l-553 -777v-657h-283v657zM481 1649l473 254l99 -195l-488 -211z" />
<glyph unicode="&#xfe;" horiz-adv-x="1302" d="M170 0v1434h285v-236h241q238 0 386.5 -134.5t148.5 -344.5t-148.5 -344.5t-386.5 -134.5h-241v-240h-285zM455 506h247q107 0 169.5 59t62.5 154q0 94 -62.5 153t-169.5 58h-247v-424z" />
<glyph unicode="&#xff;" horiz-adv-x="1435" d="M25 1434h319l295 -412q73 -107 78 -107h2q5 0 78 107l293 412h321l-553 -777v-657h-283v657zM311 1704q0 56 40 94.5t98 38.5q55 0 94 -38.5t39 -94.5q0 -57 -38.5 -95t-94.5 -38q-59 0 -98.5 38t-39.5 95zM842 1704q0 56 39 94.5t96 38.5q55 0 94 -38.5t39 -94.5 q0 -57 -38.5 -95t-94.5 -38q-57 0 -96 38t-39 95z" />
<glyph unicode="&#x152;" horiz-adv-x="2140" d="M78 717q0 209 96 375.5t260.5 258t366.5 91.5q121 0 182 -8h1006v-267h-727v-305h575v-250h-575v-346h739v-266h-1018q-57 -8 -182 -8q-202 0 -366.5 91.5t-260.5 258t-96 375.5zM375 717q0 -201 117 -323t309 -122q112 0 182 33v823q-70 33 -182 33q-193 0 -309.5 -121 t-116.5 -323z" />
<glyph unicode="&#x153;" horiz-adv-x="2140" d="M78 717q0 209 96 375.5t260.5 258t366.5 91.5q121 0 182 -8h1006v-267h-727v-305h575v-250h-575v-346h739v-266h-1018q-57 -8 -182 -8q-202 0 -366.5 91.5t-260.5 258t-96 375.5zM375 717q0 -201 117 -323t309 -122q112 0 182 33v823q-70 33 -182 33q-193 0 -309.5 -121 t-116.5 -323z" />
<glyph unicode="&#x178;" horiz-adv-x="1435" d="M25 1434h319l295 -412q73 -107 78 -107h2q5 0 78 107l293 412h321l-553 -777v-657h-283v657zM309 1704q0 56 39.5 94.5t97.5 38.5q56 0 95 -39t39 -94q0 -57 -39 -95t-95 -38q-59 0 -98 38t-39 95zM840 1704q0 56 39 94.5t96 38.5q55 0 94 -38.5t39 -94.5 q0 -57 -38.5 -95t-94.5 -38q-57 0 -96 38t-39 95z" />
<glyph unicode="&#x2c6;" horiz-adv-x="774" d="M-23 1638l383 326l381 -326l-137 -141l-244 203l-243 -203z" />
<glyph unicode="&#x2dc;" horiz-adv-x="989" d="M12 1561q0 123 82 203.5t209 80.5q50 0 97 -19.5t77 -43t66 -43t65 -19.5q40 0 66 26t26 64h224q0 -123 -82 -202.5t-209 -79.5q-47 0 -93.5 19t-77 42.5t-67 42.5t-67.5 19q-41 0 -68 -25t-27 -65h-221z" />
<glyph unicode="&#x2000;" horiz-adv-x="982" />
<glyph unicode="&#x2001;" horiz-adv-x="1964" />
<glyph unicode="&#x2002;" horiz-adv-x="982" />
<glyph unicode="&#x2003;" horiz-adv-x="1964" />
<glyph unicode="&#x2004;" horiz-adv-x="654" />
<glyph unicode="&#x2005;" horiz-adv-x="491" />
<glyph unicode="&#x2006;" horiz-adv-x="327" />
<glyph unicode="&#x2007;" horiz-adv-x="327" />
<glyph unicode="&#x2008;" horiz-adv-x="245" />
<glyph unicode="&#x2009;" horiz-adv-x="392" />
<glyph unicode="&#x200a;" horiz-adv-x="109" />
<glyph unicode="&#x2010;" horiz-adv-x="1273" d="M170 610v234h934v-234h-934z" />
<glyph unicode="&#x2011;" horiz-adv-x="1273" d="M170 610v234h934v-234h-934z" />
<glyph unicode="&#x2012;" horiz-adv-x="1273" d="M170 610v234h934v-234h-934z" />
<glyph unicode="&#x2013;" horiz-adv-x="1210" d="M170 592v268h870v-268h-870z" />
<glyph unicode="&#x2014;" horiz-adv-x="2111" d="M170 592v268h1772v-268h-1772z" />
<glyph unicode="&#x2018;" horiz-adv-x="657" d="M170 1092q0 92 60 193t149 173h108q-51 -35 -97 -114.5t-46 -133.5l-27 -8l27 -2q43 -5 77 -40t34 -89q0 -59 -42.5 -100t-101.5 -41t-100 45.5t-41 116.5z" />
<glyph unicode="&#x2019;" horiz-adv-x="657" d="M170 930q52 37 97.5 116t45.5 132l27 8l-27 4q-43 5 -76.5 39.5t-33.5 89.5q0 58 41.5 98.5t101.5 40.5t100.5 -44.5t40.5 -115.5q0 -92 -59.5 -193t-148.5 -175h-109z" />
<glyph unicode="&#x201a;" horiz-adv-x="657" d="M170 -270q52 37 97.5 115.5t45.5 131.5l27 9l-27 4q-43 5 -76.5 39.5t-33.5 89.5q0 58 41.5 98.5t101.5 40.5t100.5 -44.5t40.5 -115.5q0 -92 -59.5 -193t-148.5 -175h-109z" />
<glyph unicode="&#x201c;" horiz-adv-x="1095" d="M170 1092q0 92 60 193t149 173h108q-51 -35 -97 -114.5t-46 -133.5l-27 -8l27 -2q43 -5 77 -40t34 -89q0 -59 -42.5 -100t-101.5 -41t-100 45.5t-41 116.5zM610 1092q0 92 60 193t149 173h107q-51 -35 -96.5 -114.5t-45.5 -133.5l-28 -8l28 -2q41 -5 75 -40t34 -89 q0 -60 -41.5 -100.5t-101.5 -40.5q-59 0 -99.5 45.5t-40.5 116.5z" />
<glyph unicode="&#x201d;" horiz-adv-x="1095" d="M170 930q52 37 97.5 116t45.5 132l27 8l-27 4q-43 5 -76.5 39.5t-33.5 89.5q0 58 41.5 98.5t101.5 40.5t100.5 -44.5t40.5 -115.5q0 -92 -59.5 -193t-148.5 -175h-109zM610 930q51 37 96.5 115.5t45.5 132.5l26 8l-26 4q-42 5 -75.5 39.5t-33.5 89.5q0 58 41.5 98.5 t101.5 40.5q58 0 99 -45t41 -115q0 -91 -60 -192.5t-149 -175.5h-107z" />
<glyph unicode="&#x201e;" horiz-adv-x="1087" d="M170 -270q52 37 97.5 115.5t45.5 131.5l27 9l-27 4q-43 5 -76.5 39.5t-33.5 89.5q0 58 41.5 98.5t101.5 40.5t100.5 -44.5t40.5 -115.5q0 -93 -59.5 -193.5t-148.5 -174.5h-109zM600 -270q52 37 97.5 115.5t45.5 131.5l27 9l-27 4q-43 5 -76.5 39.5t-33.5 89.5 q0 58 41.5 98.5t101.5 40.5t101 -44.5t41 -115.5q0 -93 -59.5 -193t-149.5 -175h-109z" />
<glyph unicode="&#x2022;" horiz-adv-x="821" d="M170 727q0 99 70.5 169.5t171.5 70.5q98 0 167.5 -70.5t69.5 -169.5q0 -101 -69.5 -171.5t-167.5 -70.5q-101 0 -171.5 70.5t-70.5 171.5z" />
<glyph unicode="&#x2026;" horiz-adv-x="1564" d="M123 90q0 47 35 81t82 34t81.5 -34t34.5 -81q0 -49 -34 -83t-82 -34q-50 0 -83.5 33.5t-33.5 83.5zM655 90q0 47 35 81t82 34t82 -34t35 -81q0 -49 -34.5 -83t-82.5 -34q-50 0 -83.5 33.5t-33.5 83.5zM1208 90q0 47 35 81t82 34t82 -34t35 -81q0 -49 -34.5 -83t-82.5 -34 q-49 0 -83 33.5t-34 83.5z" />
<glyph unicode="&#x202f;" horiz-adv-x="392" />
<glyph unicode="&#x2039;" horiz-adv-x="978" d="M170 721l481 -481l158 157l-336 324l334 323l-154 156z" />
<glyph unicode="&#x203a;" horiz-adv-x="978" d="M170 397l338 324l-336 323l154 156l483 -479l-481 -481z" />
<glyph unicode="&#x205f;" horiz-adv-x="491" />
<glyph unicode="&#x20ac;" horiz-adv-x="1642" d="M78 494v188h100v35v35h-98v186h129q69 234 263.5 377t445.5 143q208 0 380 -101.5t267 -275.5l-289 -71q-58 80 -151.5 126t-204.5 46q-133 0 -243 -65.5t-167 -178.5h430v-186h-481q-2 -12 -2 -35t2 -35h481v-188h-428q59 -110 168 -174t240 -64q123 0 226 56.5 t159 152.5l284 -72q-88 -192 -268 -305t-403 -113q-250 0 -445 143t-264 376h-131z" />
<glyph unicode="&#x2122;" horiz-adv-x="1611" d="M29 1266v168h610v-168h-219v-498h-172v498h-219zM743 768v666h162l129 -203q21 -32 37 -63.5t23 -46.5l6 -15h2l7 15q7 15 23 46.5t37 63.5l129 203h160v-666h-168v217q0 45 2.5 91t4.5 67.5t1 21.5h-2q-5 0 -77 -116l-80 -125h-76l-78 125q-76 116 -78 116h-2 q-1 0 0.5 -21.5t3.5 -67.5t2 -91v-217h-168z" />
<glyph unicode="&#xe000;" horiz-adv-x="1433" d="M0 0v1434h1434v-1434h-1434z" />
</font>
</defs>
</svg>
