<?xml version="1.0" standalone="no"?>
<!DOCTYPE svg PUBLIC "-//W3C//DTD SVG 1.1//EN" "http://www.w3.org/Graphics/SVG/1.1/DTD/svg11.dtd" >
<svg xmlns="http://www.w3.org/2000/svg">
<metadata>
This is a custom SVG font generated by IcoMoon.
<iconset id="social-icon-font" name="Social Icon Font"></iconset><author name="Squarespace Inc"></author><license name="CC BY 3.0"></license>
</metadata>
<defs>
<font id="social-icon-font" horiz-adv-x="512" >
<font-face units-per-em="512" ascent="480" descent="-32" />
<missing-glyph horiz-adv-x="512" />
<glyph unicode="&#xe000;" d="M 501.90,356.833c-3.619,17.235-11.681,31.69-18.819,39.06c-7.14,7.371-27.254,14.74-42.829,16.952
	C 424.677,415.053, 287.235,416.00, 256.087,416.00c-31.147,0.00-169.496-0.947-185.071-3.156c-15.573-2.211-35.689-9.581-42.829-16.952
	c-7.139-7.369-14.057-17.628-18.819-39.06C 4.607,335.401,0.00,279.942,0.00,224.00s 4.607-111.40, 9.368-132.833
	c 4.762-21.432, 11.681-31.69, 18.819-39.059c 7.139-7.371, 27.255-14.741, 42.829-16.952C 86.591,32.946, 224.939,32.00, 256.087,32.00
	c 31.148,0.00, 168.59,0.946, 184.165,3.156c 15.575,2.211, 35.689,9.581, 42.829,16.952c 7.139,7.368, 15.20,21.824, 18.819,39.059
	C 505.519,108.402, 512.00,161.466, 512.00,224.00S 505.519,339.598, 501.90,356.833z M 191.00,96.03c0.00,2.53,0.00,255.97,0.00,255.97l 162.00-116.549
	C 353.00,235.451, 191.00,99.298, 191.00,96.03z" data-tags="youtube, social" />
<glyph unicode="&#xe001;" d="M 437.00,480.00L 75.00,480.00 C 39.102,480.00,0.00,440.898,0.00,405.00l0.00-362.00 c0.00-35.898, 39.102-75.00, 75.00-75.00l 362.00,0.00 c 35.898,0.00, 75.00,39.102, 75.00,75.00L 512.00,405.00 
		C 512.00,440.898, 472.898,480.00, 437.00,480.00z M 400.082,146.168c-2.12-10.098-6.845-18.568-11.026-22.886c-4.184-4.318-15.969-8.638-25.096-9.933
		c-9.126-1.296-89.658-1.85-107.908-1.85c-18.252,0.00-99.314,0.554-108.441,1.85c-9.125,1.295-20.912,5.614-25.095,9.933
		c-4.183,4.317-8.236,10.328-11.027,22.886C 108.70,158.727, 106.00,191.222, 106.00,224.00c0.00,32.779, 2.70,65.274, 5.489,77.831
		c 2.791,12.558, 6.844,18.569, 11.027,22.888c 4.184,4.318, 15.97,8.636, 25.095,9.932c 9.126,1.294, 90.189,1.849, 108.441,1.849
		c 18.25,0.00, 98.782-0.555, 107.908-1.849c 9.127-1.296, 20.912-5.614, 25.096-9.932c 4.182-4.318, 8.906-12.788, 11.026-22.888
		C 402.202,291.732, 406.00,260.642, 406.00,224.00S 402.202,156.268, 400.082,146.168zM 217.914,149.019c0.00,1.913, 94.922,81.691, 94.922,81.691L 217.914,299.00C 217.914,299.00, 217.914,150.501, 217.914,149.019z" data-tags="youtube-square, social" />
<glyph unicode="&#xe002;" d="M 256.00,480.00C 114.615,480.00,0.00,365.385,0.00,224.00s 114.615-256.00, 256.00-256.00s 256.00,114.615, 256.00,256.00S 397.385,480.00, 256.00,480.00z M 390.477,151.356
		c-1.979-9.424-6.389-17.33-10.291-21.359c-3.905-4.031-14.904-8.062-23.423-9.271c-8.518-1.21-83.681-1.727-100.715-1.727
		c-17.035,0.00-92.693,0.517-101.211,1.727c-8.517,1.208-19.518,5.239-23.422,9.271c-3.904,4.029-7.687,9.64-10.292,21.359
		C 118.52,163.078, 116.00,193.407, 116.00,224.00c0.00,30.594, 2.52,60.923, 5.123,72.643c 2.604,11.72, 6.388,17.331, 10.292,21.361
		c 3.905,4.03, 14.906,8.061, 23.422,9.271c 8.518,1.208, 84.176,1.726, 101.211,1.726c 17.034,0.00, 92.197-0.518, 100.715-1.726
		c 8.519-1.21, 19.518-5.24, 23.423-9.271c 3.902-4.03, 8.312-11.936, 10.291-21.361S 396.00,258.199, 396.00,224.00S 392.455,160.783, 390.477,151.356
		zM 220.453,154.018c0.00,1.785, 88.594,76.245, 88.594,76.245L 220.453,294.00C 220.453,294.00, 220.453,155.401, 220.453,154.018z" data-tags="youtube-round, social" />
<glyph unicode="&#xe003;" d="M 511.755,343.019c-2.291-49.857-37.097-118.125-104.422-204.775c-69.617-90.507-128.513-135.766-176.691-135.766
	c-29.832,0.00-55.098,27.552-75.725,82.685c-13.778,50.531-27.552,101.062-41.325,151.588c-15.319,55.104-31.749,82.686-49.324,82.686
	c-3.827,0.00-17.235-8.065-40.179-24.125l-24.089,31.044c 25.266,22.209, 50.196,44.418, 74.722,66.657
	c 33.695,29.128, 58.996,44.448, 75.862,45.999c 39.844,3.828, 64.375-23.42, 73.581-81.748c 9.941-62.926, 16.83-102.065, 20.693-117.385
	c 11.487-52.209, 24.119-78.285, 37.929-78.285c 10.716,0.00, 26.812,16.937, 48.279,50.799c 21.434,33.868, 32.931,59.636, 34.472,77.343
	c 3.062,29.229-8.436,43.88-34.472,43.88c-12.263,0.00-24.895-2.824-37.897-8.401C 318.331,407.663, 366.408,447.71, 437.368,445.429
	C 489.978,443.878, 514.776,409.747, 511.755,343.019z" data-tags="vimeo, social" />
<glyph unicode="&#xe004;" d="M 437.00,480.00L 75.00,480.00 C 39.102,480.00,0.00,440.898,0.00,405.00l0.00-362.00 c0.00-35.898, 39.102-75.00, 75.00-75.00l 362.00,0.00 c 35.898,0.00, 75.00,39.102, 75.00,75.00L 512.00,405.00 
	C 512.00,440.898, 472.898,480.00, 437.00,480.00z M 415.847,298.387c-1.433-31.16-23.186-73.828-65.264-127.984
	c-43.511-56.565-80.32-84.853-110.433-84.853c-18.644,0.00-34.436,17.22-47.327,51.677c-8.611,31.582-17.22,63.165-25.828,94.743
	c-9.574,34.439-19.843,51.678-30.827,51.678c-2.392,0.00-10.772-5.041-25.112-15.077L 96.00,287.972
	c 15.791,13.881, 31.373,27.762, 46.701,41.661c 21.059,18.205, 36.873,27.78, 47.414,28.749c 24.902,2.393, 40.235-14.637, 45.987-51.092
	c 6.214-39.328, 10.519-63.79, 12.934-73.364c 7.18-32.631, 15.074-48.929, 23.706-48.929c 6.697,0.00, 16.757,10.586, 30.174,31.749
	c 13.396,21.168, 20.581,37.272, 21.545,48.34c 1.913,18.268-5.272,27.424-21.545,27.424c-7.664,0.00-15.56-1.765-23.687-5.25
	c 15.729,51.53, 45.776,76.56, 90.126,75.134C 402.235,361.423, 417.734,340.091, 415.847,298.387z" data-tags="vimeo-square, social" />
<glyph unicode="&#xe005;" d="M 256.00,480.00C 114.615,480.00,0.00,365.385,0.00,224.00s 114.615-256.00, 256.00-256.00s 256.00,114.615, 256.00,256.00S 397.385,480.00, 256.00,480.00z M 400.861,281.413
	c-1.299-28.239-21.013-66.907-59.146-115.986c-39.432-51.262-72.79-76.897-100.079-76.897c-16.896,0.00-31.208,15.605-42.891,46.832
	c-7.804,28.621-15.605,57.243-23.406,85.861c-8.677,31.211-17.982,46.833-27.938,46.833c-2.168,0.00-9.762-4.568-22.758-13.664
	L 111.00,271.975c 14.311,12.579, 28.432,25.159, 42.322,37.755c 19.085,16.498, 33.416,25.175, 42.969,26.054
	c 22.567,2.168, 36.463-13.266, 41.676-46.303c 5.632-35.641, 9.533-57.81, 11.722-66.486c 6.506-29.571, 13.661-44.342, 21.483-44.342
	c 6.069,0.00, 15.186,9.594, 27.345,28.773c 12.14,19.183, 18.651,33.777, 19.525,43.808c 1.733,16.555-4.778,24.853-19.525,24.853
	c-6.945,0.00-14.101-1.599-21.466-4.758c 14.254,46.699, 41.484,69.382, 81.677,68.09C 388.525,338.54, 402.571,319.207, 400.861,281.413z" data-tags="vimeo-round, social" />
<glyph unicode="&#xe006;" d="M 512.00,382.791c-18.838-8.355-39.082-14.001-60.33-16.54c 21.686,13.00, 38.343,33.585, 46.186,58.115
	c-20.298-12.039-42.778-20.78-66.705-25.49c-19.16,20.415-46.46,33.17-76.673,33.17c-58.01,0.00-105.044-47.03-105.044-105.04
	c0.00-8.232, 0.929-16.25, 2.72-23.939c-87.30,4.381-164.701,46.20-216.509,109.752c-9.042-15.514-14.223-33.557-14.223-52.809
	c0.00-36.444, 18.544-68.595, 46.73-87.433c-17.219,0.546-33.416,5.271-47.577,13.139c-0.01-0.438-0.01-0.877-0.01-1.321
	c0.00-50.894, 36.209-93.347, 84.261-103.00c-8.813-2.40-18.094-3.686-27.674-3.686c-6.769,0.00-13.349,0.66-19.764,1.885
	c 13.368-41.729, 52.16-72.102, 98.126-72.947c-35.95-28.174-81.243-44.967-130.458-44.967c-8.479,0.00-16.84,0.498-25.058,1.469
	c 46.486-29.805, 101.701-47.197, 161.021-47.197c 193.211,0.00, 298.868,160.062, 298.868,298.873c0.00,4.554-0.103,9.084-0.305,13.59
	C 480.11,343.226, 497.918,361.726, 512.00,382.791z" data-tags="twitter, social" />
<glyph unicode="&#xe007;" d="M 437.00,480.00L 75.00,480.00 C 39.102,480.00,0.00,440.898,0.00,405.00l0.00-362.00 c0.00-35.898, 39.102-75.00, 75.00-75.00l 362.00,0.00 c 35.898,0.00, 75.00,39.102, 75.00,75.00L 512.00,405.00 
	C 512.00,440.898, 472.898,480.00, 437.00,480.00z M 391.192,293.339c 0.135-2.993, 0.201-6.00, 0.201-9.025c0.00-92.18-70.161-198.469-198.466-198.469
	c-39.393,0.00-76.059,11.548-106.928,31.342c 5.457-0.646, 11.01-0.976, 16.64-0.976c 32.682,0.00, 62.76,11.15, 86.633,29.859
	c-30.524,0.562-56.286,20.73-65.161,48.441c 4.26-0.813, 8.628-1.25, 13.124-1.25c 6.36,0.00, 12.524,0.853, 18.377,2.446
	c-31.909,6.41-55.954,34.602-55.954,68.398c0.00,0.295,0.00,0.587, 0.006,0.878c 9.404-5.225, 20.16-8.363, 31.595-8.725
	c-18.718,12.509-31.032,33.859-31.032,58.06c0.00,12.785, 3.441,24.767, 9.445,35.069c 34.404-42.202, 85.803-69.973, 143.775-72.881
	c-1.189,5.105-1.807,10.43-1.807,15.896c0.00,38.523, 31.232,69.753, 69.755,69.753c 20.063,0.00, 38.191-8.469, 50.916-22.026
	c 15.89,3.127, 30.817,8.933, 44.297,16.927c-5.209-16.29-16.27-29.959-30.672-38.592c 14.109,1.687, 27.555,5.435, 40.063,10.984
	C 416.647,315.459, 404.824,303.174, 391.192,293.339z" data-tags="twitter-square, social" />
<glyph unicode="&#xe008;" d="M 256.00,480.00C 114.615,480.00,0.00,365.385,0.00,224.00s 114.615-256.00, 256.00-256.00s 256.00,114.615, 256.00,256.00S 397.385,480.00, 256.00,480.00z M 393.24,279.26
	c 0.127-2.816, 0.191-5.647, 0.191-8.493c0.00-86.757-66.037-186.796-186.793-186.796c-37.075,0.00-71.585,10.869-100.639,29.498
	c 5.136-0.605, 10.361-0.918, 15.661-0.918c 30.759,0.00, 59.067,10.496, 81.536,28.104c-28.729,0.528-52.975,19.513-61.329,45.591
	c 4.009-0.765, 8.122-1.177, 12.353-1.177c 5.987,0.00, 11.787,0.803, 17.296,2.303c-30.033,6.033-52.663,32.567-52.663,64.375
	c0.00,0.277,0.00,0.551, 0.006,0.826c 8.851-4.917, 18.975-7.87, 29.736-8.212c-17.617,11.773-29.207,31.868-29.207,54.646
	c0.00,12.032, 3.238,23.31, 8.89,33.006c 32.38-39.721, 80.755-65.857, 135.317-68.596c-1.119,4.806-1.70,9.816-1.70,14.962
	c0.00,36.256, 29.397,65.65, 65.653,65.65c 18.883,0.00, 35.945-7.972, 47.92-20.731c 14.955,2.943, 29.004,8.407, 41.691,15.931
	c-4.902-15.331-15.312-28.196-28.867-36.321c 13.281,1.586, 25.934,5.115, 37.707,10.337
	C 417.199,300.079, 406.068,288.517, 393.24,279.26z" data-tags="twitter-round, social" />
<glyph unicode="&#xe009;" d="M 202.369,480.00c-3.264-26.385-9.215-48.097-17.863-65.173c-8.639-17.086-20.101-31.704-34.396-43.887
	c-14.291-12.179-34.044-21.539-54.089-28.061l0.00-72.945 l 58.664,0.00 l0.00-179.431 c0.00-23.379, 2.444-41.218, 7.351-53.523
	c 4.898-12.314, 13.705-23.94, 26.399-34.874c 12.685-10.933, 28.019-19.347, 46.008-25.256c 17.971-5.896, 38.647-8.85, 62.036-8.85
	c 20.606,0.00, 39.776,2.069, 57.503,6.199c 17.718,4.144, 40.108,11.346, 61.984,21.642l0.00,80.517 c-25.655-16.855-54.024-25.284-79.932-25.284
	c-14.585,0.00-27.546,3.39-38.858,10.193c-8.55,5.015-14.402,11.753-17.549,20.181c-3.146,8.429-4.711,27.485-4.711,57.166l0.00,131.32 
	l 121.581,0.00 L 396.497,350.31 L 274.916,350.31 L 274.916,480.00 L 202.369,480.00 z" data-tags="tumblr, social" />
<glyph unicode="&#xe00a;" d="M 437.00,480.00L 75.00,480.00 C 39.102,480.00,0.00,440.898,0.00,405.00l0.00-362.00 c0.00-35.898, 39.102-75.00, 75.00-75.00l 362.00,0.00 c 35.898,0.00, 75.00,39.102, 75.00,75.00L 512.00,405.00 
	C 512.00,440.898, 472.898,480.00, 437.00,480.00z M 368.474,63.576c-15.382-7.24-31.124-12.304-43.582-15.218c-12.465-2.903-25.943-4.358-40.433-4.358
	c-16.445,0.00-30.983,2.077-43.619,6.223c-12.648,4.154-23.43,10.07-32.349,17.758c-8.926,7.688-15.118,15.862-18.562,24.521
	c-3.45,8.651-5.169,21.194-5.169,37.633L 184.76,256.297 l-41.248,0.00 l0.00,51.29 c 14.094,4.586, 27.983,11.167, 38.031,19.73
	c 10.052,8.566, 18.11,18.844, 24.185,30.858c 6.081,12.006, 10.266,27.273, 12.561,45.825l 51.009,0.00 l0.00-91.188 l 85.487,0.00 l0.00-56.515 l-85.487,0.00 l0.00-92.334 
	c0.00-20.87, 1.101-34.269, 3.312-40.195c 2.213-5.926, 6.327-10.664, 12.339-14.189c 7.954-4.784, 17.068-7.167, 27.323-7.167
	c 18.216,0.00, 38.163,5.927, 56.201,17.777L 368.473,63.576 z" data-tags="tumblr-square, social" />
<glyph unicode="&#xe00b;" d="M 256.00,480.00C 114.615,480.00,0.00,365.385,0.00,224.00s 114.615-256.00, 256.00-256.00s 256.00,114.615, 256.00,256.00S 397.385,480.00, 256.00,480.00z M 355.977,81.40
	c-13.673-6.435-27.666-10.937-38.74-13.525c-11.079-2.582-23.061-3.875-35.939-3.875c-14.618,0.00-27.541,1.847-38.772,5.531
	c-11.243,3.693-20.827,8.952-28.755,15.785c-7.934,6.834-13.438,14.10-16.499,21.797c-3.067,7.689-4.595,18.839-4.595,33.451L 192.677,252.709 
	l-36.665,0.00 l0.00,45.59 c 12.528,4.077, 24.874,9.927, 33.806,17.539c 8.934,7.614, 16.098,16.75, 21.497,27.429
	c 5.405,10.672, 9.125,24.243, 11.165,40.733l 45.342,0.00 l0.00-81.057 l 75.988,0.00 l0.00-50.234 L 267.82,252.709 l0.00-82.075 c0.00-18.55, 0.978-30.461, 2.944-35.729
	c 1.966-5.269, 5.624-9.479, 10.968-12.613c 7.07-4.252, 15.171-6.37, 24.286-6.37c 16.193,0.00, 33.923,5.268, 49.958,15.802L 355.976,81.40 z" data-tags="tumblr-round, social" />
<glyph unicode="&#xe00c;" d="M 267.997,480.00C 128.27,480.00, 57.818,379.823, 57.818,296.283c0.00-50.58, 19.151-95.581, 60.226-112.35
	c 6.733-2.756, 12.769-0.096, 14.721,7.362c 1.359,5.161, 4.574,18.179, 6.006,23.601c 1.971,7.375, 1.206,9.965-4.229,16.393
	c-11.844,13.968-19.413,32.054-19.413,57.67c0.00,74.325, 55.606,140.856, 144.796,140.856c 78.978,0.00, 122.364-48.254, 122.364-112.703
	c0.00-84.796-37.523-156.364-93.236-156.364c-30.765,0.00-53.795,25.444-46.414,56.652c 8.839,37.253, 25.962,77.463, 25.962,104.353
	c0.00,24.073-12.922,44.153-39.661,44.153c-31.454,0.00-56.717-32.536-56.717-76.121c0.00-27.76, 9.381-46.535, 9.381-46.535
	s-32.188-136.374-37.827-160.256c-11.238-47.562-1.691-105.871-0.884-111.759c 0.475-3.489, 4.96-4.319, 6.992-1.685
	c 2.90,3.786, 40.357,50.031, 53.093,96.241c 3.602,13.084, 20.686,80.835, 20.686,80.835c 10.217-19.489, 40.079-36.657, 71.84-36.657
	c 94.537,0.00, 158.681,86.188, 158.681,201.554C 454.183,398.757, 380.295,480.00, 267.997,480.00z" data-tags="pinterest, social" />
<glyph unicode="&#xe00d;" d="M 437.00,480.00L 75.00,480.00 C 39.102,480.00,0.00,440.898,0.00,405.00l0.00-362.00 c0.00-35.898, 39.102-75.00, 75.00-75.00l 362.00,0.00 c 35.898,0.00, 75.00,39.102, 75.00,75.00L 512.00,405.00 
	C 512.00,440.898, 472.898,480.00, 437.00,480.00z M 280.688,152.731c-19.85,0.00-38.515,10.729-44.90,22.91c0.00,0.00-10.677-42.344-12.928-50.521
	c-7.96-28.882-31.371-57.785-33.184-60.151c-1.27-1.646-4.072-1.127-4.369,1.053c-0.505,3.681-6.472,40.123, 0.552,69.85
	c 3.525,14.927, 23.643,100.16, 23.643,100.16s-5.863,11.734-5.863,29.084c0.00,27.241, 15.789,47.576, 35.447,47.576
	c 16.713,0.00, 24.789-12.55, 24.789-27.596c0.00-16.807-10.702-41.938-16.227-65.221c-4.613-19.504, 9.78-35.407, 29.009-35.407
	c 34.821,0.00, 58.272,44.73, 58.272,97.728c0.00,40.28-27.116,70.439-76.478,70.439c-55.743,0.00-90.497-41.583-90.497-88.035
	c0.00-16.01, 4.73-27.314, 12.134-36.043c 3.396-4.019, 3.875-5.637, 2.643-10.246c-0.896-3.389-2.904-11.525-3.753-14.75
	c-1.222-4.662-4.993-6.324-9.201-4.603c-25.671,10.48-37.642,38.606-37.642,70.219C 132.136,321.39, 176.169,384.00, 263.498,384.00
	c 70.187,0.00, 116.366-50.778, 116.366-105.298C 379.864,206.598, 339.775,152.731, 280.688,152.731z" data-tags="pinterest-square, social" />
<glyph unicode="&#xe00e;" d="M 257.00,479.00C 115.615,479.00, 1.00,364.385, 1.00,223.00s 114.615-256.00, 256.00-256.00s 256.00,114.615, 256.00,256.00S 398.385,479.00, 257.00,479.00z M 283.688,142.731
	c-19.85,0.00-38.515,10.729-44.90,22.91c0.00,0.00-10.677-42.344-12.928-50.521c-7.96-28.882-31.371-57.785-33.184-60.151
	c-1.27-1.646-4.072-1.127-4.369,1.053c-0.505,3.681-6.472,40.123, 0.552,69.85c 3.525,14.927, 23.643,100.16, 23.643,100.16
	s-5.863,11.734-5.863,29.084c0.00,27.241, 15.789,47.576, 35.447,47.576c 16.713,0.00, 24.789-12.55, 24.789-27.596
	c0.00-16.807-10.702-41.938-16.227-65.221c-4.613-19.504, 9.78-35.407, 29.009-35.407c 34.821,0.00, 58.272,44.73, 58.272,97.728
	c0.00,40.28-27.116,70.439-76.478,70.439c-55.743,0.00-90.497-41.583-90.497-88.035c0.00-16.01, 4.73-27.314, 12.134-36.043
	c 3.396-4.019, 3.875-5.637, 2.643-10.246c-0.896-3.389-2.904-11.525-3.753-14.75c-1.222-4.662-4.993-6.324-9.201-4.603
	c-25.671,10.48-37.642,38.606-37.642,70.219C 135.136,311.39, 179.169,374.00, 266.498,374.00c 70.187,0.00, 116.366-50.778, 116.366-105.298
	C 382.864,196.598, 342.775,142.731, 283.688,142.731z" data-tags="pinterest-round, social" />
<glyph unicode="&#xe00f;" d="M 116.234-20.699L 116.234,309.514 L 6.489,309.514 l0.00-330.213 L 116.234-20.699 L 116.234-20.699z M 61.365,354.585
	c 38.266,0.00, 62.095,25.374, 62.095,57.057c-0.718,32.394-23.829,57.057-61.365,57.057C 24.543,468.699,0.00,444.035,0.00,411.642
	c0.00-31.683, 23.817-57.057, 60.651-57.057L 61.365,354.585 L 61.365,354.585zM 176.972-20.699l 109.752,0.00 L 286.724,163.707 c0.00,9.865, 0.719,19.738, 3.617,26.775
	c 7.93,19.723, 25.994,40.154, 56.309,40.154c 39.725,0.00, 55.605-30.297, 55.605-74.676l0.00-176.66 L 512.00-20.70 L 512.00,168.639 
	c0.00,101.43-54.143,148.621-126.358,148.621c-59.212,0.00-85.202-33.102-99.644-55.637l 0.726,0.00 l0.00,47.891 L 176.972,309.514 
	C 178.411,278.535, 176.972-20.699, 176.972-20.699L 176.972-20.699z" data-tags="linkedin, social" />
<glyph unicode="&#xe010;" d="M 274.002,246.045L 274.002,246.70 c-0.142-0.219-0.287-0.439-0.425-0.655L 274.002,246.045 zM 437.00,480.00L 75.00,480.00 C 39.102,480.00,0.00,440.898,0.00,405.00l0.00-362.00 c0.00-35.898, 39.102-75.00, 75.00-75.00l 362.00,0.00 c 35.898,0.00, 75.00,39.102, 75.00,75.00L 512.00,405.00 
		C 512.00,440.898, 472.898,480.00, 437.00,480.00z M 174.106,80.621l-64.304,0.00 L 109.802,274.105 l 64.304,0.00 L 174.106,80.621 z M 141.956,300.515l-0.418,0.00 
		c-21.583,0.00-35.538,14.867-35.538,33.432c0.00,18.98, 14.381,33.432, 36.384,33.432c 21.994,0.00, 35.535-14.451, 35.956-33.432
		C 178.34,315.382, 164.378,300.515, 141.956,300.515z M 406.00,80.621l-64.304,0.00 L 341.696,184.133 c0.00,26.004-9.306,43.756-32.581,43.756
		c-17.763,0.00-28.348-11.972-32.994-23.528c-1.698-4.123-2.119-9.908-2.119-15.688l0.00-108.051 l-64.308,0.00 c0.00,0.00, 0.844,175.333,0.00,193.484
		l 64.308,0.00 L 274.002,246.70 c 8.544,13.181, 23.832,31.944, 57.96,31.944c 42.313,0.00, 74.038-27.651, 74.038-87.083L 406.00,80.621 z" data-tags="linkedin-square, social" />
<glyph unicode="&#xe011;" d="M 279.602,257.105l0.00,0.568 c-0.123-0.189-0.248-0.382-0.368-0.568L 279.602,257.105 zM 256.00,480.00C 114.615,480.00,0.00,365.385,0.00,224.00s 114.615-256.00, 256.00-256.00s 256.00,114.615, 256.00,256.00S 397.385,480.00, 256.00,480.00z M 193.025,113.738l-55.73,0.00 
		L 137.295,281.425 l 55.73,0.00 L 193.025,113.738 z M 165.162,304.312L 164.80,304.312 c-18.705,0.00-30.80,12.885-30.80,28.974c0.00,16.45, 12.463,28.974, 31.532,28.974
		c 19.062,0.00, 30.798-12.524, 31.162-28.974C 196.694,317.197, 184.594,304.312, 165.162,304.312z M 394.00,113.738l-55.729,0.00 l0.00,89.71 
		c0.00,22.537-8.065,37.922-28.237,37.922c-15.395,0.00-24.568-10.375-28.595-20.392c-1.472-3.573-1.837-8.587-1.837-13.597l0.00-93.644 
		l-55.733,0.00 c0.00,0.00, 0.731,151.955,0.00,167.687l 55.733,0.00 l0.00-23.751 c 7.405,11.423, 20.654,27.685, 50.232,27.685
		c 36.671,0.00, 64.166-23.965, 64.166-75.472L 394.00,113.738 z" data-tags="linkedin-round, social" />
<glyph unicode="&#xe012;" d="M 416.114,480.00L 95.886,480.00 C 47.50,480.00,0.00,432.50,0.00,384.114l0.00-320.229 C0.00,15.489, 47.50-32.00, 95.886-32.00l 320.229,0.00 
	C 464.511-32.00, 512.00,15.489, 512.00,63.886L 512.00,384.114 C 512.00,432.50, 464.511,480.00, 416.114,480.00z M 95.886,450.458l 320.229,0.00 
	c 31.75,0.00, 66.344-34.583, 66.344-66.344l0.00-71.864 L 341.677,312.25 c-22.156,21.521-52.354,34.833-85.677,34.833
	c-33.386,0.00-63.625-13.354-85.792-34.938l 0.031,0.104L 29.542,312.249 L 29.542,384.114 C 29.542,415.875, 64.125,450.458, 95.886,450.458z M 349.542,224.00
	c0.00-51.656-41.886-93.542-93.542-93.542S 162.458,172.344, 162.458,224.00s 41.886,93.542, 93.542,93.542S 349.542,275.656, 349.542,224.00z
	 M 416.114-2.458L 95.886-2.458 c-31.761,0.00-66.344,34.594-66.344,66.344L 29.542,282.719 l 118.271,0.00 c-9.50-17.448-14.896-37.448-14.896-58.719
	c0.00-67.969, 55.114-123.073, 123.083-123.073S 379.073,156.031, 379.073,224.00c0.00,21.271-5.386,41.271-14.886,58.719l 118.271,0.00 l0.00-218.833 
	C 482.458,32.136, 447.864-2.458, 416.114-2.458zM 344.469,401.406c0.00,10.646, 8.719,19.364, 19.354,19.364l 40.062,0.00 c 10.646,0.00, 19.354-8.719, 19.354-19.364l0.00-40.052 
	c0.00-10.646-8.708-19.354-19.354-19.354l-40.062,0.00 c-10.636,0.00-19.354,8.708-19.354,19.354L 344.469,401.406 z" data-tags="instagram, social" />
<glyph unicode="&#xe013;" d="M 378.305,290.369c 10.729-19.717, 16.826-42.326, 16.826-66.369c0.00-76.837-62.294-139.131-139.131-139.131
		S 116.87,147.163, 116.87,224.00c0.00,24.043, 6.098,46.652, 16.826,66.369L 0.043,290.369 l0.00,33.392 l 159.011,0.00 l-0.033-0.108
		c 25.065,24.391, 59.239,39.478, 96.979,39.478c 37.674,0.00, 71.805-15.043, 96.848-39.37L 512.00,323.761 L 512.00,405.00 c0.00,35.892-39.108,75.00-75.00,75.00L 75.00,480.00 
		C 39.108,480.00,0.00,440.892,0.00,405.00l0.00-362.00 c0.00-35.892, 39.108-75.00, 75.00-75.00l 362.00,0.00 c 35.892,0.00, 75.00,39.108, 75.00,75.00L 512.00,290.369 L 378.305,290.369 z M 356.011,424.543
		c0.00,12.043, 9.848,21.891, 21.881,21.891l 45.282,0.00 c 12.033,0.00, 21.881-9.848, 21.881-21.891l0.00-45.283 c0.00-12.021-9.848-21.869-21.881-21.869
		l-45.282,0.00 c-12.033,0.00-21.881,9.848-21.881,21.869L 356.011,424.543 zM 256.00,329.739c-58.392,0.00-105.739-47.348-105.739-105.739S 197.608,118.261, 256.00,118.261S 361.739,165.608, 361.739,224.00
		S 314.392,329.739, 256.00,329.739z" data-tags="instagram-square, social" />
<glyph unicode="&#xe014;" d="M 507.016,274.462L 357.409,274.462 c 8.908-16.361, 13.959-35.115, 13.959-55.06c0.00-63.733-51.671-115.402-115.403-115.402
		c-63.733,0.00-115.412,51.669-115.412,115.402c0.00,19.944, 5.06,38.698, 13.968,55.06L 4.984,274.462 C 1.722,258.146,0.00,241.275,0.00,224.00
		c0.00-141.385, 114.615-256.00, 256.00-256.00s 256.00,114.615, 256.00,256.00C 512.00,241.275, 510.277,258.146, 507.016,274.462zM 175.55,302.151l-0.029-0.098c 20.784,20.239, 49.14,32.761, 80.444,32.761c 31.246,0.00, 59.562-12.483, 80.337-32.663l 163.531,0.00 
		C 466.796,405.311, 370.127,480.00, 256.00,480.00S 45.205,405.311, 12.167,302.151L 175.55,302.151 z M 338.92,385.751c0.00,9.982, 8.175,18.158, 18.148,18.158l 37.565,0.00 
		c 9.981,0.00, 18.147-8.175, 18.147-18.158l0.00-37.556 c0.00-9.982-8.166-18.148-18.147-18.148l-37.565,0.00 c-9.974,0.00-18.148,8.166-18.148,18.148
		L 338.92,385.751 zM 255.965,307.113c-48.436,0.00-87.712-39.274-87.712-87.711s 39.276-87.712, 87.712-87.712
		c 48.437,0.00, 87.712,39.275, 87.712,87.712S 304.401,307.113, 255.965,307.113z" data-tags="instagram-round, social" />
<glyph unicode="&#xe015;" d="M 279.533,448.066c0.00,0.00-100.479,0.00-133.971,0.00c-60.06,0.00-116.584-45.503-116.584-98.211c0.00-53.863, 40.941-97.333, 102.043-97.333
	c 4.25,0.00, 8.379,0.086, 12.422,0.377c-3.965-7.594-6.801-16.145-6.801-25.021c0.00-14.969, 8.051-27.105, 18.233-37.012
	c-7.692,0.00-15.121-0.225-23.226-0.225C 57.259,190.643,0.00,143.262,0.00,94.131c0.00-48.389, 62.771-78.656, 137.167-78.656
	c 84.812,0.00, 131.653,48.121, 131.653,96.514c0.00,38.801-11.448,62.035-46.844,87.066c-12.107,8.572-35.265,29.418-35.265,41.672
	c0.00,14.361, 4.099,21.436, 25.714,38.324c 22.156,17.311, 37.836,41.65, 37.836,69.957c0.00,33.704-15.01,66.55-43.186,77.387l 42.477,0.00 
	L 279.533,448.066z M 232.74,120.338c 1.062-4.486, 1.642-9.104, 1.642-13.814c0.00-39.10-25.196-69.656-97.487-69.656
	c-51.42,0.00-88.558,32.553-88.558,71.65c0.00,38.322, 46.063,70.223, 97.481,69.666c 12.00-0.127, 23.185-2.057, 33.336-5.344
	C 207.066,153.426, 227.092,142.459, 232.74,120.338z M 150.409,266.178c-34.519,1.033-67.318,38.613-73.276,83.93
	c-5.958,45.333, 17.185,80.021, 51.694,78.995c 34.505-1.037, 67.319-37.407, 73.278-82.729
	C 208.059,301.045, 184.911,265.145, 150.409,266.178z M 416.00,352.066l0.00,96.00 l-32.00,0.00 l0.00-96.00 l-96.00,0.00 l0.00-32.00 l 96.00,0.00 l0.00-96.00 l 32.00,0.00 l0.00,96.00 l 96.00,0.00 l0.00,32.00 L 416.00,352.066 z" data-tags="google, social" />
<glyph unicode="&#xe016;" d="M 169.093,229.033c 13.944,15.976, 19.415,37.008, 19.415,47.764c0.00,53.715-31.138,137.253-92.795,137.253
		c-19.342,0.00-40.131-9.698-52.045-24.616c-12.636-15.674-14.582-35.778-14.582-55.213c0.00-49.955, 26.239-123.854, 90.164-123.854
		C 137.817,210.367, 156.863,215.095, 169.093,229.033zM 98.146,152.964c0.00,12.683, 3.722,20.151, 7.43,29.112c-8.192-0.729-16.338-1.498-23.787-1.498
		c-33.728,0.00-61.414,12.853-81.788,29.789l0.00-132.124 c 33.662,26.93, 92.031,22.098, 120.44,24.018
		C 110.02,115.712, 98.146,129.861, 98.146,152.964zM 145.688,80.604c-5.924,0.77-9.646,0.77-17.035,0.77c-6.72,0.00-46.864-1.499-78.074-11.953
		c-10.625-3.884-34.725-13.062-50.09-33.455C 5.078,2.18, 41.437-32.00, 75.00-32.00l 165.00,0.00 c 1.104,3.787, 3.195,6.081, 3.116,13.465
		C 242.695,19.578, 202.203,40.308, 145.688,80.604zM 512.00,345.016L 512.00,405.00 c0.00,35.898-39.102,75.00-75.00,75.00L 75.00,480.00 C 39.102,480.00,0.00,440.898,0.00,405.00l0.00-12.857 c 1.86,1.789, 4.01,3.774, 5.996,5.483
		C 48.362,432.695, 94.846,438.547, 133.82,439.27l 157.087,0.00 l-41.729-33.662c0.00,0.00-39.421,0.00-45.542,0.00
		c 18.245-15.818, 45.464-44.109, 45.464-94.49c0.00-55.188-29.086-81.342-60.303-105.918c-9.658-9.678-20.803-20.145-20.803-36.581
		c0.00-16.391, 11.145-25.339, 19.304-32.064l 26.792-20.842c 32.682-27.613, 75.404-59.579, 75.404-111.059
		c0.00-13.794-1.499-26.181-5.983-36.653L 437.00-31.999 c 35.898,0.00, 75.00,39.102, 75.00,75.00L 512.00,305.449 l-94.59,0.00 l0.00-95.082 l-40.395,0.00 l0.00,95.082 l-94.254,0.00 l0.00,39.566 l 94.254,0.00 
		L 377.015,439.27 l 40.395,0.00 l0.00-94.254 L 512.00,345.016 z" data-tags="google-square, social" />
<glyph unicode="&#xe017;" d="M 72.943,402.933c-11.848-15.777-17.515-39.136-14.003-65.854c 6.564-49.926, 42.699-91.33, 80.729-92.467
		c 38.011-1.138, 63.513,38.413, 56.954,88.354c-6.564,49.931-42.717,90.00-80.731,91.143c-10.939,0.325-20.838-2.612-29.238-8.144
		C 81.925,411.79, 77.352,407.442, 72.943,402.933zM 432.274,339.235l 52.37,0.00 c-13.343,26.421-31.121,50.217-52.37,70.401L 432.274,339.235 zM 232.184,68.718c0.00,5.189-0.639,10.277-1.809,15.22c-6.223,24.371-28.286,36.453-59.037,57.842
		c-11.184,3.621-23.506,5.749-36.726,5.889c-44.50,0.481-85.353-21.105-100.831-50.85c 25.84-45.053, 64.989-81.491, 112.082-103.971
		C 209.392-1.617, 232.184,29.687, 232.184,68.718zM 119.002,161.392c 8.929,0.00, 17.113,0.246, 25.588,0.246c-11.218,10.915-20.089,24.286-20.089,40.776
		c0.00,9.78, 3.125,19.201, 7.493,27.566c-4.455-0.319-9.003-0.414-13.684-0.414c-53.034,0.00-92.275,29.728-106.542,71.357
		C 4.128,276.643,0.00,250.804,0.00,224.00c0.00-33.169, 6.309-64.864, 17.791-93.952C 43.646,149.006, 79.083,161.393, 119.002,161.392zM 432.274,303.98l0.00-105.764 L 397.02,198.216 L 397.02,303.98 L 291.255,303.98 l0.00,35.255 L 397.02,339.235 L 397.02,437.669 C 356.579,464.414, 308.113,480.00, 256.00,480.00
		c-47.33,0.00-91.649-12.859-129.685-35.252C 128.979,444.909, 131.65,445.00, 134.33,445.00c 36.898,0.00, 147.597,0.00, 147.597,0.00l-33.029-23.876l-46.797,0.00 
		c 31.041-11.939, 47.577-48.126, 47.577-85.257c0.00-31.187-17.274-58.001-41.684-77.073c-23.813-18.605-28.329-26.399-28.329-42.221
		c0.00-13.50, 25.512-36.467, 38.852-45.91c 38.995-27.578, 51.607-53.177, 51.607-95.923c0.00-40.049-29.122-79.929-83.221-97.295
		C 208.885-28.703, 232.057-32.00, 256.00-32.00c 141.385,0.00, 256.00,114.615, 256.00,256.00c0.00,27.934-4.49,54.814-12.761,79.98L 432.274,303.98 z" data-tags="google-round, social" />
<glyph unicode="&#xe018;" d="M 450.857,385.669c-4.061,4.098-10.705,4.098-14.765-0.001L 262.712,210.617c-4.06-4.10-10.758-4.154-14.884-0.122
		l-64.461,62.985c-4.126,4.032-10.841,3.993-14.92-0.086l-33.414-33.413c-4.08-4.08-4.08-10.755,0.00-14.835l 112.875-112.875
		c 4.08-4.079, 10.755-4.079, 14.834,0.00l 223.142,223.14c 4.079,4.08, 4.095,10.771, 0.034,14.869L 450.857,385.669zM 502.94,245.855l-25.979,25.983l-214.23-215.254c-4.066-4.088-10.751-4.107-14.849-0.051L 77.922,225.172
	c-4.098,4.062-4.113,10.73-0.041,14.812l 90.571,90.787c 4.072,4.087, 10.72,4.066, 14.777-0.041l 64.73-65.591
	c 4.057-4.108, 10.715-4.144, 14.813-0.077l 110.88,110.08l-95.80,95.806C 265.784,483.02, 246.218,483.015, 234.146,470.943L 9.058,245.85
	c-12.067-12.067-12.083-31.624,0.00-43.711l 225.088-225.088c 12.072-12.068, 31.638-12.068, 43.707,0.00L 502.94,202.139
	C 515.019,214.217, 515.019,233.783, 502.94,245.855z" data-tags="foursquare, social" />
<glyph unicode="&#xe019;" d="M 437.00,480.00L 75.00,480.00 C 39.102,480.00,0.00,440.898,0.00,405.00l0.00-362.00 c0.00-35.898, 39.102-75.00, 75.00-75.00l 362.00,0.00 c 35.898,0.00, 75.00,39.102, 75.00,75.00L 512.00,405.00 
	C 512.00,440.898, 472.898,480.00, 437.00,480.00z M 393.01,337.673l 24.651-24.884c 2.855-2.882, 2.845-7.586-0.024-10.454L 260.741,145.439
	c-2.868-2.869-7.562-2.869-10.43,0.00l-79.366,79.366c-2.868,2.869-2.868,7.563, 0.001,10.431l 23.493,23.494
	c 2.869,2.869, 7.59,2.896, 10.491,0.061l 45.324-44.287c 2.902-2.835, 7.612-2.796, 10.467,0.086l 121.907,123.083
	C 385.483,340.555, 390.155,340.555, 393.01,337.673z M 429.63,208.629L 271.365,50.363c-8.485-8.485-22.242-8.485-30.73,0.00
	L 82.369,208.629c-8.496,8.499-8.485,22.25,0.00,30.734L 240.636,397.631c 8.488,8.488, 22.245,8.492, 30.73,0.003l 67.358-67.363
	l-77.963-77.399c-2.881-2.859-7.562-2.835-10.415,0.054l-45.514,46.119c-2.853,2.887-7.528,2.902-10.39,0.028l-63.683-63.834
	c-2.863-2.87-2.852-7.559, 0.029-10.415L 250.293,106.25c 2.88-2.854, 7.581-2.839, 10.439,0.035l 150.632,151.351l 18.266-18.269
	C 438.122,230.879, 438.122,217.121, 429.63,208.629z" data-tags="foursquare-square, social" />
<glyph unicode="&#xe01a;" d="M 256.00,480.00C 114.615,480.00,0.00,365.385,0.00,224.00s 114.615-256.00, 256.00-256.00s 256.00,114.615, 256.00,256.00S 397.385,480.00, 256.00,480.00z M 393.01,337.673l 24.651-24.884
	c 2.855-2.882, 2.845-7.586-0.024-10.454L 260.741,145.439c-2.868-2.869-7.562-2.869-10.43,0.00l-79.366,79.366
	c-2.868,2.869-2.868,7.563, 0.001,10.431l 23.493,23.494c 2.869,2.869, 7.59,2.896, 10.491,0.061l 45.324-44.287
	c 2.902-2.835, 7.612-2.796, 10.467,0.086l 121.907,123.083C 385.483,340.555, 390.155,340.555, 393.01,337.673z M 429.63,208.629
	L 271.365,50.363c-8.485-8.485-22.242-8.485-30.73,0.00L 82.369,208.629c-8.496,8.499-8.485,22.25,0.00,30.734L 240.636,397.631
	c 8.488,8.488, 22.245,8.492, 30.73,0.003l 67.358-67.363l-77.963-77.399c-2.881-2.859-7.562-2.835-10.415,0.054l-45.514,46.119
	c-2.853,2.887-7.528,2.902-10.39,0.028l-63.683-63.834c-2.863-2.87-2.852-7.559, 0.029-10.415L 250.293,106.25
	c 2.88-2.854, 7.581-2.839, 10.439,0.035l 150.632,151.351l 18.266-18.269C 438.122,230.879, 438.122,217.121, 429.63,208.629z" data-tags="foursquare-round, social" />
<glyph unicode="&#xe01b;" d="M 47.373,224.00c0.00,53.035, 43.001,96.037, 96.037,96.037c 53.049,0.00, 96.037-43.002, 96.037-96.037
	c0.00-53.049-42.987-96.037-96.037-96.037C 90.374,127.963, 47.373,170.951, 47.373,224.00zM 272.553,224.00c0.00,53.035, 43.001,96.037, 96.036,96.037c 53.049,0.00, 96.038-43.002, 96.038-96.037
	c0.00-53.049-42.989-96.037-96.038-96.037C 315.554,127.963, 272.553,170.951, 272.553,224.00z" data-tags="flickr, social" />
<glyph unicode="&#xe01c;" d="M 437.00,480.00L 75.00,480.00 C 39.102,480.00,0.00,440.898,0.00,405.00l0.00-362.00 c0.00-35.898, 39.102-75.00, 75.00-75.00l 362.00,0.00 c 35.898,0.00, 75.00,39.102, 75.00,75.00L 512.00,405.00 
	C 512.00,440.898, 472.898,480.00, 437.00,480.00z M 153.462,136.538C 105.162,136.538, 66.00,175.688, 66.00,224.00c0.00,48.30, 39.162,87.462, 87.462,87.462
	c 48.312,0.00, 87.462-39.162, 87.462-87.462C 240.924,175.688, 201.774,136.538, 153.462,136.538z M 358.537,136.538
	c-48.301,0.00-87.462,39.149-87.462,87.462c0.00,48.30, 39.161,87.462, 87.462,87.462C 406.849,311.462, 446.00,272.30, 446.00,224.00
	C 446.00,175.688, 406.849,136.538, 358.537,136.538z" data-tags="flickr-square, social" />
<glyph unicode="&#xe01d;" d="M 256.00,480.00C 114.615,480.00,0.00,365.385,0.00,224.00s 114.615-256.00, 256.00-256.00s 256.00,114.615, 256.00,256.00S 397.385,480.00, 256.00,480.00z M 158.858,141.142
	C 113.101,141.142, 76.00,178.23, 76.00,224.00c0.00,45.758, 37.101,82.858, 82.858,82.858c 45.77,0.00, 82.859-37.101, 82.859-82.858
	C 241.718,178.23, 204.628,141.142, 158.858,141.142z M 353.141,141.142c-45.759,0.00-82.859,37.089-82.859,82.858
	c0.00,45.758, 37.101,82.858, 82.859,82.858C 398.909,306.858, 436.00,269.758, 436.00,224.00C 436.00,178.23, 398.909,141.142, 353.141,141.142z" data-tags="flickr-round, social" />
<glyph unicode="&#xe01e;" d="M 195.10-32.00L 195.10,208.246 l-63.526,0.00 l0.00,86.50 L 195.10,294.746 c0.00,0.00,0.00,35.446,0.00,73.883C 195.10,426.685, 232.625,480.00, 319.087,480.00
		c 35.011,0.00, 60.901-3.354, 60.901-3.354l-2.042-80.776c0.00,0.00-26.401,0.256-55.212,0.256c-31.179,0.00-36.174-14.369-36.174-38.218
		c0.00-18.854,0.00,40.188,0.00-63.161l 93.866,0.00 l-4.086-86.50l-89.78,0.00 L 286.56-32.00 L 195.10-32.00 z" data-tags="facebook, social" />
<glyph unicode="&#xe01f;" d="M 437.00,480.00L 75.00,480.00 C 39.102,480.00,0.00,440.898,0.00,405.00l0.00-362.00 c0.00-35.898, 39.102-75.00, 75.00-75.00l 362.00,0.00 c 35.898,0.00, 75.00,39.102, 75.00,75.00L 512.00,405.00 
	C 512.00,440.898, 472.898,480.00, 437.00,480.00z M 429.571,192.80l-70.343,0.00 l0.00-188.229 l-71.657,0.00 L 287.571,192.80 L 237.80,192.80 l0.00,67.771 l 49.771,0.00 c0.00,0.00,0.00,27.771,0.00,57.886
	c0.00,45.486, 29.40,87.257, 97.143,87.257c 27.429,0.00, 47.715-2.628, 47.715-2.628l-1.601-63.286c0.00,0.00-20.686,0.20-43.257,0.20
	c-24.429,0.00-28.343-11.257-28.343-29.943c0.00-2.308,0.00-3.126,0.00-3.172c0.00-5.248,0.00-17.994,0.00-46.313l 73.543,0.00 L 429.571,192.80z" data-tags="facebook-square, social" />
<glyph unicode="&#xe020;" d="M 256.00,480.00C 114.615,480.00,0.00,365.385,0.00,224.00s 114.615-256.00, 256.00-256.00s 256.00,114.615, 256.00,256.00S 397.385,480.00, 256.00,480.00z M 340.615,212.923l-63.128,0.00 L 277.487,44.00 
	L 213.18,44.00 L 213.18,212.923 l-44.667,0.00 l0.00,60.821 l 44.667,0.00 c0.00,0.00,0.00,24.923,0.00,51.948c0.00,40.82, 26.385,78.308, 87.179,78.308
	c 24.616,0.00, 42.821-2.358, 42.821-2.358l-1.436-56.795c0.00,0.00-18.564,0.18-38.821,0.18c-21.923,0.00-25.436-10.103-25.436-26.872
	c0.00-2.072,0.00-2.807,0.00-2.848c0.00-4.709,0.00-16.148,0.00-41.562l 66.001,0.00 L 340.615,212.923z" data-tags="facebook-round, social" />
<glyph unicode="&#xe021;" d="M 409.348,249.568l-307.20,0.00 c-14.14,0.00-25.60-11.46-25.60-25.60s 11.46-25.60, 25.60-25.60l 307.20,0.00 c 14.14,0.00, 25.60,11.46, 25.60,25.60
		S 423.489,249.568, 409.348,249.568z M 102.148,300.768l 307.20,0.00 c 14.14,0.00, 25.60,11.46, 25.60,25.60s-11.46,25.60-25.60,25.60l-307.20,0.00 
		c-14.14,0.00-25.60-11.46-25.60-25.60S 88.008,300.768, 102.148,300.768z M 409.348,147.168l-307.20,0.00 c-14.14,0.00-25.60-11.46-25.60-25.60s 11.46-25.60, 25.60-25.60
		l 307.20,0.00 c 14.14,0.00, 25.60,11.46, 25.60,25.60S 423.489,147.168, 409.348,147.168z" data-tags="list" />
<glyph unicode="&#xe022;" d="M 292.505,364.351c-10.696-10.436-115.256-120.216-115.256-120.216c-5.705-5.569-8.561-12.865-8.561-20.168
	c0.00-7.307, 2.856-14.607, 8.561-20.172c0.00,0.00, 104.56-109.78, 115.256-120.216c 10.692-10.436, 29.937-11.144, 41.364,0.00
	c 11.407,11.132, 12.32,26.676-0.011,40.336L 237.936,223.968l 95.92,100.044c 12.332,13.664, 11.42,29.204, 0.011,40.34
	C 322.44,375.496, 303.196,374.784, 292.505,364.351z" data-tags="arrow, left" />
<glyph unicode="&#xe023;" d="M 219.465,364.351c 10.696-10.436, 115.256-120.216, 115.256-120.216c 5.705-5.569, 8.561-12.865, 8.561-20.168
	c0.00-7.307-2.856-14.607-8.561-20.172c0.00,0.00-104.56-109.78-115.256-120.216s-29.94-11.144-41.364,0.00
	c-11.412,11.132-12.32,26.676, 0.008,40.336l 95.92,100.052L 178.108,324.012c-12.328,13.664-11.42,29.204-0.008,40.34
	C 189.524,375.496, 208.768,374.784, 219.465,364.351z" data-tags="arrow, right" />
<glyph unicode="&#xe024;" d="M 396.62,187.188c-10.433,10.696-120.211,115.252-120.211,115.252c-5.569,5.708-12.868,8.572-20.168,8.572
	c-7.312,0.00-14.612-2.864-20.172-8.572c0.00,0.00-109.78-104.557-120.221-115.252c-10.428-10.696-11.14-29.937,0.00-41.36
	c 11.132-11.412, 26.68-12.32, 40.34,0.00l 100.052,95.92L 356.28,145.828c 13.668-12.32, 29.208-11.412, 40.34,0.00
	C 407.768,157.253, 407.059,176.493, 396.62,187.188z" data-tags="arrow, up, top" />
<glyph unicode="&#xe025;" d="M 396.624,260.744c-10.436-10.692-120.216-115.248-120.216-115.248c-5.569-5.712-12.865-8.568-20.168-8.568
	s-14.607,2.856-20.172,8.568c0.00,0.00-109.78,104.557-120.211,115.248c-10.436,10.704-11.147,29.944,0.00,41.36
	c 11.128,11.417, 26.672,12.32, 40.331,0.00l 100.052-95.92l 100.044,95.92c 13.664,12.32, 29.204,11.417, 40.34,0.00
	C 407.768,290.688, 407.059,271.448, 396.624,260.744z" data-tags="arrow, down, bottom" />
<glyph unicode="&#xe026;" d="M 253.096,459.468C 123.032,457.728, 19.016,350.867, 20.74,220.796c 1.744-130.008, 108.588-234.06, 238.652-232.328
		c 130.04,1.748, 234.08,108.609, 232.349,238.668C 490.003,357.156, 383.14,461.204, 253.096,459.468z M 279.20,380.98
		c 23.944,0.00, 31.016-13.892, 31.016-29.772c0.00-19.852-15.892-38.199-42.992-38.199c-22.68,0.00-33.473,11.412-32.841,30.26
		C 234.384,359.152, 247.688,380.98, 279.20,380.98z M 217.82,76.768c-16.359,0.00-28.347,9.924-16.896,53.588l 18.764,77.44
		c 3.265,12.412, 3.816,17.372,0.00,17.372c-4.904,0.00-26.144-8.572-38.688-17.012l-8.176,13.40
		C 212.624,254.793, 258.392,274.288, 278.016,274.288c 16.352,0.00, 19.08-19.352, 10.905-49.12l-21.496-81.412
		c-3.816-14.388-2.176-19.348, 1.632-19.348c 4.912,0.00, 20.992,5.968, 36.801,18.38l 9.264-12.412
		C 276.417,91.676, 234.167,76.768, 217.82,76.768z" data-tags="info-circle" />
<glyph unicode="&#xe027;" d="M 256.24,439.008c-118.773,0.00-215.04-96.292-215.04-215.04c0.00-118.773, 96.267-215.04, 215.04-215.04c 118.748,0.00, 215.04,96.267, 215.04,215.04
		C 471.281,342.716, 374.988,439.008, 256.24,439.008z M 300.488,223.968l 78.352-78.347l-44.252-44.244L 256.248,179.716L 177.901,101.372
		l-44.24,44.244L 212.00,223.964L 133.661,302.292l 44.24,44.264l 78.34-78.34l 78.34,78.332l 44.248-44.24L 300.488,223.968z" data-tags="close, cancel, exit" />
</font>
</defs>
</svg>
