<?xml version="1.0" standalone="no"?>
<!DOCTYPE svg PUBLIC "-//W3C//DTD SVG 1.1//EN" "http://www.w3.org/Graphics/SVG/1.1/DTD/svg11.dtd" >
<svg xmlns="http://www.w3.org/2000/svg">
<metadata>
This is a custom SVG webfont generated by Font Squirrel.
Copyright   : Copyright  2011 by Jan Tonellato All rights reserved
Designer    : Jan Tonellato
Foundry     : Jan Tonellato
Foundry URL : typographysynthviewcom
</metadata>
<defs>
<font id="NovecentowideMedium" horiz-adv-x="1654" >
<font-face units-per-em="2048" ascent="1741" descent="-307" />
<missing-glyph horiz-adv-x="512" />
<glyph unicode=" "  horiz-adv-x="512" />
<glyph unicode="&#x09;" horiz-adv-x="512" />
<glyph unicode="&#xa0;" horiz-adv-x="512" />
<glyph unicode="!" horiz-adv-x="587" d="M180 0v322h228v-322h-228zM180 459v975h228v-975h-228z" />
<glyph unicode="&#x22;" horiz-adv-x="1007" d="M180 989v445h215v-445h-215zM610 989v445h215v-445h-215z" />
<glyph unicode="#" horiz-adv-x="1808" d="M59 336l103 194h213l196 383h-219l103 195h217l166 326h217l-162 -326h393l166 326h217l-162 -326h242l-100 -195h-240l-190 -383h235l-100 -194h-234l-168 -336h-233l172 336h-385l-168 -336h-234l172 336h-217zM604 530h385l197 383h-391z" />
<glyph unicode="$" horiz-adv-x="1232" d="M61 397l218 60q20 -119 115 -201t243 -82q133 0 211 61.5t78 155.5q0 43 -19.5 79t-43 58.5t-76 46t-84 35t-102.5 33t-99 31.5q-68 23 -108 38t-102.5 50t-97 71.5t-61.5 96t-27 131.5q0 147 113 255.5t293 137.5v164h223v-166q158 -31 267.5 -131t142.5 -246l-217 -59 q-25 117 -114 183.5t-208 66.5q-121 0 -194.5 -53.5t-73.5 -139.5q0 -59 53 -105t105.5 -66.5t167.5 -55.5q27 -8 38 -12q96 -31 162 -60t142.5 -80t116.5 -124.5t40 -170.5q0 -164 -116.5 -279.5t-311.5 -142.5v-161h-223v164q-176 31 -293 141t-158 276z" />
<glyph unicode="%" horiz-adv-x="1818" d="M25 1034q0 178 102 297t266 119t265.5 -119t101.5 -297t-101.5 -295.5t-265.5 -117.5t-266 117.5t-102 295.5zM182 1034.5q0 -108.5 58.5 -183.5t152.5 -75t151.5 75t57.5 183.5t-57.5 184t-151.5 75.5t-152.5 -75.5t-58.5 -184zM336 0l993 1434h156l-996 -1434h-153z M1057 397q0 178 102.5 297t266 119t265 -119t101.5 -297t-101.5 -295.5t-265 -117.5t-266 117.5t-102.5 295.5zM1214 397.5q0 -108.5 58.5 -183.5t153 -75t151.5 75t57 183.5t-57 184t-151.5 75.5t-153 -75.5t-58.5 -184z" />
<glyph unicode="&#x26;" horiz-adv-x="1452" d="M84 410q0 135 87 224t212 107v2q-102 12 -187 94.5t-85 215.5q0 170 124.5 289.5t360.5 119.5q199 0 335 -107.5t177 -299.5l-195 -54q-37 137 -110.5 203t-200.5 66q-137 0 -196.5 -71t-59.5 -152q0 -94 71.5 -156t209.5 -62h800v-180h-262v-151q0 -242 -133 -384.5 t-418 -142.5q-238 0 -384 121t-146 318zM305 414q0 -109 87 -177.5t222 -68.5q178 0 258 83t80 255v143h-338q-143 0 -226 -61t-83 -174z" />
<glyph unicode="'" horiz-adv-x="577" d="M180 989v445h215v-445h-215z" />
<glyph unicode="(" horiz-adv-x="759" d="M84 709q0 244 50 430t137 298.5t176.5 176t195.5 100.5l62 -213q-205 -68 -299.5 -260t-94.5 -532t94.5 -531.5t299.5 -259.5l-62 -213q-106 37 -195.5 100.5t-176.5 176t-137 299t-50 428.5z" />
<glyph unicode=")" horiz-adv-x="761" d="M59 -82l62 -213q106 37 195.5 100.5t176.5 176t137 299t50 428.5q0 244 -50 430t-137 298.5t-176.5 176t-195.5 100.5l-62 -213q205 -68 299.5 -260t94.5 -532t-94.5 -531.5t-299.5 -259.5z" />
<glyph unicode="*" horiz-adv-x="1060" d="M180 1122l45 142l230 -76v246h147v-246l232 76l47 -142l-236 -69l148 -199l-119 -88l-144 207l-143 -207l-119 86l148 201z" />
<glyph unicode="+" horiz-adv-x="1429" d="M246 633v188h368v373h201v-373h371v-188h-369v-377h-201v377h-370z" />
<glyph unicode="," horiz-adv-x="487" d="M92 -270q49 39 89 112.5t40 130.5l25 9l-25 2q-37 4 -67.5 33.5t-30.5 78.5q0 51 36 86t87 35t86 -40t35 -101q0 -90 -52.5 -184.5t-130.5 -161.5h-92z" />
<glyph unicode="-" horiz-adv-x="1302" d="M180 633v188h942v-188h-942z" />
<glyph unicode="." horiz-adv-x="487" d="M123 96q0 49 35 84t86 35t86 -35t35 -84q0 -51 -35 -87t-86 -36t-86 36t-35 87z" />
<glyph unicode="/" horiz-adv-x="999" d="M25 0l733 1434h217l-717 -1434h-233z" />
<glyph unicode="0" horiz-adv-x="1468" d="M84 716.5q0 315.5 176 530.5t473 215q299 0 476 -215t177 -530.5t-177 -530.5t-476 -215q-297 0 -473 215t-176 530.5zM317 716.5q0 -227.5 106.5 -374.5t309.5 -147t310.5 147t107.5 374.5t-107.5 375t-310.5 147.5t-309.5 -147.5t-106.5 -375z" />
<glyph unicode="1" horiz-adv-x="882" d="M84 975l459 459h159v-1434h-227v879q0 43 2 100t2 90l2 35h-2l-18 -21l-46 -51q-28 -31 -48 -51l-144 -141z" />
<glyph unicode="2" horiz-adv-x="1202" d="M96 1075q53 184 192.5 285.5t338.5 101.5q219 0 357 -129t138 -325q0 -96 -27.5 -175t-89 -148t-104.5 -104.5t-127 -99.5l-24 -18l-342 -256l2 -2h8q6 0 19.5 1t31.5 2t44 2t54.5 2t64.5 1h73h417v-213h-1013v184q104 90 315 269.5t315 269.5q156 131 156 283 q0 111 -77 183.5t-197 72.5q-123 0 -203 -67t-111 -175z" />
<glyph unicode="3" horiz-adv-x="1234" d="M84 377l205 55q23 -117 114 -187.5t222 -70.5q133 0 211.5 71.5t78.5 184.5q0 104 -80.5 161.5t-218.5 57.5h-124v180h124q135 0 207 56.5t72 163.5q0 86 -69.5 149.5t-204.5 63.5q-233 0 -308 -244l-202 53q43 180 182 285.5t340 105.5q238 0 366.5 -115.5t128.5 -283.5 q0 -137 -92 -225t-207 -93v-2q131 -4 226.5 -91t95.5 -234q0 -199 -145.5 -323t-372.5 -124q-203 0 -357.5 114t-191.5 292z" />
<glyph unicode="4" horiz-adv-x="1306" d="M84 326v168l782 940h183v-910h180v-198h-180v-326h-215v326h-750zM344 522q2 0 39 1t87 1h89h275v279v67q0 35 1 65t1 58.5t1 52t2 40t1 26.5v10h-2l-23 -28q-20 -29 -57 -78t-70 -86l-235 -279q-35 -43 -64 -74.5t-37 -41.5l-8 -11v-2z" />
<glyph unicode="5" horiz-adv-x="1224" d="M96 356l209 56q25 -106 107 -175t211 -69t212 84t83 213t-84 212t-211 83q-213 0 -275 -154l-196 56l127 772h782v-213h-615l-28 -152q-12 -68 -24.5 -123t-16.5 -78l-6 -22l2 -2q31 35 100.5 64.5t157.5 29.5q221 0 368.5 -134t147.5 -341q0 -213 -146.5 -352.5 t-369.5 -139.5q-209 0 -352.5 109.5t-182.5 275.5z" />
<glyph unicode="6" horiz-adv-x="1222" d="M84 471q0 141 52 260t167 270l328 433h246l-431 -572l3 -2q80 94 225 94q223 0 359 -142t136 -353q0 -213 -154.5 -350.5t-389.5 -137.5q-231 0 -386 139.5t-155 360.5zM311 471q0 -135 90.5 -217t231.5 -82q143 0 231 83t88 216q2 131 -86 213t-233 82 q-143 0 -232.5 -82t-89.5 -213z" />
<glyph unicode="7" horiz-adv-x="1150" d="M68 1221v213h1046v-136l-729 -1298h-242l545 965q33 57 74 121.5t65 101.5l23 35l-2 2h-12q-14 0 -36 -1t-46.5 -2t-53.5 -1h-51h-581z" />
<glyph unicode="8" horiz-adv-x="1245" d="M84 399q0 147 97.5 245.5t226.5 117.5v2q-80 10 -170.5 98t-90.5 219q0 162 134.5 271.5t341 109.5t341 -109.5t134.5 -271.5q0 -131 -90 -219t-168 -98v-2q127 -20 225 -118.5t98 -244.5q0 -186 -151.5 -307t-388.5 -123q-238 2 -388.5 123t-150.5 307zM299 406 q0 -115 89 -184.5t235 -69.5q147 0 235 69.5t88 184.5q0 113 -88 180t-235.5 67t-235.5 -68t-88 -179zM342 1073q0 -94 79 -153.5t201.5 -59.5t201.5 60.5t79 152.5q0 98 -79 159.5t-201 61.5q-125 0 -203 -62.5t-78 -158.5z" />
<glyph unicode="9" horiz-adv-x="1230" d="M53 969q0 223 154.5 358t394.5 135q236 0 390.5 -134t154.5 -367q0 -266 -266 -580l-328 -381h-258l491 569l-2 2q-80 -92 -227 -92q-236 0 -370 139.5t-134 350.5zM272 958q0 -139 93.5 -215.5t230.5 -76.5q141 0 232.5 79.5t91.5 212.5q0 147 -91.5 225.5t-232.5 78.5 q-139 0 -231.5 -80.5t-92.5 -223.5z" />
<glyph unicode=":" horiz-adv-x="487" d="M123 96q0 49 35 84t86 35t86 -35t35 -84q0 -51 -35 -87t-86 -36t-86 36t-35 87zM123 717q0 49 35 84t86 35t86 -35t35 -84q0 -51 -35 -87t-86 -36t-86 36t-35 87z" />
<glyph unicode=";" horiz-adv-x="520" d="M123 -274q49 39 89 112.5t40 130.5l24 8l-24 3q-37 4 -67.5 33.5t-30.5 78.5q0 51 35.5 86t87 35t86 -40t34.5 -101q0 -90 -52 -184.5t-130 -161.5h-92zM152 717q0 49 34.5 84t86 35t86 -35t34.5 -84q0 -51 -34.5 -87t-86 -36t-86 36t-34.5 87z" />
<glyph unicode="&#x3c;" horiz-adv-x="1429" d="M233 752l666 -502h277l-650 502l650 499h-277z" />
<glyph unicode="=" horiz-adv-x="1429" d="M246 412v188h940v-188h-940zM246 831v189h940v-189h-940z" />
<glyph unicode="&#x3e;" horiz-adv-x="1429" d="M254 250l649 502l-649 499h276l666 -499l-666 -502h-276z" />
<glyph unicode="?" horiz-adv-x="1185" d="M84 1071q43 182 182.5 286.5t341.5 104.5q240 0 367 -116.5t127 -290.5q0 -90 -33 -161t-100.5 -126t-126 -89t-154.5 -79v-141h-227v225q236 117 320.5 189.5t84.5 166.5q0 86 -62.5 154t-203.5 68q-254 0 -326 -244zM461 0v322h227v-322h-227z" />
<glyph unicode="@" horiz-adv-x="1634" d="M84 715q0 324 207 535.5t524 211.5q319 0 527 -212t208 -535q0 -172 -79.5 -296t-231.5 -124q-82 0 -142.5 49t-70.5 129l-2 2q-27 -70 -102.5 -122t-161.5 -52q-162 0 -263.5 111.5t-101.5 287.5q0 186 103.5 302t273.5 116q68 0 123 -27.5t78.5 -53t27.5 -42.5h3v86 h149v-530q0 -63 27.5 -102t76.5 -39q76 0 115 87t39 218q0 268 -169 443t-427 175q-256 0 -425 -175t-169 -443q0 -266 169 -444.5t425 -178.5q80 0 147.5 12.5t107.5 30t68.5 33.5t44 28.5t17.5 12.5l105 -55q-2 -6 -19.5 -24.5t-57.5 -46.5t-94.5 -52.5t-138.5 -42 t-180 -17.5q-315 0 -523 213.5t-208 530.5zM567 705q0 -115 65.5 -178.5t158.5 -63.5q86 0 148 61.5t65 173.5v64q2 102 -61.5 151.5t-151.5 49.5q-94 0 -160 -69.5t-64 -188.5z" />
<glyph unicode="A" horiz-adv-x="1472" d="M25 0l606 1434h211l606 -1434h-244l-133 326h-670l-133 -326h-243zM483 524h506l-184 449q-12 33 -29.5 81t-27.5 76l-11 29h-2l-10 -29q-10 -29 -27.5 -76.5t-29.5 -80.5z" />
<glyph unicode="B" horiz-adv-x="1333" d="M180 0v1434h565q186 0 304 -102.5t118 -258.5q0 -102 -66.5 -186t-150.5 -105v-2q111 -18 207 -120.5t96 -233.5q0 -190 -127 -308t-358 -118h-588zM408 193h340q119 0 194.5 65.5t75.5 173.5q0 106 -80 174t-197 68h-333v-481zM408 850h292q106 0 173 56.5t67 140.5 q0 88 -65.5 141t-174.5 53h-292v-391z" />
<glyph unicode="C" horiz-adv-x="1552" d="M84 716.5q0 321.5 216 533.5t527 212q207 0 380 -101t272 -276l-232 -61q-63 100 -177 157.5t-243 57.5q-223 0 -366.5 -145.5t-143.5 -377t145.5 -375.5t364.5 -144q143 0 264 69.5t183 184.5l227 -62q-92 -193 -271 -305.5t-403 -112.5q-311 0 -527 212t-216 533.5z " />
<glyph unicode="D" horiz-adv-x="1617" d="M180 0v1434h611q313 0 528 -203t215 -520q0 -313 -212 -512t-521 -199h-621zM408 213h393q209 0 353 136t144 362q0 229 -147 369.5t-360 140.5h-383v-1008z" />
<glyph unicode="E" horiz-adv-x="1310" d="M180 0v1434h985v-213h-757v-373h604v-201h-604v-434h770v-213h-998z" />
<glyph unicode="F" horiz-adv-x="1216" d="M180 0v1434h965v-213h-737v-416h583v-205h-583v-600h-228z" />
<glyph unicode="G" horiz-adv-x="1626" d="M84 716.5q0 321.5 216 533.5t527 212q213 -2 384 -103.5t268 -273.5l-232 -61q-63 100 -177 157.5t-243 57.5q-223 0 -366.5 -145.5t-143.5 -376.5q0 -233 147.5 -378.5t373.5 -145.5q180 0 303 80.5t168 185.5v121h-418v186h612v-768h-196v54v44v33q0 14 1 23.5t1 15.5 v8v4h-2q-66 -80 -194 -144.5t-286 -64.5q-311 0 -527 212t-216 533.5z" />
<glyph unicode="H" horiz-adv-x="1515" d="M180 0v1434h228v-594h700v594h227v-1434h-227v629h-700v-629h-228z" />
<glyph unicode="I" horiz-adv-x="587" d="M180 0v1434h228v-1434h-228z" />
<glyph unicode="J" horiz-adv-x="1357" d="M25 340l225 59q39 -100 133 -158.5t215 -58.5q186 0 286.5 110.5t100.5 305.5v836h227v-826q0 -301 -163.5 -469t-450.5 -168q-201 0 -356.5 102.5t-216.5 266.5z" />
<glyph unicode="K" horiz-adv-x="1441" d="M180 0v1434h228v-334q0 -100 -1 -185.5t-1 -115.5l-3 -31h3l28 29q29 29 85 87t110 111l440 439h277l-594 -594l624 -840h-266l-508 690l-194 -196v-494h-228z" />
<glyph unicode="L" horiz-adv-x="1185" d="M180 0v1434h228v-1221h737v-213h-965z" />
<glyph unicode="M" horiz-adv-x="1720" d="M180 0v1434h213l326 -549q51 -86 87 -148.5t46 -81.5l8 -16h2l10 16q8 18 43 81t86 149l326 549h213v-1434h-223v547q0 113 3 242t5 196l2 68h-2q-4 0 -127 -217l-278 -482h-119l-279 482q-123 217 -125 217h-2l2 -68q2 -68 4 -197t2 -241v-547h-223z" />
<glyph unicode="N" horiz-adv-x="1572" d="M180 0v1434h213l527 -707q41 -57 105.5 -145t102.5 -142l39 -53h2l-2 59q0 57 -1 169t-1 208v611h228v-1434h-213l-523 705q-53 74 -117.5 165t-99.5 138l-34 49h-3l3 -53q0 -55 1 -171t1 -225v-608h-228z" />
<glyph unicode="O" d="M84 716.5q0 321.5 216 533.5t527 212q313 0 529.5 -212t216.5 -533.5t-216 -533.5t-530 -212q-311 0 -527 212t-216 533.5zM317 717q0 -231 143.5 -376.5t366.5 -145.5q221 0 365.5 146t144.5 376q0 233 -144 377.5t-366 144.5q-223 0 -366.5 -144.5t-143.5 -377.5z" />
<glyph unicode="P" horiz-adv-x="1261" d="M180 0v1434h475q256 0 400.5 -125t144.5 -344.5t-144.5 -344t-400.5 -124.5h-247v-496h-228zM408 709h243q150 0 232 67.5t82 188.5q0 123 -83 189.5t-231 66.5h-243v-512z" />
<glyph unicode="Q" d="M84 717q0 322 216 533.5t527 211.5q313 0 529.5 -212t216.5 -533q0 -291 -181.5 -496t-453.5 -241v-250h-227v250q-272 41 -449.5 244.5t-177.5 492.5zM317 717q0 -231 143.5 -376.5t366.5 -145.5q221 0 365.5 146t144.5 376q0 233 -144 377.5t-366 144.5 q-223 0 -366.5 -144.5t-143.5 -377.5z" />
<glyph unicode="R" horiz-adv-x="1333" d="M180 0v1434h469q256 0 403.5 -126t147.5 -339q0 -150 -74.5 -256.5t-212.5 -157.5l340 -555h-256l-303 514q-14 -2 -45 -2h-241v-512h-228zM408 713h268q139 0 214 71.5t75 184t-76 182.5t-213 70h-268v-508z" />
<glyph unicode="S" horiz-adv-x="1232" d="M61 397l218 60q20 -119 115 -201t243 -82q133 0 211 61.5t78 155.5q0 43 -19.5 79t-43 58.5t-76 46t-84 35t-102.5 33t-99 31.5q-68 23 -108 38t-102.5 50t-97 71.5t-61.5 96t-27 131.5q0 170 145.5 285.5t364.5 115.5q199 0 343.5 -107.5t185.5 -279.5l-217 -59 q-25 117 -114 183.5t-208 66.5q-121 0 -194.5 -53.5t-73.5 -139.5q0 -59 53 -105t105.5 -66.5t167.5 -55.5q27 -8 38 -12q96 -31 162 -60t142.5 -80t116.5 -124.5t40 -170.5q0 -186 -148.5 -307t-385.5 -121q-223 0 -372 116.5t-196 309.5z" />
<glyph unicode="T" horiz-adv-x="1228" d="M37 1221v213h1153v-213h-465v-1221h-225v1221h-463z" />
<glyph unicode="U" horiz-adv-x="1497" d="M145 608v826h228v-824q0 -428 375 -428q379 0 378 428v824h226v-826q0 -307 -160 -472t-444.5 -165t-443.5 165t-159 472z" />
<glyph unicode="V" horiz-adv-x="1470" d="M25 1434h247l381 -949q18 -51 40 -110.5t32 -89.5l10 -31h2l11 31q10 31 30.5 89t40.5 111l381 949h246l-592 -1434h-238z" />
<glyph unicode="W" horiz-adv-x="2056" d="M49 1434h240l272 -871q16 -55 31.5 -110.5t21.5 -79.5l9 -27h2l6 27q8 25 23.5 80t35.5 110l236 697h204l236 -697q20 -55 35.5 -110.5t23.5 -79.5l7 -27h2l8 27q6 25 20.5 81t30.5 109l274 871h240l-469 -1434h-207l-229 723q-25 80 -43.5 147.5t-24.5 92.5l-6 26h-2 l-6 -26q-6 -27 -24.5 -93.5t-43.5 -146.5l-229 -723h-207z" />
<glyph unicode="X" horiz-adv-x="1382" d="M29 0l526 739l-492 695h275l266 -379q10 -14 31.5 -49t38.5 -62l16 -26h2l17 26q16 27 37.5 61.5t31.5 49.5l266 379h275l-490 -695l525 -739h-273l-290 397q-12 18 -37 57.5t-43 69.5l-19 29h-2l-18 -29q-18 -31 -43 -69.5t-37 -57.5l-291 -397h-272z" />
<glyph unicode="Y" horiz-adv-x="1388" d="M29 1434h256l325 -441q14 -18 37 -49t35 -47l12 -14h2q2 0 82 110l326 441h256l-553 -754v-680h-225v680z" />
<glyph unicode="Z" horiz-adv-x="1427" d="M123 0v211l780 899q20 23 49 51l47 47l21 17l-2 2l-10 -2h-32q-19 0 -43 -1t-54.5 -2t-59.5 -1h-676v213h1162v-211l-762 -891q-27 -29 -56.5 -59.5t-44.5 -47.5l-16 -16l2 -2l10 2h29q18 0 41.5 1t55.5 2t63 1h678v-213h-1182z" />
<glyph unicode="[" horiz-adv-x="729" d="M180 -309v2062h504v-213h-274v-1638h274v-211h-504z" />
<glyph unicode="\" horiz-adv-x="999" d="M25 1434l716 -1434h234l-733 1434h-217z" />
<glyph unicode="]" horiz-adv-x="743" d="M59 -98v-211h504v2062h-504v-213h275v-1638h-275z" />
<glyph unicode="^" horiz-adv-x="1318" d="M180 977l479 481l480 -481l-105 -94l-375 383l-374 -383z" />
<glyph unicode="_" horiz-adv-x="1574" d="M180 0h1215v-178h-1215v178z" />
<glyph unicode="`" horiz-adv-x="638" d="M33 1716l80 156l454 -244l-67 -125z" />
<glyph unicode="a" horiz-adv-x="1472" d="M25 0l606 1434h211l606 -1434h-244l-133 326h-670l-133 -326h-243zM483 524h506l-184 449q-12 33 -29.5 81t-27.5 76l-11 29h-2l-10 -29q-10 -29 -27.5 -76.5t-29.5 -80.5z" />
<glyph unicode="b" horiz-adv-x="1333" d="M180 0v1434h565q186 0 304 -102.5t118 -258.5q0 -102 -66.5 -186t-150.5 -105v-2q111 -18 207 -120.5t96 -233.5q0 -190 -127 -308t-358 -118h-588zM408 193h340q119 0 194.5 65.5t75.5 173.5q0 106 -80 174t-197 68h-333v-481zM408 850h292q106 0 173 56.5t67 140.5 q0 88 -65.5 141t-174.5 53h-292v-391z" />
<glyph unicode="c" horiz-adv-x="1552" d="M84 716.5q0 321.5 216 533.5t527 212q207 0 380 -101t272 -276l-232 -61q-63 100 -177 157.5t-243 57.5q-223 0 -366.5 -145.5t-143.5 -377t145.5 -375.5t364.5 -144q143 0 264 69.5t183 184.5l227 -62q-92 -193 -271 -305.5t-403 -112.5q-311 0 -527 212t-216 533.5z " />
<glyph unicode="d" horiz-adv-x="1617" d="M180 0v1434h611q313 0 528 -203t215 -520q0 -313 -212 -512t-521 -199h-621zM408 213h393q209 0 353 136t144 362q0 229 -147 369.5t-360 140.5h-383v-1008z" />
<glyph unicode="e" horiz-adv-x="1310" d="M180 0v1434h985v-213h-757v-373h604v-201h-604v-434h770v-213h-998z" />
<glyph unicode="f" horiz-adv-x="1216" d="M180 0v1434h965v-213h-737v-416h583v-205h-583v-600h-228z" />
<glyph unicode="g" horiz-adv-x="1626" d="M84 716.5q0 321.5 216 533.5t527 212q213 -2 384 -103.5t268 -273.5l-232 -61q-63 100 -177 157.5t-243 57.5q-223 0 -366.5 -145.5t-143.5 -376.5q0 -233 147.5 -378.5t373.5 -145.5q180 0 303 80.5t168 185.5v121h-418v186h612v-768h-196v54v44v33q0 14 1 23.5t1 15.5 v8v4h-2q-66 -80 -194 -144.5t-286 -64.5q-311 0 -527 212t-216 533.5z" />
<glyph unicode="h" horiz-adv-x="1515" d="M180 0v1434h228v-594h700v594h227v-1434h-227v629h-700v-629h-228z" />
<glyph unicode="i" horiz-adv-x="587" d="M180 0v1434h228v-1434h-228z" />
<glyph unicode="j" horiz-adv-x="1357" d="M25 340l225 59q39 -100 133 -158.5t215 -58.5q186 0 286.5 110.5t100.5 305.5v836h227v-826q0 -301 -163.5 -469t-450.5 -168q-201 0 -356.5 102.5t-216.5 266.5z" />
<glyph unicode="k" horiz-adv-x="1441" d="M180 0v1434h228v-334q0 -100 -1 -185.5t-1 -115.5l-3 -31h3l28 29q29 29 85 87t110 111l440 439h277l-594 -594l624 -840h-266l-508 690l-194 -196v-494h-228z" />
<glyph unicode="l" horiz-adv-x="1185" d="M180 0v1434h228v-1221h737v-213h-965z" />
<glyph unicode="m" horiz-adv-x="1720" d="M180 0v1434h213l326 -549q51 -86 87 -148.5t46 -81.5l8 -16h2l10 16q8 18 43 81t86 149l326 549h213v-1434h-223v547q0 113 3 242t5 196l2 68h-2q-4 0 -127 -217l-278 -482h-119l-279 482q-123 217 -125 217h-2l2 -68q2 -68 4 -197t2 -241v-547h-223z" />
<glyph unicode="n" horiz-adv-x="1572" d="M180 0v1434h213l527 -707q41 -57 105.5 -145t102.5 -142l39 -53h2l-2 59q0 57 -1 169t-1 208v611h228v-1434h-213l-523 705q-53 74 -117.5 165t-99.5 138l-34 49h-3l3 -53q0 -55 1 -171t1 -225v-608h-228z" />
<glyph unicode="o" d="M84 716.5q0 321.5 216 533.5t527 212q313 0 529.5 -212t216.5 -533.5t-216 -533.5t-530 -212q-311 0 -527 212t-216 533.5zM317 717q0 -231 143.5 -376.5t366.5 -145.5q221 0 365.5 146t144.5 376q0 233 -144 377.5t-366 144.5q-223 0 -366.5 -144.5t-143.5 -377.5z" />
<glyph unicode="p" horiz-adv-x="1261" d="M180 0v1434h475q256 0 400.5 -125t144.5 -344.5t-144.5 -344t-400.5 -124.5h-247v-496h-228zM408 709h243q150 0 232 67.5t82 188.5q0 123 -83 189.5t-231 66.5h-243v-512z" />
<glyph unicode="q" d="M84 717q0 322 216 533.5t527 211.5q313 0 529.5 -212t216.5 -533q0 -291 -181.5 -496t-453.5 -241v-250h-227v250q-272 41 -449.5 244.5t-177.5 492.5zM317 717q0 -231 143.5 -376.5t366.5 -145.5q221 0 365.5 146t144.5 376q0 233 -144 377.5t-366 144.5 q-223 0 -366.5 -144.5t-143.5 -377.5z" />
<glyph unicode="r" horiz-adv-x="1333" d="M180 0v1434h469q256 0 403.5 -126t147.5 -339q0 -150 -74.5 -256.5t-212.5 -157.5l340 -555h-256l-303 514q-14 -2 -45 -2h-241v-512h-228zM408 713h268q139 0 214 71.5t75 184t-76 182.5t-213 70h-268v-508z" />
<glyph unicode="s" horiz-adv-x="1232" d="M61 397l218 60q20 -119 115 -201t243 -82q133 0 211 61.5t78 155.5q0 43 -19.5 79t-43 58.5t-76 46t-84 35t-102.5 33t-99 31.5q-68 23 -108 38t-102.5 50t-97 71.5t-61.5 96t-27 131.5q0 170 145.5 285.5t364.5 115.5q199 0 343.5 -107.5t185.5 -279.5l-217 -59 q-25 117 -114 183.5t-208 66.5q-121 0 -194.5 -53.5t-73.5 -139.5q0 -59 53 -105t105.5 -66.5t167.5 -55.5q27 -8 38 -12q96 -31 162 -60t142.5 -80t116.5 -124.5t40 -170.5q0 -186 -148.5 -307t-385.5 -121q-223 0 -372 116.5t-196 309.5z" />
<glyph unicode="t" horiz-adv-x="1228" d="M37 1221v213h1153v-213h-465v-1221h-225v1221h-463z" />
<glyph unicode="u" horiz-adv-x="1497" d="M145 608v826h228v-824q0 -428 375 -428q379 0 378 428v824h226v-826q0 -307 -160 -472t-444.5 -165t-443.5 165t-159 472z" />
<glyph unicode="v" horiz-adv-x="1470" d="M25 1434h247l381 -949q18 -51 40 -110.5t32 -89.5l10 -31h2l11 31q10 31 30.5 89t40.5 111l381 949h246l-592 -1434h-238z" />
<glyph unicode="w" horiz-adv-x="2056" d="M49 1434h240l272 -871q16 -55 31.5 -110.5t21.5 -79.5l9 -27h2l6 27q8 25 23.5 80t35.5 110l236 697h204l236 -697q20 -55 35.5 -110.5t23.5 -79.5l7 -27h2l8 27q6 25 20.5 81t30.5 109l274 871h240l-469 -1434h-207l-229 723q-25 80 -43.5 147.5t-24.5 92.5l-6 26h-2 l-6 -26q-6 -27 -24.5 -93.5t-43.5 -146.5l-229 -723h-207z" />
<glyph unicode="x" horiz-adv-x="1382" d="M29 0l526 739l-492 695h275l266 -379q10 -14 31.5 -49t38.5 -62l16 -26h2l17 26q16 27 37.5 61.5t31.5 49.5l266 379h275l-490 -695l525 -739h-273l-290 397q-12 18 -37 57.5t-43 69.5l-19 29h-2l-18 -29q-18 -31 -43 -69.5t-37 -57.5l-291 -397h-272z" />
<glyph unicode="y" horiz-adv-x="1388" d="M29 1434h256l325 -441q14 -18 37 -49t35 -47l12 -14h2q2 0 82 110l326 441h256l-553 -754v-680h-225v680z" />
<glyph unicode="z" horiz-adv-x="1427" d="M123 0v211l780 899q20 23 49 51l47 47l21 17l-2 2l-10 -2h-32q-19 0 -43 -1t-54.5 -2t-59.5 -1h-676v213h1162v-211l-762 -891q-27 -29 -56.5 -59.5t-44.5 -47.5l-16 -16l2 -2l10 2h29q18 0 41.5 1t55.5 2t63 1h678v-213h-1182z" />
<glyph unicode="{" horiz-adv-x="843" d="M180 721q6 2 14.5 6t32 25.5t41 52.5t31.5 92t14 139v236q0 244 130 375t370 131v-211q-125 0 -199.5 -66.5t-74.5 -251.5v-200q0 -121 -27 -202t-48.5 -101.5t-35.5 -24.5q14 -4 35.5 -24.5t48.5 -101.5t27 -202v-200q0 -184 74.5 -251t199.5 -67v-211q-240 0 -370 131 t-130 375v236q0 233 -112 305z" />
<glyph unicode="|" horiz-adv-x="544" d="M180 -152v1739h182v-1739h-182z" />
<glyph unicode="}" horiz-adv-x="843" d="M31 -125v-211q240 0 369.5 131t129.5 375v236q0 233 113 305l21 10q-6 2 -14.5 6t-32 25.5t-41 52.5t-32 92t-14.5 139v236q0 244 -130 375t-369 131v-211q125 0 199.5 -66.5t74.5 -251.5v-200q0 -121 26.5 -202t48 -101.5t36.5 -24.5q-14 -4 -36 -24.5t-48.5 -101.5 t-26.5 -202v-200q0 -184 -74.5 -251t-199.5 -67z" />
<glyph unicode="~" horiz-adv-x="1429" d="M205 625q18 119 106 182t197 63q76 0 151.5 -35.5t139 -71.5t108.5 -36q70 0 106 38t38 89l190 -51q-16 -119 -104 -182.5t-199 -63.5q-96 0 -223 71.5t-178 71.5q-72 0 -106 -36.5t-38 -90.5z" />
<glyph unicode="&#xa1;" horiz-adv-x="587" d="M180 0v975h228v-975h-228zM180 1112v322h228v-322h-228z" />
<glyph unicode="&#xa2;" horiz-adv-x="1171" d="M84 713q0 205 126 353t316 181v215h185v-215q129 -20 233.5 -97t159.5 -192l-197 -51q-96 152 -286 152q-147 0 -237.5 -94.5t-90.5 -252t90 -250.5t238 -93q215 0 301 180l196 -53q-53 -127 -160.5 -212t-246.5 -108v-205h-185v207q-190 33 -316 181.5t-126 353.5z" />
<glyph unicode="&#xa3;" horiz-adv-x="1339" d="M180 0v213q106 20 137 96t19 230l-8 86h-140v180h123l-18 199q-18 186 114 320t328 138q160 4 307.5 -91t198.5 -302l-192 -53q-78 256 -306 246q-111 -4 -173 -83t-52 -194l17 -180h448v-180h-432l8 -82q23 -268 -96 -336l2 -2h10q10 0 29.5 1t45 2t60.5 2t71 2t80 1h87 h405v-213h-1073z" />
<glyph unicode="&#xa4;" horiz-adv-x="1349" d="M90 231l146 144q-106 141 -107 321q0 178 111 326l-144 143l115 115l145 -143q141 104 318 104q174 0 321 -104l144 143l114 -115l-143 -143q111 -143 111 -326q0 -178 -105 -319l144 -146l-115 -114l-144 145q-145 -113 -327 -112q-180 0 -326 110l-143 -143zM334 698.5 q0 -147.5 98 -246t242 -98.5q145 0 244.5 98.5t99.5 246t-99.5 246.5t-244.5 99q-141 0 -240.5 -99t-99.5 -246.5z" />
<glyph unicode="&#xa5;" horiz-adv-x="1388" d="M29 1434h256l325 -441q14 -18 37 -49t35 -47l12 -14h2q2 0 82 110l326 441h256l-387 -529h250v-155h-365l-51 -70v-4h416v-154h-416v-522h-225v522h-406v154h406v4l-52 70h-354v155h240z" />
<glyph unicode="&#xa6;" horiz-adv-x="544" d="M180 -152v594h182v-594h-182zM180 1014v573h182v-573h-182z" />
<glyph unicode="&#xa7;" horiz-adv-x="1083" d="M61 272l187 50q20 -86 99 -144.5t206 -58.5q115 0 183.5 43t68.5 108q0 27 -10.5 48.5t-33 38t-44 29.5t-60.5 25.5t-66.5 19.5t-75.5 19.5t-75 20.5q-63 18 -94 27.5t-88 35t-87 51t-54.5 68.5t-24.5 95q0 154 197 223q-170 76 -170 215q0 119 123 199.5t307 80.5 q164 0 284.5 -72.5t155.5 -191.5l-184 -51q-18 80 -92 124t-174 44q-98 0 -159 -34t-61 -91q0 -20 8.5 -37.5t26 -31t36 -23.5t50 -19.5t54 -15.5t63.5 -16.5t64 -16.5q80 -20 135 -40.5t118.5 -55.5t97.5 -87t34 -118q0 -156 -191 -211q197 -88 197 -246q0 -135 -128 -222 t-337 -87q-193 0 -318 83t-168 222zM285 758q0 -23 9 -40.5t29.5 -31.5t39 -24.5t54.5 -21.5t59.5 -17.5t68.5 -16.5t67 -16q6 -2 17.5 -5t17.5 -5q76 14 121 51t45 92q0 27 -8 47.5t-30.5 37.5t-39 28.5t-56.5 23.5t-58.5 17.5t-69.5 16.5t-68 15q-80 -10 -139 -49 t-59 -102z" />
<glyph unicode="&#xa8;" horiz-adv-x="843" d="M33 1686q0 47 33.5 80.5t83 33.5t83 -33.5t33.5 -80.5q0 -49 -33.5 -83t-83 -34t-83 34t-33.5 83zM539 1686q0 47 33.5 80.5t83 33.5t83 -33.5t33.5 -80.5q0 -49 -33.5 -83t-83 -34t-83 34t-33.5 83z" />
<glyph unicode="&#xa9;" d="M84 716.5q0 321.5 216 533.5t527 212q313 0 529.5 -212t216.5 -533.5t-216 -533.5t-530 -212q-311 0 -527 212t-216 533.5zM256 717q0 -256 162 -420t409.5 -164t410.5 164t163 420q0 260 -163 423t-411 163q-250 0 -410.5 -163t-160.5 -423zM477 716.5 q0 153.5 102.5 256t251.5 102.5q102 0 191.5 -55t130.5 -141l-133 -39q-63 100 -189 100q-94 0 -153.5 -61.5t-59.5 -162t59.5 -162.5t153.5 -62q137 0 197 120l135 -39q-37 -94 -130 -154.5t-202 -60.5q-150 0 -252 102.5t-102 256z" />
<glyph unicode="&#xaa;" horiz-adv-x="733" d="M41 494v143h651v-143h-651zM43 768l260 682h125l260 -682h-147l-49 141h-252l-50 -141h-147zM281 1020h170l-45 129q-10 35 -19.5 76t-13.5 63l-6 23h-2l-5 -23q-6 -23 -15 -63.5t-19 -75.5z" />
<glyph unicode="&#xab;" horiz-adv-x="1568" d="M182 721l482 -481l127 127l-367 354l364 354l-124 125zM780 721l482 -481l127 127l-367 354l364 354l-124 125z" />
<glyph unicode="&#xad;" horiz-adv-x="1302" d="M180 633v188h942v-188h-942z" />
<glyph unicode="&#xae;" d="M84 716.5q0 321.5 216 533.5t527 212q313 0 529.5 -212t216.5 -533.5t-216 -533.5t-530 -212q-311 0 -527 212t-216 533.5zM256 717q0 -256 162 -420t409.5 -164t410.5 164t163 420q0 260 -163 423t-411 163q-250 0 -410.5 -163t-160.5 -423zM592 360v715h239 q127 0 201 -61.5t74 -167.5q0 -152 -137 -203l170 -283h-142l-153 261h-13h-106v-261h-133zM725 731h121q129 0 129 111q0 51 -34 81.5t-95 30.5h-121v-223z" />
<glyph unicode="&#xaf;" horiz-adv-x="731" d="M8 1399v174h676v-174h-676z" />
<glyph unicode="&#xb0;" horiz-adv-x="630" d="M63 1442q0 104 74 178t178.5 74t178 -74t73.5 -178q0 -102 -73.5 -177t-178 -75t-178.5 75t-74 177zM199 1444q0 -47 34.5 -82t81.5 -35q49 0 84 35t35 82q0 49 -34.5 83t-84.5 34q-47 0 -81.5 -34t-34.5 -83z" />
<glyph unicode="&#xb1;" horiz-adv-x="1429" d="M246 -20v188h940v-188h-940zM246 633v188h368v373h201v-373h371v-188h-369v-291h-201v291h-370z" />
<glyph unicode="&#xb2;" horiz-adv-x="681" d="M41 1532q27 111 108.5 180.5t196.5 69.5q123 0 206 -78t83 -188q0 -131 -139 -248q-59 -49 -140 -109q-27 -18 -55.5 -35.5t-42.5 -25.5l-16 -8l2 -3l30 3q31 4 81.5 8t97.5 4h176v-133h-578v102l303 248q131 104 131 194q0 55 -41 91t-100 36q-123 0 -166 -145z" />
<glyph unicode="&#xb3;" horiz-adv-x="690" d="M41 1192l133 37q8 -68 55 -108t123 -40q70 0 109 36t39 89q0 51 -43 84t-109 33h-78v111h78q61 0 100 32.5t39 81.5q0 41 -35.5 73t-101.5 32q-131 0 -166 -137l-129 34q20 104 100.5 168t196.5 64q133 0 207 -64.5t74 -161.5q0 -76 -53.5 -124t-118.5 -52v-2 q76 -4 129 -50t53 -126q0 -111 -83 -180.5t-208 -69.5q-117 0 -206 68t-105 172z" />
<glyph unicode="&#xb4;" horiz-adv-x="638" d="M33 1628l454 244l80 -156l-467 -213z" />
<glyph unicode="&#xb6;" horiz-adv-x="1445" d="M84 1042.5q0 184.5 126 288t351 103.5h705v-1434h-228v1221h-172v-1221h-215v651h-90q-225 0 -351 103.5t-126 288z" />
<glyph unicode="&#xb7;" horiz-adv-x="487" d="M123 717q0 49 35 84t86 35t86 -35t35 -84q0 -51 -35 -87t-86 -36t-86 36t-35 87z" />
<glyph unicode="&#xb8;" horiz-adv-x="512" d="M33 -508l49 125h133q45 0 70.5 21.5t25.5 54.5q0 35 -26.5 57.5t-69.5 22.5h-160l80 227h131l-39 -106q92 2 153.5 -52.5t61.5 -146.5q0 -98 -63.5 -150.5t-163.5 -52.5h-182z" />
<glyph unicode="&#xb9;" horiz-adv-x="483" d="M25 1505l280 260h107v-796h-152v438q0 18 1 42t3 44t3 38.5t3 29.5v12h-2l-8 -12q-8 -10 -24.5 -30t-34.5 -36l-80 -76z" />
<glyph unicode="&#xba;" horiz-adv-x="747" d="M20 1105.5q0 151.5 102.5 253t250.5 101.5q150 0 252 -101.5t102 -253t-102.5 -251.5t-251.5 -100q-147 0 -250 100t-103 251.5zM41 494v143h668v-143h-668zM164 1106q0 -94 59.5 -154.5t149.5 -60.5t150.5 60.5t60.5 154.5t-60.5 155.5t-150.5 61.5t-149.5 -61.5 t-59.5 -155.5z" />
<glyph unicode="&#xbb;" horiz-adv-x="1568" d="M180 367l367 354l-365 354l125 125l481 -479l-481 -481zM778 367l367 354l-365 354l125 125l481 -479l-481 -481z" />
<glyph unicode="&#xbc;" horiz-adv-x="1431" d="M25 1174l280 260h107v-797h-152v438q0 18 1 42t3 44.5t3 39t3 28.5v12h-2l-8 -12q-8 -10 -24.5 -29.5t-34.5 -36.5l-80 -76zM125 0l995 1434h154l-993 -1434h-156zM741 172v104l433 521h112v-496h98v-129h-98v-172h-137v172h-408zM895 295l2 -2h8q6 0 17.5 1t25 2t31.5 1 h37h133v156v43q0 23 1 39t2 29.5t1 21.5v6h-2l-12 -19q-12 -16 -34 -43.5t-38 -48.5l-102 -116q-14 -16 -32 -34l-28 -28z" />
<glyph unicode="&#xbd;" horiz-adv-x="1505" d="M25 1174l280 260h107v-797h-152v438q0 18 1 42t3 44.5t3 39t3 28.5v12h-2l-8 -12q-8 -10 -24.5 -29.5t-34.5 -36.5l-80 -76zM125 0l995 1434h154l-993 -1434h-156zM864 563q27 111 109 180.5t196 69.5q123 0 206 -78t83 -188q0 -131 -139 -248q-59 -49 -139 -109 q-27 -18 -55.5 -35.5t-43.5 -25.5l-16 -8l2 -2l31 4q31 4 81 7t97 3h176v-133h-578v102l304 248q131 104 131 195q0 55 -41 91t-101 36q-123 0 -166 -146z" />
<glyph unicode="&#xbe;" horiz-adv-x="1570" d="M41 860l133 37q8 -68 55 -107.5t123 -39.5q70 0 109 35.5t39 88.5q0 51 -43 84t-109 33h-78v111h78q61 0 100 32.5t39 82.5q0 41 -35.5 72.5t-101.5 31.5q-131 0 -166 -137l-129 35q20 104 100.5 167.5t196.5 63.5q133 0 207 -64.5t74 -160.5q0 -76 -53.5 -124 t-118.5 -52v-2q76 -4 129 -50.5t53 -126.5q0 -111 -83 -180t-208 -69q-117 0 -206 67.5t-105 171.5zM266 0l996 1434h153l-993 -1434h-156zM883 172v104l432 521h112v-496h99v-129h-99v-172h-137v172h-407zM1036 295l2 -2h6q8 0 19.5 1t25 2t31.5 1h37h133v156v43q0 23 1 39 t2 29.5t1 21.5v6h-2l-12 -19q-12 -16 -33.5 -43.5t-38.5 -48.5l-102 -116q-14 -16 -32 -34l-27 -28z" />
<glyph unicode="&#xbf;" horiz-adv-x="1185" d="M84 379q0 90 33 160.5t100.5 126t125.5 89t155 79.5v141h227v-225q-236 -117 -321 -190t-85 -167q0 -86 62.5 -153.5t204.5 -67.5q254 0 325 244l191 -54q-43 -182 -182.5 -286.5t-341.5 -104.5q-240 0 -367 117t-127 291zM498 1112v322h227v-322h-227z" />
<glyph unicode="&#xc0;" horiz-adv-x="1472" d="M25 0l606 1434h211l606 -1434h-244l-133 326h-670l-133 -326h-243zM379 1716l80 156l456 -244l-69 -125zM483 524h506l-184 449q-12 33 -29.5 81t-27.5 76l-11 29h-2l-10 -29q-10 -29 -27.5 -76.5t-29.5 -80.5z" />
<glyph unicode="&#xc1;" horiz-adv-x="1472" d="M25 0l606 1434h211l606 -1434h-244l-133 326h-670l-133 -326h-243zM483 524h506l-184 449q-12 33 -29.5 81t-27.5 76l-11 29h-2l-10 -29q-10 -29 -27.5 -76.5t-29.5 -80.5zM516 1628l457 244l80 -156l-467 -213z" />
<glyph unicode="&#xc2;" horiz-adv-x="1472" d="M25 0l606 1434h211l606 -1434h-244l-133 326h-670l-133 -326h-243zM367 1624l362 305l363 -305l-113 -115l-250 209l-250 -209zM483 524h506l-184 449q-12 33 -29.5 81t-27.5 76l-11 29h-2l-10 -29q-10 -29 -27.5 -76.5t-29.5 -80.5z" />
<glyph unicode="&#xc3;" horiz-adv-x="1472" d="M25 0l606 1434h211l606 -1434h-244l-133 326h-670l-133 -326h-243zM322 1567q0 109 72.5 178.5t185.5 69.5q76 0 163.5 -60.5t126.5 -60.5q41 0 69 26.5t28 67.5h180q0 -109 -73 -178.5t-185 -69.5q-72 0 -161 59.5t-130 59.5q-43 0 -70.5 -25.5t-27.5 -66.5h-178z M483 524h506l-184 449q-12 33 -29.5 81t-27.5 76l-11 29h-2l-10 -29q-10 -29 -27.5 -76.5t-29.5 -80.5z" />
<glyph unicode="&#xc4;" horiz-adv-x="1472" d="M25 0l606 1434h211l606 -1434h-244l-133 326h-670l-133 -326h-243zM358 1686q0 47 34 80.5t85 33.5q47 0 81 -33.5t34 -80.5q0 -49 -34 -83t-81 -34q-51 0 -85 34t-34 83zM483 524h506l-184 449q-12 33 -29.5 81t-27.5 76l-11 29h-2l-10 -29q-10 -29 -27.5 -76.5 t-29.5 -80.5zM864 1686q0 47 34 80.5t83 33.5t83 -33.5t34 -80.5q0 -49 -34 -83t-83 -34t-83 34t-34 83z" />
<glyph unicode="&#xc5;" horiz-adv-x="1472" d="M25 0l604 1427q-66 31 -106 92.5t-40 135.5q0 104 74 178t178 74q102 0 177 -74t75 -178q0 -72 -40 -133.5t-103 -91.5l604 -1430h-244l-133 326h-670l-133 -326h-243zM483 524h506l-184 449q-12 33 -29.5 81t-27.5 76l-11 29h-2l-10 -29q-10 -29 -27.5 -76.5 t-29.5 -80.5zM618 1657q0 -45 35 -80t82 -35q49 0 84 34t35 81q0 49 -35 83t-84 34q-47 0 -82 -34t-35 -83z" />
<glyph unicode="&#xc6;" horiz-adv-x="2052" d="M25 0l618 1434h1262v-213h-758v-373h606v-201h-606v-434h770v-213h-991v326h-518l-138 -326h-245zM489 524h437v697h-154q-2 0 -113 -287z" />
<glyph unicode="&#xc7;" horiz-adv-x="1552" d="M84 717q0 322 216 533.5t527 211.5q207 0 380 -101t272 -276l-232 -61q-63 100 -177 157.5t-243 57.5q-223 0 -366.5 -145.5t-143.5 -377t145.5 -375.5t364.5 -144q143 0 264 69.5t183 184.5l227 -62q-86 -182 -254 -293.5t-377 -122.5l-30 -79q92 2 154.5 -52.5 t62.5 -146.5q0 -98 -64.5 -150.5t-163.5 -52.5h-184l49 125h135q45 0 71 21.5t26 54.5q0 35 -27 57.5t-70 22.5h-159l71 202q-283 31 -470 238t-187 504z" />
<glyph unicode="&#xc8;" horiz-adv-x="1310" d="M180 0v1434h985v-213h-757v-373h604v-201h-604v-434h770v-213h-998zM334 1716l80 156l456 -244l-69 -125z" />
<glyph unicode="&#xc9;" horiz-adv-x="1310" d="M180 0v1434h985v-213h-757v-373h604v-201h-604v-434h770v-213h-998zM471 1628l457 244l80 -156l-467 -213z" />
<glyph unicode="&#xca;" horiz-adv-x="1310" d="M180 0v1434h985v-213h-757v-373h604v-201h-604v-434h770v-213h-998zM322 1624l362 305l363 -305l-113 -115l-250 209l-250 -209z" />
<glyph unicode="&#xcb;" horiz-adv-x="1310" d="M180 0v1434h985v-213h-757v-373h604v-201h-604v-434h770v-213h-998zM313 1686q0 47 34 80.5t85 33.5q47 0 81 -33.5t34 -80.5q0 -49 -34 -83t-81 -34q-51 0 -85 34t-34 83zM819 1686q0 47 34 80.5t83 33.5t83 -33.5t34 -80.5q0 -49 -34 -83t-83 -34t-83 34t-34 83z" />
<glyph unicode="&#xcc;" horiz-adv-x="587" d="M-63 1716l79 156l457 -244l-70 -125zM180 0v1434h228v-1434h-228z" />
<glyph unicode="&#xcd;" horiz-adv-x="587" d="M74 1628l456 244l80 -156l-467 -213zM180 0v1434h228v-1434h-228z" />
<glyph unicode="&#xce;" horiz-adv-x="587" d="M-76 1624l363 305l362 -305l-112 -115l-250 209l-250 -209zM180 0v1434h228v-1434h-228z" />
<glyph unicode="&#xcf;" horiz-adv-x="587" d="M-84 1686q0 47 34 80.5t85 33.5q47 0 81 -33.5t34 -80.5q0 -49 -34 -83t-81 -34q-51 0 -85 34t-34 83zM180 0v1434h228v-1434h-228zM422 1686q0 47 33.5 80.5t83 33.5t83 -33.5t33.5 -80.5q0 -49 -33.5 -83t-83 -34t-83 34t-33.5 83z" />
<glyph unicode="&#xd0;" horiz-adv-x="1632" d="M84 625v204h113v605h610q313 0 528 -203t215 -520q0 -313 -212 -512t-521 -199h-620v625h-113zM424 213h393q209 0 353.5 136t144.5 362q0 229 -147.5 369.5t-360.5 140.5h-383v-392h315v-204h-315v-412z" />
<glyph unicode="&#xd1;" horiz-adv-x="1572" d="M180 0v1434h213l527 -707q41 -57 105.5 -145t102.5 -142l39 -53h2l-2 59q0 57 -1 169t-1 208v611h228v-1434h-213l-523 705q-53 74 -117.5 165t-99.5 138l-34 49h-3l3 -53q0 -55 1 -171t1 -225v-608h-228zM375 1567q0 109 72.5 178.5t185.5 69.5q76 0 164 -60.5 t127 -60.5q41 0 68.5 26.5t27.5 67.5h180q0 -109 -72.5 -178.5t-185.5 -69.5q-72 0 -161 59.5t-130 59.5q-43 0 -70.5 -25.5t-27.5 -66.5h-178z" />
<glyph unicode="&#xd2;" d="M84 716.5q0 321.5 216 533.5t527 212q313 0 529.5 -212t216.5 -533.5t-216 -533.5t-530 -212q-311 0 -527 212t-216 533.5zM317 717q0 -231 143.5 -376.5t366.5 -145.5q221 0 365.5 146t144.5 376q0 233 -144 377.5t-366 144.5q-223 0 -366.5 -144.5t-143.5 -377.5z M481 1716l80 156l457 -244l-70 -125z" />
<glyph unicode="&#xd3;" d="M84 716.5q0 321.5 216 533.5t527 212q313 0 529.5 -212t216.5 -533.5t-216 -533.5t-530 -212q-311 0 -527 212t-216 533.5zM317 717q0 -231 143.5 -376.5t366.5 -145.5q221 0 365.5 146t144.5 376q0 233 -144 377.5t-366 144.5q-223 0 -366.5 -144.5t-143.5 -377.5z M618 1628l457 244l80 -156l-467 -213z" />
<glyph unicode="&#xd4;" d="M84 716.5q0 321.5 216 533.5t527 212q313 0 529.5 -212t216.5 -533.5t-216 -533.5t-530 -212q-311 0 -527 212t-216 533.5zM317 717q0 -231 143.5 -376.5t366.5 -145.5q221 0 365.5 146t144.5 376q0 233 -144 377.5t-366 144.5q-223 0 -366.5 -144.5t-143.5 -377.5z M469 1624l362 305l363 -305l-113 -115l-250 209l-249 -209z" />
<glyph unicode="&#xd5;" d="M84 716.5q0 321.5 216 533.5t527 212q313 0 529.5 -212t216.5 -533.5t-216 -533.5t-530 -212q-311 0 -527 212t-216 533.5zM317 717q0 -231 143.5 -376.5t366.5 -145.5q221 0 365.5 146t144.5 376q0 233 -144 377.5t-366 144.5q-223 0 -366.5 -144.5t-143.5 -377.5z M424 1567q0 109 72.5 178.5t185.5 69.5q76 0 164 -60.5t127 -60.5q41 0 68.5 26.5t27.5 67.5h180q0 -109 -72.5 -178.5t-185.5 -69.5q-72 0 -161 59.5t-130 59.5q-43 0 -70.5 -25.5t-27.5 -66.5h-178z" />
<glyph unicode="&#xd6;" d="M84 716.5q0 321.5 216 533.5t527 212q313 0 529.5 -212t216.5 -533.5t-216 -533.5t-530 -212q-311 0 -527 212t-216 533.5zM317 717q0 -231 143.5 -376.5t366.5 -145.5q221 0 365.5 146t144.5 376q0 233 -144 377.5t-366 144.5q-223 0 -366.5 -144.5t-143.5 -377.5z M461 1686q0 47 33.5 80.5t85.5 33.5q47 0 80.5 -33.5t33.5 -80.5q0 -49 -33.5 -83t-80.5 -34q-51 0 -85 34t-34 83zM967 1686q0 47 33.5 80.5t83 33.5t83 -33.5t33.5 -80.5q0 -49 -33.5 -83t-83 -34t-83 34t-33.5 83z" />
<glyph unicode="&#xd7;" horiz-adv-x="1429" d="M289 1001l149 150l277 -274l276 276l150 -149l-275 -277l275 -276l-150 -152l-276 276l-275 -274l-149 152l274 274z" />
<glyph unicode="&#xd8;" d="M84 716.5q0 321.5 216 533.5t527 212q201 0 375 -96l78 100l160 -118l-78 -103q211 -215 211 -528q0 -322 -216 -534t-530 -212q-199 0 -366 92l-76 -100l-160 123l74 98q-215 211 -215 532.5zM317 717q0 -209 121 -352l627 821q-106 53 -238 53q-223 0 -366.5 -144.5 t-143.5 -377.5zM598 244q102 -49 229 -49q221 0 365.5 146t144.5 376q0 203 -114 346z" />
<glyph unicode="&#xd9;" horiz-adv-x="1497" d="M145 608v826h228v-824q0 -428 375 -428q379 0 378 428v824h226v-826q0 -307 -160 -472t-444.5 -165t-443.5 165t-159 472zM397 1716l80 156l457 -244l-70 -125z" />
<glyph unicode="&#xda;" horiz-adv-x="1497" d="M145 608v826h228v-824q0 -428 375 -428q379 0 378 428v824h226v-826q0 -307 -160 -472t-444.5 -165t-443.5 165t-159 472zM535 1628l456 244l80 -156l-467 -213z" />
<glyph unicode="&#xdb;" horiz-adv-x="1497" d="M145 608v826h228v-824q0 -428 375 -428q379 0 378 428v824h226v-826q0 -307 -160 -472t-444.5 -165t-443.5 165t-159 472zM385 1624l363 305l362 -305l-113 -115l-249 209l-250 -209z" />
<glyph unicode="&#xdc;" horiz-adv-x="1497" d="M145 608v826h228v-824q0 -428 375 -428q379 0 378 428v824h226v-826q0 -307 -160 -472t-444.5 -165t-443.5 165t-159 472zM377 1686q0 47 33.5 80.5t85.5 33.5q47 0 80.5 -33.5t33.5 -80.5q0 -49 -33.5 -83t-80.5 -34q-51 0 -85 34t-34 83zM883 1686q0 47 33.5 80.5 t83 33.5t83 -33.5t33.5 -80.5q0 -49 -33.5 -83t-83 -34t-83 34t-33.5 83z" />
<glyph unicode="&#xdd;" horiz-adv-x="1388" d="M29 1434h256l325 -441q14 -18 37 -49t35 -47l12 -14h2q2 0 82 110l326 441h256l-553 -754v-680h-225v680zM475 1628l457 244l80 -156l-467 -213z" />
<glyph unicode="&#xde;" horiz-adv-x="1271" d="M180 0v1434h228v-248h274q227 0 368.5 -131t141.5 -336t-141.5 -336t-368.5 -131h-274v-252h-228zM408 465h278q123 0 196.5 70.5t73.5 183.5q0 115 -73.5 185.5t-196.5 70.5h-278v-510z" />
<glyph unicode="&#xdf;" horiz-adv-x="1617" d="M180 0v1434h1215l-228 -422q-14 -27 -40.5 -75t-41.5 -77l-16 -29l2 -2h10q197 0 325 -118.5t128 -296.5q0 -190 -134 -316.5t-353 -126.5q-160 0 -292 77t-200 204l215 59q90 -145 268 -145q125 0 197 70.5t72 179.5q0 102 -72 172.5t-203 70.5h-180v170l129 246 q12 25 32.5 63t35.5 62l12 23l-2 2h-8q-8 0 -21.5 -1t-31 -2t-40.5 -1h-45h-505v-1221h-228z" />
<glyph unicode="&#xe0;" horiz-adv-x="1472" d="M25 0l606 1434h211l606 -1434h-244l-133 326h-670l-133 -326h-243zM379 1716l80 156l456 -244l-69 -125zM483 524h506l-184 449q-12 33 -29.5 81t-27.5 76l-11 29h-2l-10 -29q-10 -29 -27.5 -76.5t-29.5 -80.5z" />
<glyph unicode="&#xe1;" horiz-adv-x="1472" d="M25 0l606 1434h211l606 -1434h-244l-133 326h-670l-133 -326h-243zM483 524h506l-184 449q-12 33 -29.5 81t-27.5 76l-11 29h-2l-10 -29q-10 -29 -27.5 -76.5t-29.5 -80.5zM516 1628l457 244l80 -156l-467 -213z" />
<glyph unicode="&#xe2;" horiz-adv-x="1472" d="M25 0l606 1434h211l606 -1434h-244l-133 326h-670l-133 -326h-243zM367 1624l362 305l363 -305l-113 -115l-250 209l-250 -209zM483 524h506l-184 449q-12 33 -29.5 81t-27.5 76l-11 29h-2l-10 -29q-10 -29 -27.5 -76.5t-29.5 -80.5z" />
<glyph unicode="&#xe3;" horiz-adv-x="1472" d="M25 0l606 1434h211l606 -1434h-244l-133 326h-670l-133 -326h-243zM322 1567q0 109 72.5 178.5t185.5 69.5q76 0 163.5 -60.5t126.5 -60.5q41 0 69 26.5t28 67.5h180q0 -109 -73 -178.5t-185 -69.5q-72 0 -161 59.5t-130 59.5q-43 0 -70.5 -25.5t-27.5 -66.5h-178z M483 524h506l-184 449q-12 33 -29.5 81t-27.5 76l-11 29h-2l-10 -29q-10 -29 -27.5 -76.5t-29.5 -80.5z" />
<glyph unicode="&#xe4;" horiz-adv-x="1472" d="M25 0l606 1434h211l606 -1434h-244l-133 326h-670l-133 -326h-243zM358 1686q0 47 34 80.5t85 33.5q47 0 81 -33.5t34 -80.5q0 -49 -34 -83t-81 -34q-51 0 -85 34t-34 83zM483 524h506l-184 449q-12 33 -29.5 81t-27.5 76l-11 29h-2l-10 -29q-10 -29 -27.5 -76.5 t-29.5 -80.5zM864 1686q0 47 34 80.5t83 33.5t83 -33.5t34 -80.5q0 -49 -34 -83t-83 -34t-83 34t-34 83z" />
<glyph unicode="&#xe5;" horiz-adv-x="1472" d="M25 0l604 1427q-66 31 -106 92.5t-40 135.5q0 104 74 178t178 74q102 0 177 -74t75 -178q0 -72 -40 -133.5t-103 -91.5l604 -1430h-244l-133 326h-670l-133 -326h-243zM483 524h506l-184 449q-12 33 -29.5 81t-27.5 76l-11 29h-2l-10 -29q-10 -29 -27.5 -76.5 t-29.5 -80.5zM618 1657q0 -45 35 -80t82 -35q49 0 84 34t35 81q0 49 -35 83t-84 34q-47 0 -82 -34t-35 -83z" />
<glyph unicode="&#xe6;" horiz-adv-x="2052" d="M25 0l618 1434h1262v-213h-758v-373h606v-201h-606v-434h770v-213h-991v326h-518l-138 -326h-245zM489 524h437v697h-154q-2 0 -113 -287z" />
<glyph unicode="&#xe7;" horiz-adv-x="1552" d="M84 717q0 322 216 533.5t527 211.5q207 0 380 -101t272 -276l-232 -61q-63 100 -177 157.5t-243 57.5q-223 0 -366.5 -145.5t-143.5 -377t145.5 -375.5t364.5 -144q143 0 264 69.5t183 184.5l227 -62q-86 -182 -254 -293.5t-377 -122.5l-30 -79q92 2 154.5 -52.5 t62.5 -146.5q0 -98 -64.5 -150.5t-163.5 -52.5h-184l49 125h135q45 0 71 21.5t26 54.5q0 35 -27 57.5t-70 22.5h-159l71 202q-283 31 -470 238t-187 504z" />
<glyph unicode="&#xe8;" horiz-adv-x="1310" d="M180 0v1434h985v-213h-757v-373h604v-201h-604v-434h770v-213h-998zM330 1716l80 156l456 -244l-69 -125z" />
<glyph unicode="&#xe9;" horiz-adv-x="1310" d="M180 0v1434h985v-213h-757v-373h604v-201h-604v-434h770v-213h-998zM467 1628l457 244l80 -156l-467 -213z" />
<glyph unicode="&#xea;" horiz-adv-x="1310" d="M180 0v1434h985v-213h-757v-373h604v-201h-604v-434h770v-213h-998zM317 1624l363 305l362 -305l-112 -115l-250 209l-250 -209z" />
<glyph unicode="&#xeb;" horiz-adv-x="1310" d="M180 0v1434h985v-213h-757v-373h604v-201h-604v-434h770v-213h-998zM309 1686q0 47 34 80.5t85 33.5q47 0 81 -33.5t34 -80.5q0 -49 -34 -83t-81 -34q-51 0 -85 34t-34 83zM815 1686q0 47 34 80.5t83 33.5t83 -33.5t34 -80.5q0 -49 -34 -83t-83 -34t-83 34t-34 83z" />
<glyph unicode="&#xec;" horiz-adv-x="587" d="M-61 1716l79 156l457 -244l-69 -125zM180 0v1434h228v-1434h-228z" />
<glyph unicode="&#xed;" horiz-adv-x="587" d="M76 1628l456 244l80 -156l-467 -213zM180 0v1434h228v-1434h-228z" />
<glyph unicode="&#xee;" horiz-adv-x="587" d="M-74 1624l363 305l362 -305l-112 -115l-250 209l-250 -209zM180 0v1434h228v-1434h-228z" />
<glyph unicode="&#xef;" horiz-adv-x="587" d="M-82 1686q0 47 34 80.5t85 33.5q47 0 81 -33.5t34 -80.5q0 -49 -34 -83t-81 -34q-51 0 -85 34t-34 83zM180 0v1434h228v-1434h-228zM424 1686q0 47 34 80.5t83 33.5t82.5 -33.5t33.5 -80.5q0 -49 -33.5 -83t-82.5 -34t-83 34t-34 83z" />
<glyph unicode="&#xf0;" horiz-adv-x="1632" d="M84 625v204h113v605h610q313 0 528 -203t215 -520q0 -313 -212 -512t-521 -199h-620v625h-113zM424 213h393q209 0 353.5 136t144.5 362q0 229 -147.5 369.5t-360.5 140.5h-383v-392h315v-204h-315v-412z" />
<glyph unicode="&#xf1;" horiz-adv-x="1572" d="M180 0v1434h213l527 -707q41 -57 105.5 -145t102.5 -142l39 -53h2l-2 59q0 57 -1 169t-1 208v611h228v-1434h-213l-523 705q-53 74 -117.5 165t-99.5 138l-34 49h-3l3 -53q0 -55 1 -171t1 -225v-608h-228zM375 1567q0 109 72.5 178.5t185.5 69.5q76 0 164 -60.5 t127 -60.5q41 0 68.5 26.5t27.5 67.5h180q0 -109 -72.5 -178.5t-185.5 -69.5q-72 0 -161 59.5t-130 59.5q-43 0 -70.5 -25.5t-27.5 -66.5h-178z" />
<glyph unicode="&#xf2;" d="M84 716.5q0 321.5 216 533.5t527 212q313 0 529.5 -212t216.5 -533.5t-216 -533.5t-530 -212q-311 0 -527 212t-216 533.5zM317 717q0 -231 143.5 -376.5t366.5 -145.5q221 0 365.5 146t144.5 376q0 233 -144 377.5t-366 144.5q-223 0 -366.5 -144.5t-143.5 -377.5z M477 1716l80 156l457 -244l-70 -125z" />
<glyph unicode="&#xf3;" d="M84 716.5q0 321.5 216 533.5t527 212q313 0 529.5 -212t216.5 -533.5t-216 -533.5t-530 -212q-311 0 -527 212t-216 533.5zM317 717q0 -231 143.5 -376.5t366.5 -145.5q221 0 365.5 146t144.5 376q0 233 -144 377.5t-366 144.5q-223 0 -366.5 -144.5t-143.5 -377.5z M614 1628l457 244l80 -156l-467 -213z" />
<glyph unicode="&#xf4;" d="M84 716.5q0 321.5 216 533.5t527 212q313 0 529.5 -212t216.5 -533.5t-216 -533.5t-530 -212q-311 0 -527 212t-216 533.5zM317 717q0 -231 143.5 -376.5t366.5 -145.5q221 0 365.5 146t144.5 376q0 233 -144 377.5t-366 144.5q-223 0 -366.5 -144.5t-143.5 -377.5z M465 1624l362 305l363 -305l-113 -115l-250 209l-249 -209z" />
<glyph unicode="&#xf5;" d="M84 716.5q0 321.5 216 533.5t527 212q313 0 529.5 -212t216.5 -533.5t-216 -533.5t-530 -212q-311 0 -527 212t-216 533.5zM317 717q0 -231 143.5 -376.5t366.5 -145.5q221 0 365.5 146t144.5 376q0 233 -144 377.5t-366 144.5q-223 0 -366.5 -144.5t-143.5 -377.5z M420 1567q0 109 72.5 178.5t185.5 69.5q76 0 164 -60.5t127 -60.5q41 0 68.5 26.5t27.5 67.5h180q0 -109 -72.5 -178.5t-185.5 -69.5q-72 0 -161 59.5t-130 59.5q-43 0 -70.5 -25.5t-27.5 -66.5h-178z" />
<glyph unicode="&#xf6;" d="M84 716.5q0 321.5 216 533.5t527 212q313 0 529.5 -212t216.5 -533.5t-216 -533.5t-530 -212q-311 0 -527 212t-216 533.5zM317 717q0 -231 143.5 -376.5t366.5 -145.5q221 0 365.5 146t144.5 376q0 233 -144 377.5t-366 144.5q-223 0 -366.5 -144.5t-143.5 -377.5z M457 1686q0 47 33.5 80.5t84.5 33.5q47 0 81 -33.5t34 -80.5q0 -49 -33.5 -83t-81.5 -34q-51 0 -84.5 34t-33.5 83zM963 1686q0 47 33.5 80.5t82.5 33.5t83 -33.5t34 -80.5q0 -49 -34 -83t-83 -34t-82.5 34t-33.5 83z" />
<glyph unicode="&#xf7;" horiz-adv-x="1429" d="M242 633v188h940v-188h-940zM580 274q0 49 34.5 84t86 35t86 -34.5t34.5 -84.5q0 -51 -34.5 -86.5t-86 -35.5t-86 35.5t-34.5 86.5zM580 1186q0 49 34.5 84t86 35t86 -35t34.5 -84q0 -51 -34.5 -87t-86 -36t-86 36t-34.5 87z" />
<glyph unicode="&#xf8;" d="M84 716.5q0 321.5 216 533.5t527 212q201 0 375 -96l78 100l160 -118l-78 -103q211 -215 211 -528q0 -322 -216 -534t-530 -212q-199 0 -366 92l-76 -100l-160 123l74 98q-215 211 -215 532.5zM317 717q0 -209 121 -352l627 821q-106 53 -238 53q-223 0 -366.5 -144.5 t-143.5 -377.5zM598 244q102 -49 229 -49q221 0 365.5 146t144.5 376q0 203 -114 346z" />
<glyph unicode="&#xf9;" horiz-adv-x="1497" d="M145 608v826h228v-824q0 -428 375 -428q379 0 378 428v824h226v-826q0 -307 -160 -472t-444.5 -165t-443.5 165t-159 472zM397 1716l80 156l457 -244l-70 -125z" />
<glyph unicode="&#xfa;" horiz-adv-x="1497" d="M145 608v826h228v-824q0 -428 375 -428q379 0 378 428v824h226v-826q0 -307 -160 -472t-444.5 -165t-443.5 165t-159 472zM535 1628l456 244l80 -156l-467 -213z" />
<glyph unicode="&#xfb;" horiz-adv-x="1497" d="M145 608v826h228v-824q0 -428 375 -428q379 0 378 428v824h226v-826q0 -307 -160 -472t-444.5 -165t-443.5 165t-159 472zM385 1624l363 305l362 -305l-113 -115l-249 209l-250 -209z" />
<glyph unicode="&#xfc;" horiz-adv-x="1497" d="M145 608v826h228v-824q0 -428 375 -428q379 0 378 428v824h226v-826q0 -307 -160 -472t-444.5 -165t-443.5 165t-159 472zM377 1686q0 47 33.5 80.5t85.5 33.5q47 0 80.5 -33.5t33.5 -80.5q0 -49 -33.5 -83t-80.5 -34q-51 0 -85 34t-34 83zM883 1686q0 47 33.5 80.5 t83 33.5t83 -33.5t33.5 -80.5q0 -49 -33.5 -83t-83 -34t-83 34t-33.5 83z" />
<glyph unicode="&#xfd;" horiz-adv-x="1388" d="M29 1434h256l325 -441q14 -18 37 -49t35 -47l12 -14h2q2 0 82 110l326 441h256l-553 -754v-680h-225v680zM477 1628l457 244l80 -156l-467 -213z" />
<glyph unicode="&#xfe;" horiz-adv-x="1271" d="M180 0v1434h228v-248h274q227 0 368.5 -131t141.5 -336t-141.5 -336t-368.5 -131h-274v-252h-228zM408 465h278q123 0 196.5 70.5t73.5 183.5q0 115 -73.5 185.5t-196.5 70.5h-278v-510z" />
<glyph unicode="&#xff;" horiz-adv-x="1388" d="M29 1434h256l325 -441q14 -18 37 -49t35 -47l12 -14h2q2 0 82 110l326 441h256l-553 -754v-680h-225v680zM319 1686q0 47 34 80.5t85 33.5q47 0 81 -33.5t34 -80.5q0 -49 -34 -83t-81 -34q-51 0 -85 34t-34 83zM825 1686q0 47 34 80.5t83 33.5t83 -33.5t34 -80.5 q0 -49 -34 -83t-83 -34t-83 34t-34 83z" />
<glyph unicode="&#x152;" horiz-adv-x="2097" d="M84 716.5q0 317.5 207 521.5t516 204q113 0 166 -8h977v-213h-758v-373h604v-201h-604v-434h770v-213h-989q-72 -8 -166 -8q-309 0 -516 203.5t-207 521zM317 717q0 -227 135.5 -364.5t354.5 -137.5q96 0 166 29v946q-63 29 -166 29q-219 0 -354.5 -136.5t-135.5 -365.5z " />
<glyph unicode="&#x153;" horiz-adv-x="2097" d="M84 716.5q0 317.5 207 521.5t516 204q113 0 166 -8h977v-213h-758v-373h604v-201h-604v-434h770v-213h-989q-72 -8 -166 -8q-309 0 -516 203.5t-207 521zM317 717q0 -227 135.5 -364.5t354.5 -137.5q96 0 166 29v946q-63 29 -166 29q-219 0 -354.5 -136.5t-135.5 -365.5z " />
<glyph unicode="&#x178;" horiz-adv-x="1388" d="M29 1434h256l325 -441q14 -18 37 -49t35 -47l12 -14h2q2 0 82 110l326 441h256l-553 -754v-680h-225v680zM317 1686q0 47 34 80.5t85 33.5q47 0 81 -33.5t34 -80.5q0 -49 -34 -83t-81 -34q-51 0 -85 34t-34 83zM823 1686q0 47 34 80.5t83 33.5t83 -33.5t34 -80.5 q0 -49 -34 -83t-83 -34t-83 34t-34 83z" />
<glyph unicode="&#x2c6;" horiz-adv-x="776" d="M6 1624l363 305l360 -305l-111 -115l-249 209l-250 -209z" />
<glyph unicode="&#x2dc;" horiz-adv-x="927" d="M33 1567q0 109 72.5 178.5t185.5 69.5q76 0 164 -60.5t125 -60.5q43 0 69.5 26.5t28.5 67.5h178q2 -109 -71.5 -178.5t-186.5 -69.5q-70 0 -159 59.5t-132 59.5q-41 0 -68.5 -26.5t-27.5 -65.5h-178z" />
<glyph unicode="&#x2000;" horiz-adv-x="964" />
<glyph unicode="&#x2001;" horiz-adv-x="1929" />
<glyph unicode="&#x2002;" horiz-adv-x="964" />
<glyph unicode="&#x2003;" horiz-adv-x="1929" />
<glyph unicode="&#x2004;" horiz-adv-x="643" />
<glyph unicode="&#x2005;" horiz-adv-x="481" />
<glyph unicode="&#x2006;" horiz-adv-x="321" />
<glyph unicode="&#x2007;" horiz-adv-x="321" />
<glyph unicode="&#x2008;" horiz-adv-x="239" />
<glyph unicode="&#x2009;" horiz-adv-x="385" />
<glyph unicode="&#x200a;" horiz-adv-x="106" />
<glyph unicode="&#x2010;" horiz-adv-x="1302" d="M180 633v188h942v-188h-942z" />
<glyph unicode="&#x2011;" horiz-adv-x="1302" d="M180 633v188h942v-188h-942z" />
<glyph unicode="&#x2012;" horiz-adv-x="1302" d="M180 633v188h942v-188h-942z" />
<glyph unicode="&#x2013;" horiz-adv-x="1220" d="M180 621v210h860v-210h-860z" />
<glyph unicode="&#x2014;" horiz-adv-x="2099" d="M180 621v210h1739v-210h-1739z" />
<glyph unicode="&#x2018;" horiz-adv-x="636" d="M180 1112q0 90 53.5 184.5t131.5 163.5h90q-49 -39 -89 -112.5t-40 -130.5l-23 -11l23 -2q39 -2 69.5 -32.5t30.5 -79.5q0 -51 -36 -86t-89 -35q-51 0 -86 40t-35 101z" />
<glyph unicode="&#x2019;" horiz-adv-x="636" d="M180 971q49 41 89 114.5t40 128.5l25 11l-25 2q-37 2 -67.5 32.5t-30.5 79.5q0 51 36 86t87 35t86 -40t35 -101q0 -90 -53.5 -184.5t-131.5 -163.5h-90z" />
<glyph unicode="&#x201a;" horiz-adv-x="636" d="M180 -270q49 41 89 114.5t40 128.5l25 11l-25 2q-37 2 -67.5 32.5t-30.5 79.5q0 51 36 86t87 35t86 -40t35 -101q0 -90 -53.5 -184.5t-131.5 -163.5h-90z" />
<glyph unicode="&#x201c;" horiz-adv-x="1044" d="M180 1112q0 90 53.5 184.5t131.5 163.5h90q-49 -39 -89 -112.5t-40 -130.5l-23 -11l23 -2q39 -2 69.5 -32.5t30.5 -79.5q0 -51 -36 -86t-89 -35q-51 0 -86 40t-35 101zM588 1112q0 90 53 184.5t131 163.5h90q-49 -39 -89 -112.5t-40 -130.5l-22 -11l22 -2q39 -2 70 -32.5 t31 -79.5q0 -51 -36 -86t-89 -35q-51 0 -86 40t-35 101z" />
<glyph unicode="&#x201d;" horiz-adv-x="1044" d="M180 971q49 41 89 114.5t40 128.5l25 11l-25 2q-37 2 -67.5 32.5t-30.5 79.5q0 51 36 86t87 35t86 -40t35 -101q0 -90 -53.5 -184.5t-131.5 -163.5h-90zM588 971q49 41 89 114.5t40 128.5l24 11l-24 2q-37 2 -68 32.5t-31 79.5q0 51 36 86t87.5 35t86 -40t34.5 -101 q0 -90 -53 -184.5t-131 -163.5h-90z" />
<glyph unicode="&#x201e;" horiz-adv-x="1026" d="M180 -270q49 39 89 112.5t40 130.5l25 9l-25 4q-37 2 -67.5 32.5t-30.5 79.5q0 51 36 85t87 34t86 -39t35 -100q0 -90 -53.5 -185.5t-131.5 -162.5h-90zM569 -270q49 39 89 112.5t40 130.5l25 9l-25 4q-37 2 -67.5 32.5t-30.5 79.5q0 51 36 85t87 34t86 -39t35 -100 q0 -90 -53.5 -185.5t-131.5 -162.5h-90z" />
<glyph unicode="&#x2022;" horiz-adv-x="796" d="M180 727q0 90 63.5 153.5t155.5 63.5q90 0 153.5 -63.5t63.5 -153.5t-63.5 -154.5t-153.5 -64.5q-92 0 -155.5 64.5t-63.5 154.5z" />
<glyph unicode="&#x2026;" horiz-adv-x="1531" d="M123 72q0 41 29.5 70.5t70.5 29.5t71 -29.5t30 -70.5t-30 -71t-71 -30t-70.5 30t-29.5 71zM655 72q0 41 30 70.5t71 29.5t70.5 -29.5t29.5 -70.5t-29.5 -71t-70.5 -30t-71 30t-30 71zM1208 72q0 41 30 70.5t71 29.5t70.5 -29.5t29.5 -70.5t-29.5 -71t-70.5 -30t-71 30 t-30 71z" />
<glyph unicode="&#x202f;" horiz-adv-x="385" />
<glyph unicode="&#x2039;" horiz-adv-x="970" d="M180 721l482 -481l126 127l-364 354l364 354l-124 125z" />
<glyph unicode="&#x203a;" horiz-adv-x="970" d="M180 367l367 354l-365 354l125 125l481 -479l-481 -481z" />
<glyph unicode="&#x205f;" horiz-adv-x="481" />
<glyph unicode="&#x20ac;" horiz-adv-x="1640" d="M84 524v152h94v41v39h-94v151h117q61 246 258.5 398.5t458.5 152.5q209 0 380.5 -101.5t266.5 -273.5l-230 -57q-66 98 -175 155.5t-240 57.5q-168 0 -300.5 -90t-187.5 -242h510v-151h-541q-2 -12 -2 -39t2 -41h539v-152h-506q55 -150 187.5 -237.5t298.5 -87.5 q143 0 261.5 67.5t180.5 182.5l227 -58q-90 -193 -269 -304.5t-402 -111.5q-260 0 -458 152t-259 397h-117z" />
<glyph unicode="&#x2122;" horiz-adv-x="1609" d="M37 1296v138h598v-138h-227v-528h-144v528h-227zM748 768v666h135l147 -242q20 -31 35.5 -61.5t21.5 -45.5l7 -12h2l6 12q6 14 21.5 44t35.5 61l150 244h133v-666h-139v244q0 47 2 98t4 78l2 26h-2l-11 -14q-8 -14 -26.5 -45t-36.5 -57l-107 -174h-65l-109 174 q-16 27 -35.5 58.5t-27.5 43.5l-8 14h-2v-26q2 -27 4 -79t2 -97v-244h-139z" />
<glyph unicode="&#xe000;" horiz-adv-x="1435" d="M0 1435h1435v-1435h-1435v1435z" />
<glyph unicode="&#xfb01;" horiz-adv-x="1804" d="M1397 0v1434h228v-1434h-228zM180 0v1434h965v-213h-737v-416h583v-205h-583v-600h-228z" />
<glyph unicode="&#xfb02;" horiz-adv-x="2402" d="M1397 0v1434h228v-1221h737v-213h-965zM180 0v1434h965v-213h-737v-416h583v-205h-583v-600h-228z" />
<glyph unicode="&#xfb03;" horiz-adv-x="3020" d="M2613 0v1434h228v-1434h-228zM1397 0v1434h965v-213h-737v-416h583v-205h-583v-600h-228zM180 0v1434h965v-213h-737v-416h583v-205h-583v-600h-228z" />
<glyph unicode="&#xfb04;" horiz-adv-x="3618" d="M2613 0v1434h228v-1221h737v-213h-965zM1397 0v1434h965v-213h-737v-416h583v-205h-583v-600h-228zM180 0v1434h965v-213h-737v-416h583v-205h-583v-600h-228z" />
</font>
</defs>
</svg>
