<?xml version="1.0" standalone="no"?>
<!DOCTYPE svg PUBLIC "-//W3C//DTD SVG 1.1//EN" "http://www.w3.org/Graphics/SVG/1.1/DTD/svg11.dtd" >
<svg xmlns="http://www.w3.org/2000/svg">
<metadata>
This is a custom SVG webfont generated by Font Squirrel.
Copyright   : Copyright  2011 by Jan Tonellato All rights reserved
Designer    : Jan Tonellato
Foundry     : Jan Tonellato
Foundry URL : typographysynthviewcom
</metadata>
<defs>
<font id="NovecentowideDemiBold" horiz-adv-x="1644" >
<font-face units-per-em="2048" ascent="1741" descent="-307" />
<missing-glyph horiz-adv-x="512" />
<glyph unicode=" "  horiz-adv-x="512" />
<glyph unicode="&#x09;" horiz-adv-x="512" />
<glyph unicode="&#xa0;" horiz-adv-x="512" />
<glyph unicode="!" horiz-adv-x="624" d="M170 0v322h285v-322h-285zM170 449v985h285v-985h-285z" />
<glyph unicode="&#x22;" horiz-adv-x="1120" d="M170 989v445h268v-445h-268zM682 989v445h268v-445h-268z" />
<glyph unicode="#" horiz-adv-x="1859" d="M57 303l129 246h195l170 334h-199l131 247h195l156 304h272l-150 -304h338l156 304h272l-149 -304h225l-129 -247h-219l-166 -334h219l-129 -246h-211l-149 -303h-297l155 303h-327l-150 -303h-295l156 303h-199zM668 549h329l170 334h-333z" />
<glyph unicode="$" horiz-adv-x="1245" d="M51 401l275 74q25 -104 110.5 -177t212.5 -73q111 0 172.5 48.5t61.5 123.5q0 35 -17.5 65t-39 49t-67.5 40.5t-78 33t-97.5 32t-98.5 32.5q-82 29 -135 54.5t-117.5 72.5t-97.5 116t-33 157q0 141 108.5 253.5t283.5 147.5v168h284v-174q145 -37 250 -136.5t141 -234.5 l-274 -76q-25 102 -104.5 159.5t-180.5 57.5q-96 0 -155.5 -42t-59.5 -107q0 -18 5.5 -34.5t18.5 -32t24.5 -26.5t36 -24.5t40 -21.5t49 -20.5t52.5 -18.5l58 -20l58 -19q92 -33 161 -64.5t140.5 -84t109.5 -125t38 -164.5q0 -162 -110.5 -277t-297.5 -149v-168h-284v170 q-166 33 -280 141t-163 274z" />
<glyph unicode="%" horiz-adv-x="1810" d="M23 1034q0 178 102 297t264 119t263.5 -118t101.5 -298q0 -178 -101.5 -294.5t-263.5 -116.5t-264 116.5t-102 294.5zM215 1034q0 -92 48 -156.5t126 -64.5t126 64.5t48 156.5q0 94 -48 158.5t-126 64.5t-126 -64.5t-48 -158.5zM305 0l1012 1434h186l-1009 -1434h-189z M1057 397q0 178 102.5 296t264 118t263 -118t101.5 -296t-101.5 -295.5t-263 -117.5t-264 117.5t-102.5 295.5zM1249 397.5q0 -94.5 48.5 -158t126 -63.5t125.5 63.5t48 158t-48 159t-125.5 64.5t-126 -64.5t-48.5 -159z" />
<glyph unicode="&#x26;" horiz-adv-x="1452" d="M78 418q0 125 84 215t205 106v2q-98 12 -182.5 93t-84.5 213q0 176 132.5 295.5t369.5 119.5q201 0 338 -107.5t180 -297.5l-239 -68q-37 119 -99.5 175.5t-173 56.5t-161 -58.5t-50.5 -126.5q0 -82 61.5 -135t178.5 -53h803v-223h-256v-138q0 -229 -139.5 -372.5 t-426.5 -143.5q-244 0 -392 123t-148 324zM356 424q0 -90 74 -148.5t188 -58.5q152 0 223.5 68.5t71.5 216.5v123h-295q-125 0 -193.5 -53.5t-68.5 -147.5z" />
<glyph unicode="'" horiz-adv-x="608" d="M170 989v445h268v-445h-268z" />
<glyph unicode="(" horiz-adv-x="784" d="M78 705q0 803 586 997l73 -270q-201 -63 -288 -240.5t-87 -487t88.5 -486.5t286.5 -241l-73 -268q-586 195 -586 996z" />
<glyph unicode=")" horiz-adv-x="784" d="M47 -23l74 -268q586 195 586 996q0 803 -586 997l-74 -270q201 -63 288 -240.5t87 -487t-88 -487t-287 -240.5z" />
<glyph unicode="*" horiz-adv-x="1050" d="M170 1106l55 172l209 -70v226h178v-226l213 70l56 -172l-215 -62l137 -182l-148 -108l-131 190l-127 -190l-149 108l137 182z" />
<glyph unicode="+" horiz-adv-x="1429" d="M248 610v234h342v350h250v-350h344v-234h-342v-354h-250v354h-344z" />
<glyph unicode="," horiz-adv-x="528" d="M90 -270q51 35 96 114.5t45 132.5l27 9l-27 4q-41 4 -74.5 38.5t-33.5 90.5q0 57 42 98t101.5 41t99.5 -44t40 -116q0 -92 -59.5 -192.5t-149.5 -175.5h-107z" />
<glyph unicode="-" horiz-adv-x="1273" d="M170 610v234h934v-234h-934z" />
<glyph unicode="." horiz-adv-x="528" d="M123 117q0 57 41 98t100 41q57 0 99.5 -41t42.5 -98q0 -59 -41 -100.5t-100.5 -41.5t-100.5 41.5t-41 100.5z" />
<glyph unicode="/" horiz-adv-x="1030" d="M12 0l733 1434h273l-709 -1434h-297z" />
<glyph unicode="0" horiz-adv-x="1468" d="M78 716.5q0 317.5 178 531.5t477 214t478.5 -214t179.5 -531.5t-179.5 -531.5t-478.5 -214t-477 214t-178 531.5zM375 717q0 -205 90 -335t268 -130q176 0 269.5 130t93.5 335t-93.5 335t-269.5 130q-178 0 -268 -130t-90 -335z" />
<glyph unicode="1" horiz-adv-x="921" d="M78 958l475 476h199v-1434h-285v784q0 43 2 102.5t2 94.5l2 35h-2l-16 -21q-18 -18 -47 -50t-52 -54l-102 -103z" />
<glyph unicode="2" horiz-adv-x="1226" d="M102 1069q53 180 193.5 286.5t341.5 106.5q225 0 367.5 -131t142.5 -330q0 -125 -61.5 -231t-114.5 -152.5t-174 -132.5q-12 -10 -19 -14q-57 -43 -132 -96t-118 -84l-41 -31l2 -2h9q8 0 22.5 1t34.5 2t49 2t60.5 2t71.5 1h81h330v-266h-1034v233q205 176 610 529 q135 115 135 239q0 88 -63.5 148.5t-165.5 60.5q-104 0 -170 -61.5t-94 -149.5z" />
<glyph unicode="3" horiz-adv-x="1245" d="M78 373l258 71q25 -98 101.5 -157.5t189.5 -59.5q109 0 177 58.5t68 150.5q0 88 -68.5 138.5t-185.5 50.5h-122v225h122q113 0 172.5 48t59.5 134q0 76 -60.5 127t-168.5 51q-195 0 -263 -213l-256 70q47 182 188.5 288.5t346.5 106.5q240 0 374 -117.5t134 -293.5 q0 -133 -92 -218t-195 -90v-2q125 -2 217 -88t92 -231q0 -199 -148.5 -325t-379.5 -126q-205 0 -363.5 114t-197.5 288z" />
<glyph unicode="4" horiz-adv-x="1327" d="M78 293v211l770 930h231v-893h168v-248h-168v-293h-268v293h-733zM401 539q2 0 33 1t76 1h86h215v174v65q0 35 1 67t2 61.5t1 54t1 43t1 28.5v10h-2l-20 -28q-23 -29 -60 -77t-63 -81l-176 -207q-29 -35 -52.5 -62.5t-33.5 -37.5l-9 -10v-2z" />
<glyph unicode="5" horiz-adv-x="1247" d="M102 344l260 70q25 -84 91.5 -140.5t177.5 -56.5q106 0 177 71.5t71 180.5t-72 179.5t-176 70.5q-178 0 -232 -127l-245 67l127 775h798v-267h-590l-16 -88q-12 -63 -23.5 -113.5t-16.5 -68.5t-5 -20l2 -3q68 63 211 64q225 0 375.5 -133t150.5 -340 q0 -211 -150.5 -352.5t-375.5 -141.5q-209 0 -354.5 107.5t-184.5 265.5z" />
<glyph unicode="6" horiz-adv-x="1230" d="M78 475q0 147 57.5 271t179.5 288l303 400h310l-408 -539l2 -2q66 66 172 65q221 0 355.5 -144t134.5 -355q0 -215 -158 -351.5t-397 -136.5q-236 0 -393.5 138.5t-157.5 365.5zM367 475q0 -113 75.5 -183.5t196.5 -70.5t196.5 72t75.5 182q2 111 -73.5 180.5 t-198.5 69.5t-197.5 -69.5t-74.5 -180.5z" />
<glyph unicode="7" horiz-adv-x="1165" d="M63 1167v267h1074v-166l-711 -1268h-305l491 866q37 66 84 141.5t74 118.5l29 43l-2 2h-15q-12 0 -34.5 -1t-48 -2t-53.5 -1h-50h-533z" />
<glyph unicode="8" horiz-adv-x="1243" d="M78 403q0 141 92 238.5t211 120.5v2q-74 12 -156 100t-82 215q0 164 135.5 273.5t344.5 109.5q207 0 343 -110.5t136 -272.5q0 -127 -83 -215t-157 -100v-2q121 -25 212 -121t91 -238q0 -186 -152.5 -309t-389.5 -125q-238 2 -391.5 125t-153.5 309zM350 412 q0 -98 76 -157.5t197 -59.5q123 0 197.5 60t74.5 156.5t-76 155t-196 58.5q-123 0 -198 -59.5t-75 -153.5zM385 1065q0 -80 66.5 -130t171 -50t170 51t65.5 129q0 84 -66.5 137t-168.5 53q-104 0 -171 -53t-67 -137z" />
<glyph unicode="9" horiz-adv-x="1236" d="M47 971q0 221 157.5 356t399.5 135q238 0 396.5 -136t158.5 -368q0 -274 -254 -569l-332 -389h-325l467 537l-2 2q-55 -63 -168 -64q-238 0 -368 141.5t-130 354.5zM324 956.5q0 -116.5 77.5 -183t196.5 -66.5q121 0 197.5 69.5t76.5 179.5q0 119 -77.5 186.5 t-196.5 67.5q-121 0 -197.5 -68.5t-76.5 -185z" />
<glyph unicode=":" horiz-adv-x="528" d="M123 117q0 57 41 98t100 41q57 0 99.5 -41t42.5 -98q0 -59 -41 -100.5t-100.5 -41.5t-100.5 41.5t-41 100.5zM123 725q0 57 41 98t100 41q57 0 99.5 -41t42.5 -98q0 -59 -41 -100t-100.5 -41t-100.5 41t-41 100z" />
<glyph unicode=";" horiz-adv-x="563" d="M123 -272q51 35 96 114.5t45 132.5l27 9l-27 4q-41 4 -74.5 38.5t-33.5 90.5q0 57 42 98t101 41t99 -44t40 -116q0 -92 -59.5 -192.5t-149.5 -175.5h-106zM156 725q0 57 41 98t100 41q57 0 99 -41t42 -98q0 -59 -41 -100t-100 -41t-100 41t-41 100z" />
<glyph unicode="&#x3c;" horiz-adv-x="1429" d="M236 752l604 -502h331l-579 502l579 499h-331z" />
<glyph unicode="=" horiz-adv-x="1429" d="M248 367v233h936v-233h-936zM248 821v234h936v-234h-936z" />
<glyph unicode="&#x3e;" horiz-adv-x="1429" d="M258 250l580 502l-580 499h332l604 -499l-604 -502h-332z" />
<glyph unicode="?" horiz-adv-x="1196" d="M78 1065q45 184 188.5 290.5t347.5 106.5q240 0 373 -118.5t133 -296.5q0 -72 -24.5 -133.5t-54 -102.5t-92 -86t-102.5 -68.5t-120 -64.5v-143h-287v247q231 125 307 187.5t76 144.5q0 70 -52 126t-167 56q-117 0 -183.5 -51t-103.5 -162zM440 0v322h287v-322h-287z" />
<glyph unicode="@" horiz-adv-x="1638" d="M78 711q0 326 209 538.5t530.5 212.5t532.5 -213t211 -538q0 -106 -31 -199.5t-109 -161t-190 -67.5q-82 0 -146.5 49t-78.5 123l-2 2q-25 -63 -99 -113.5t-153 -50.5q-164 0 -264.5 111.5t-100.5 291.5q0 186 104.5 301t274.5 115q84 0 139.5 -40t67.5 -71h2v76h184 v-514q0 -141 96 -141q72 0 105 83t33 206q0 258 -163 427t-413 169q-248 0 -409.5 -169t-161.5 -427q0 -256 161.5 -425t409.5 -169q117 0 202 25.5t120 50t37 24.5l127 -63q0 -6 -17.5 -24.5t-58.5 -46.5t-94.5 -52.5t-137.5 -42t-178 -17.5q-319 0 -529 211.5t-210 528.5z M600 702.5q2 -104.5 58.5 -157.5t134.5 -53q68 0 124 50t58 144v45q2 100 -53.5 144.5t-128.5 44.5q-78 0 -136.5 -56.5t-56.5 -161z" />
<glyph unicode="A" horiz-adv-x="1472" d="M12 0l590 1434h268l590 -1434h-307l-106 274h-621l-107 -274h-307zM524 526h424l-141 363q-12 35 -29.5 85t-27.5 83l-13 30h-2l-10 -30q-12 -33 -29.5 -83t-29.5 -85z" />
<glyph unicode="B" horiz-adv-x="1343" d="M170 0v1434h594q188 0 308 -106.5t120 -264.5q0 -98 -61.5 -180t-137.5 -105v-2q106 -25 192.5 -125t86.5 -221q0 -190 -128 -310t-372 -120h-602zM455 242h290q102 0 165 55t63 145t-65.5 145.5t-164.5 55.5h-288v-401zM455 862h252q86 0 142 48t56 118q0 72 -55 118 t-143 46h-252v-330z" />
<glyph unicode="C" horiz-adv-x="1548" d="M78 716.5q0 321.5 216 533.5t527 212q209 0 382 -102.5t270 -276.5l-291 -75q-57 80 -155.5 127t-205.5 47q-201 0 -323.5 -130t-122.5 -335q0 -207 126 -334t320 -127q121 0 226.5 58.5t160.5 152.5l287 -76q-90 -193 -270.5 -306.5t-403.5 -113.5q-311 0 -527 212 t-216 533.5z" />
<glyph unicode="D" horiz-adv-x="1607" d="M170 0v1434h618q313 0 527.5 -203t214.5 -520q0 -315 -213 -513t-524 -198h-623zM455 266h338q186 0 314 121t128 323.5t-130 329.5t-317 127h-333v-901z" />
<glyph unicode="E" horiz-adv-x="1335" d="M170 0v1434h1014v-267h-729v-305h575v-250h-575v-346h741v-266h-1026z" />
<glyph unicode="F" horiz-adv-x="1234" d="M170 0v1434h993v-267h-708v-350h555v-256h-555v-561h-285z" />
<glyph unicode="G" horiz-adv-x="1624" d="M78 716.5q0 321.5 216 533.5t527 212q211 -2 382 -103.5t270 -275.5l-291 -75q-57 80 -155.5 127t-205.5 47q-201 0 -323.5 -130t-122.5 -335q0 -211 130 -339t333 -128q168 0 273.5 73.5t145.5 172.5v61h-397v231h641v-788h-246v36v31v24q0 11 1 19.5t1 14.5v11v7v4v3 h-2q-63 -72 -183 -125.5t-251 -53.5q-311 0 -527 212t-216 533.5z" />
<glyph unicode="H" horiz-adv-x="1529" d="M170 0v1434h285v-574h620v574h285v-1434h-285v592h-620v-592h-285z" />
<glyph unicode="I" horiz-adv-x="624" d="M170 0v1434h285v-1434h-285z" />
<glyph unicode="J" horiz-adv-x="1374" d="M23 338l280 76q41 -84 119 -130t182 -46q164 0 255 99t91 273v824h285v-811q0 -309 -170 -480.5t-461 -171.5q-201 0 -359.5 102.5t-221.5 264.5z" />
<glyph unicode="K" horiz-adv-x="1470" d="M170 0v1434h285v-283q0 -100 -1 -188.5t-1 -102.5v-31h2l20 23q23 23 75 77t109 111l394 394h350l-600 -603l618 -831h-338l-469 643l-159 -160v-483h-285z" />
<glyph unicode="L" horiz-adv-x="1204" d="M170 0v1434h285v-1168h708v-266h-993z" />
<glyph unicode="M" horiz-adv-x="1736" d="M170 0v1434h268l297 -492q49 -80 82 -137t41 -74l8 -16h2l9 16q8 16 40.5 73.5t81.5 137.5l299 492h269v-1434h-281v449q0 131 3 260t5 188v59h-2l-26 -43q-27 -45 -58.5 -101t-42.5 -73l-223 -385h-147l-224 385q-10 16 -42.5 71.5t-59.5 100.5l-27 45h-2l2 -59 q2 -59 5.5 -188t3.5 -260v-449h-281z" />
<glyph unicode="N" horiz-adv-x="1589" d="M170 0v1434h268l416 -560q43 -55 113.5 -152t117.5 -165l50 -68h2v70q0 45 -1 175t-1 231v469h284v-1434h-268l-408 553q-55 76 -128.5 178.5t-116.5 161.5l-43 61h-2v-64q0 -38 1 -173t1 -254v-463h-285z" />
<glyph unicode="O" d="M78 716.5q0 321.5 216 533.5t527 212q313 0 529.5 -212t216.5 -533.5t-216 -533.5t-530 -212q-311 0 -527 212t-216 533.5zM375 717q0 -205 125 -335t321 -130q199 0 324 130t125 335q0 207 -125 336t-324 129q-197 0 -321.5 -129t-124.5 -336z" />
<glyph unicode="P" horiz-adv-x="1296" d="M170 0v1434h512q258 0 405.5 -128t147.5 -352q0 -225 -147.5 -353t-405.5 -128h-227v-473h-285zM455 739h221q125 0 194.5 57.5t69.5 158t-70.5 156.5t-193.5 56h-221v-428z" />
<glyph unicode="Q" d="M78 717q0 322 216 533.5t527 211.5q313 0 529.5 -212t216.5 -533q0 -283 -171 -484.5t-435 -248.5v-254h-285v256q-260 49 -429 249.5t-169 481.5zM375 717q0 -205 125 -335t321 -130q199 0 324 130t125 335q0 207 -125 336t-324 129q-197 0 -321.5 -129t-124.5 -336z " />
<glyph unicode="R" horiz-adv-x="1363" d="M170 0v1434h502q262 0 412.5 -130t150.5 -350q0 -301 -270 -411l327 -543h-319l-285 489h-16h-217v-489h-285zM455 743h254q113 0 172 61.5t59 149.5q0 90 -60.5 151.5t-170.5 61.5h-254v-424z" />
<glyph unicode="S" horiz-adv-x="1245" d="M51 401l275 74q25 -104 110.5 -177t212.5 -73q111 0 172.5 48.5t61.5 123.5q0 35 -17.5 65t-39 49t-67.5 40.5t-78 33t-97.5 32t-98.5 32.5q-82 29 -135 54.5t-117.5 72.5t-97.5 116t-33 157q0 170 150.5 291.5t374.5 121.5q199 0 347 -108.5t195 -280.5l-274 -76 q-25 102 -104.5 159.5t-180.5 57.5q-96 0 -155.5 -42t-59.5 -107q0 -18 5.5 -34.5t18.5 -32t24.5 -26.5t36 -24.5t40 -21.5t49 -20.5t52.5 -18.5l58 -20l58 -19q92 -33 161 -64.5t140.5 -84t109.5 -125t38 -164.5q0 -193 -152.5 -316t-396.5 -123q-221 0 -374 115.5 t-212 314.5z" />
<glyph unicode="T" horiz-adv-x="1239" d="M29 1167v267h1181v-267h-450v-1167h-285v1167h-446z" />
<glyph unicode="U" horiz-adv-x="1515" d="M139 623v811h285v-807q0 -389 334 -389q332 0 332 389v807h286v-811q0 -311 -166 -481.5t-452 -170.5q-289 0 -454 170.5t-165 481.5z" />
<glyph unicode="V" horiz-adv-x="1472" d="M12 1434h312l329 -869q20 -59 41 -123.5t31 -93.5l10 -31h2l8 31q10 29 31 92.5t43 124.5l328 869h311l-571 -1434h-303z" />
<glyph unicode="W" horiz-adv-x="2103" d="M45 1434h303l225 -775q14 -55 28.5 -113.5t21.5 -82.5l8 -27h2l6 27q8 27 25.5 83t37.5 113l218 621h264l217 -621q20 -57 37.5 -113.5t23.5 -82.5l8 -27h3l6 27q8 25 22.5 83t30.5 113l225 775h301l-450 -1434h-265l-221 692q-23 72 -40 135.5t-23 90.5l-6 28h-2l-7 -28 q-6 -27 -22 -90.5t-39 -135.5l-221 -692h-266z" />
<glyph unicode="X" horiz-adv-x="1396" d="M25 0l501 735l-473 699h342l221 -330q8 -14 29 -49t37 -64l16 -26h2l17 26q14 29 34.5 64t28.5 49l221 330h345l-476 -699l502 -735h-340l-229 326q-10 16 -36 59t-46 78l-21 33h-2l-20 -33q-20 -35 -47 -78t-37 -59l-229 -326h-340z" />
<glyph unicode="Y" horiz-adv-x="1435" d="M25 1434h319l295 -412q72 -106 78 -107h2q6 0 78 107l293 412h321l-553 -777v-657h-283v657z" />
<glyph unicode="Z" horiz-adv-x="1443" d="M123 0v266l711 785q20 23 52 52.5t52 47.5l20 18l-2 2h-14q-12 0 -33.5 -1t-48 -2t-57.5 -1h-58h-602v267h1178v-267l-688 -774q-27 -29 -58.5 -62.5t-48.5 -51.5l-16 -17l2 -2h6q6 0 16.5 1t23.5 1t31.5 1t39 2t44.5 1h48h600v-266h-1198z" />
<glyph unicode="[" horiz-adv-x="763" d="M170 -311v2064h561v-266h-274v-1530h274v-268h-561z" />
<glyph unicode="\" horiz-adv-x="1030" d="M12 1434l711 -1434h295l-733 1434h-273z" />
<glyph unicode="]" horiz-adv-x="770" d="M39 -43v-268h561v2064h-561v-266h274v-1530h-274z" />
<glyph unicode="^" horiz-adv-x="1298" d="M170 977l479 481l479 -481l-124 -113l-355 363l-352 -363z" />
<glyph unicode="_" horiz-adv-x="1589" d="M170 0h1249v-225h-1249v225z" />
<glyph unicode="`" horiz-adv-x="647" d="M12 1708l99 195l473 -254l-84 -152z" />
<glyph unicode="a" horiz-adv-x="1472" d="M12 0l590 1434h268l590 -1434h-307l-106 274h-621l-107 -274h-307zM524 526h424l-141 363q-12 35 -29.5 85t-27.5 83l-13 30h-2l-10 -30q-12 -33 -29.5 -83t-29.5 -85z" />
<glyph unicode="b" horiz-adv-x="1343" d="M170 0v1434h594q188 0 308 -106.5t120 -264.5q0 -98 -61.5 -180t-137.5 -105v-2q106 -25 192.5 -125t86.5 -221q0 -190 -128 -310t-372 -120h-602zM455 242h290q102 0 165 55t63 145t-65.5 145.5t-164.5 55.5h-288v-401zM455 862h252q86 0 142 48t56 118q0 72 -55 118 t-143 46h-252v-330z" />
<glyph unicode="c" horiz-adv-x="1548" d="M78 716.5q0 321.5 216 533.5t527 212q209 0 382 -102.5t270 -276.5l-291 -75q-57 80 -155.5 127t-205.5 47q-201 0 -323.5 -130t-122.5 -335q0 -207 126 -334t320 -127q121 0 226.5 58.5t160.5 152.5l287 -76q-90 -193 -270.5 -306.5t-403.5 -113.5q-311 0 -527 212 t-216 533.5z" />
<glyph unicode="d" horiz-adv-x="1607" d="M170 0v1434h618q313 0 527.5 -203t214.5 -520q0 -315 -213 -513t-524 -198h-623zM455 266h338q186 0 314 121t128 323.5t-130 329.5t-317 127h-333v-901z" />
<glyph unicode="e" horiz-adv-x="1335" d="M170 0v1434h1014v-267h-729v-305h575v-250h-575v-346h741v-266h-1026z" />
<glyph unicode="f" horiz-adv-x="1234" d="M170 0v1434h993v-267h-708v-350h555v-256h-555v-561h-285z" />
<glyph unicode="g" horiz-adv-x="1624" d="M78 716.5q0 321.5 216 533.5t527 212q211 -2 382 -103.5t270 -275.5l-291 -75q-57 80 -155.5 127t-205.5 47q-201 0 -323.5 -130t-122.5 -335q0 -211 130 -339t333 -128q168 0 273.5 73.5t145.5 172.5v61h-397v231h641v-788h-246v36v31v24q0 11 1 19.5t1 14.5v11v7v4v3 h-2q-63 -72 -183 -125.5t-251 -53.5q-311 0 -527 212t-216 533.5z" />
<glyph unicode="h" horiz-adv-x="1529" d="M170 0v1434h285v-574h620v574h285v-1434h-285v592h-620v-592h-285z" />
<glyph unicode="i" horiz-adv-x="624" d="M170 0v1434h285v-1434h-285z" />
<glyph unicode="j" horiz-adv-x="1374" d="M23 338l280 76q41 -84 119 -130t182 -46q164 0 255 99t91 273v824h285v-811q0 -309 -170 -480.5t-461 -171.5q-201 0 -359.5 102.5t-221.5 264.5z" />
<glyph unicode="k" horiz-adv-x="1470" d="M170 0v1434h285v-283q0 -100 -1 -188.5t-1 -102.5v-31h2l20 23q23 23 75 77t109 111l394 394h350l-600 -603l618 -831h-338l-469 643l-159 -160v-483h-285z" />
<glyph unicode="l" horiz-adv-x="1204" d="M170 0v1434h285v-1168h708v-266h-993z" />
<glyph unicode="m" horiz-adv-x="1736" d="M170 0v1434h268l297 -492q49 -80 82 -137t41 -74l8 -16h2l9 16q8 16 40.5 73.5t81.5 137.5l299 492h269v-1434h-281v449q0 131 3 260t5 188v59h-2l-26 -43q-27 -45 -58.5 -101t-42.5 -73l-223 -385h-147l-224 385q-10 16 -42.5 71.5t-59.5 100.5l-27 45h-2l2 -59 q2 -59 5.5 -188t3.5 -260v-449h-281z" />
<glyph unicode="n" horiz-adv-x="1589" d="M170 0v1434h268l416 -560q43 -55 113.5 -152t117.5 -165l50 -68h2v70q0 45 -1 175t-1 231v469h284v-1434h-268l-408 553q-55 76 -128.5 178.5t-116.5 161.5l-43 61h-2v-64q0 -38 1 -173t1 -254v-463h-285z" />
<glyph unicode="o" d="M78 716.5q0 321.5 216 533.5t527 212q313 0 529.5 -212t216.5 -533.5t-216 -533.5t-530 -212q-311 0 -527 212t-216 533.5zM375 717q0 -205 125 -335t321 -130q199 0 324 130t125 335q0 207 -125 336t-324 129q-197 0 -321.5 -129t-124.5 -336z" />
<glyph unicode="p" horiz-adv-x="1296" d="M170 0v1434h512q258 0 405.5 -128t147.5 -352q0 -225 -147.5 -353t-405.5 -128h-227v-473h-285zM455 739h221q125 0 194.5 57.5t69.5 158t-70.5 156.5t-193.5 56h-221v-428z" />
<glyph unicode="q" d="M78 717q0 322 216 533.5t527 211.5q313 0 529.5 -212t216.5 -533q0 -283 -171 -484.5t-435 -248.5v-254h-285v256q-260 49 -429 249.5t-169 481.5zM375 717q0 -205 125 -335t321 -130q199 0 324 130t125 335q0 207 -125 336t-324 129q-197 0 -321.5 -129t-124.5 -336z " />
<glyph unicode="r" horiz-adv-x="1363" d="M170 0v1434h502q262 0 412.5 -130t150.5 -350q0 -301 -270 -411l327 -543h-319l-285 489h-16h-217v-489h-285zM455 743h254q113 0 172 61.5t59 149.5q0 90 -60.5 151.5t-170.5 61.5h-254v-424z" />
<glyph unicode="s" horiz-adv-x="1245" d="M51 401l275 74q25 -104 110.5 -177t212.5 -73q111 0 172.5 48.5t61.5 123.5q0 35 -17.5 65t-39 49t-67.5 40.5t-78 33t-97.5 32t-98.5 32.5q-82 29 -135 54.5t-117.5 72.5t-97.5 116t-33 157q0 170 150.5 291.5t374.5 121.5q199 0 347 -108.5t195 -280.5l-274 -76 q-25 102 -104.5 159.5t-180.5 57.5q-96 0 -155.5 -42t-59.5 -107q0 -18 5.5 -34.5t18.5 -32t24.5 -26.5t36 -24.5t40 -21.5t49 -20.5t52.5 -18.5l58 -20l58 -19q92 -33 161 -64.5t140.5 -84t109.5 -125t38 -164.5q0 -193 -152.5 -316t-396.5 -123q-221 0 -374 115.5 t-212 314.5z" />
<glyph unicode="t" horiz-adv-x="1239" d="M29 1167v267h1181v-267h-450v-1167h-285v1167h-446z" />
<glyph unicode="u" horiz-adv-x="1515" d="M139 623v811h285v-807q0 -389 334 -389q332 0 332 389v807h286v-811q0 -311 -166 -481.5t-452 -170.5q-289 0 -454 170.5t-165 481.5z" />
<glyph unicode="v" horiz-adv-x="1472" d="M12 1434h312l329 -869q20 -59 41 -123.5t31 -93.5l10 -31h2l8 31q10 29 31 92.5t43 124.5l328 869h311l-571 -1434h-303z" />
<glyph unicode="w" horiz-adv-x="2103" d="M45 1434h303l225 -775q14 -55 28.5 -113.5t21.5 -82.5l8 -27h2l6 27q8 27 25.5 83t37.5 113l218 621h264l217 -621q20 -57 37.5 -113.5t23.5 -82.5l8 -27h3l6 27q8 25 22.5 83t30.5 113l225 775h301l-450 -1434h-265l-221 692q-23 72 -40 135.5t-23 90.5l-6 28h-2l-7 -28 q-6 -27 -22 -90.5t-39 -135.5l-221 -692h-266z" />
<glyph unicode="x" horiz-adv-x="1396" d="M25 0l501 735l-473 699h342l221 -330q8 -14 29 -49t37 -64l16 -26h2l17 26q14 29 34.5 64t28.5 49l221 330h345l-476 -699l502 -735h-340l-229 326q-10 16 -36 59t-46 78l-21 33h-2l-20 -33q-20 -35 -47 -78t-37 -59l-229 -326h-340z" />
<glyph unicode="y" horiz-adv-x="1435" d="M25 1434h319l295 -412q72 -106 78 -107h2q6 0 78 107l293 412h321l-553 -777v-657h-283v657z" />
<glyph unicode="z" horiz-adv-x="1443" d="M123 0v266l711 785q20 23 52 52.5t52 47.5l20 18l-2 2h-14q-12 0 -33.5 -1t-48 -2t-57.5 -1h-58h-602v267h1178v-267l-688 -774q-27 -29 -58.5 -62.5t-48.5 -51.5l-16 -17l2 -2h6q6 0 16.5 1t23.5 1t31.5 1t39 2t44.5 1h48h600v-266h-1198z" />
<glyph unicode="{" horiz-adv-x="886" d="M170 721q6 2 14.5 6t32 25.5t40.5 52.5t31.5 92t14.5 139v217q0 250 144.5 392.5t414.5 142.5v-266q-125 0 -199.5 -63.5t-74.5 -248.5v-161q0 -78 -10.5 -139.5t-24.5 -95.5t-31.5 -56.5t-28 -29.5t-16.5 -7q6 0 16.5 -8t28 -31t31.5 -56.5t24.5 -95t10.5 -139.5v-160 q0 -184 74.5 -247.5t199.5 -63.5v-266q-270 0 -414.5 142.5t-144.5 391.5v218q0 233 -113 305z" />
<glyph unicode="|" horiz-adv-x="567" d="M170 -152v1739h227v-1739h-227z" />
<glyph unicode="}" horiz-adv-x="886" d="M25 -80v-266q270 0 414.5 142.5t144.5 391.5v218q0 233 112 305l21 10q-6 2 -14.5 6t-32 25.5t-41 52.5t-31.5 92t-14 139v217q0 250 -144.5 392.5t-414.5 142.5v-266q125 0 199.5 -63.5t74.5 -248.5v-161q0 -78 10 -139.5t24.5 -95.5t32 -56.5t27.5 -29.5t17 -7 q-6 0 -16.5 -8t-28 -31t-32 -56.5t-24.5 -95t-10 -139.5v-160q0 -184 -74.5 -247.5t-199.5 -63.5z" />
<glyph unicode="~" horiz-adv-x="1429" d="M160 606q20 137 118.5 206t217.5 69q100 0 237 -68t182 -68q72 0 105 38t33 89l237 -63q-18 -137 -116.5 -205.5t-217.5 -68.5q-100 0 -237 67.5t-184 67.5q-74 0 -106 -37t-34 -88z" />
<glyph unicode="&#xa1;" horiz-adv-x="624" d="M170 0v985h285v-985h-285zM170 1112v322h285v-322h-285z" />
<glyph unicode="&#xa2;" horiz-adv-x="1181" d="M78 711q0 199 120.5 346t305.5 188v217h229v-215q125 -27 226.5 -104.5t154.5 -190.5l-250 -65q-84 125 -241 125q-129 0 -206 -81t-77 -220.5t77 -221t206 -81.5q180 0 258 157l247 -69q-49 -125 -154.5 -210t-240.5 -114v-201h-229v203q-184 41 -305 188.5t-121 348.5z " />
<glyph unicode="&#xa3;" horiz-adv-x="1335" d="M170 0v266q94 18 123 79t16 185l-6 60h-129v225h109l-17 184q-18 186 122 322.5t337 140.5q100 2 199.5 -31.5t196 -128t130.5 -237.5l-241 -68q-70 223 -269 213q-94 -4 -147 -72.5t-43 -164.5l14 -158h418v-225h-395l4 -51q20 -209 -80 -279l2 -2h10q8 0 24.5 1t40 2 t53.5 2t63.5 2t73.5 1h81h393v-266h-1083z" />
<glyph unicode="&#xa4;" horiz-adv-x="1361" d="M84 1147l141 141l142 -141q139 100 311 100t315 -100l144 141l139 -141l-141 -141q98 -141 98 -312q0 -172 -98 -313l139 -141l-141 -142l-142 142q-143 -100 -313 -100.5t-309 100.5l-142 -142l-139 142l137 139q-98 143 -98 315t98 314zM383 698q0 -131 86 -216 t211 -85q127 0 213 85t86 216q0 129 -87 215t-212 86t-211 -86t-86 -215z" />
<glyph unicode="&#xa5;" horiz-adv-x="1433" d="M25 1434h319l295 -412q72 -106 78 -107h2q6 0 78 107l293 412h321l-354 -498h213v-186h-346l-47 -68h393v-188h-412v-494h-283v494h-405v188h387l-47 68h-340v186h207z" />
<glyph unicode="&#xa6;" horiz-adv-x="567" d="M170 -152v594h227v-594h-227zM170 1014v573h227v-573h-227z" />
<glyph unicode="&#xa7;" horiz-adv-x="1087" d="M51 270l232 62q25 -76 97.5 -127t180.5 -51q96 0 150.5 33.5t54.5 86.5q0 23 -9 40.5t-28.5 32.5t-40 25.5t-56.5 23t-62.5 19.5t-71.5 19t-74 21q-72 20 -117 38.5t-102.5 51.5t-86 82t-28.5 112q0 143 178 215q-162 78 -162 222q0 119 126 203.5t317 84.5 q164 0 288 -73.5t167 -190.5l-232 -61q-18 72 -84.5 109.5t-152.5 37.5q-80 0 -129.5 -28.5t-49.5 -71.5q0 -27 13.5 -46.5t46.5 -33.5t59.5 -22.5t81.5 -22.5t84 -23q78 -23 135.5 -45t117.5 -58t92 -87t32 -115q0 -152 -180 -207q188 -90 188 -241q0 -139 -130 -227.5 t-343 -88.5q-190 0 -320.5 81t-181.5 220zM330 752q0 -27 14 -47.5t51 -36t63.5 -24.5t88 -23.5t90.5 -22.5q139 25 139 123q0 16 -4 30.5t-15.5 27t-20.5 21.5t-29.5 18t-34 14.5t-41 13.5t-43 11t-47 11.5t-47.5 12.5q-68 -8 -116 -42t-48 -87z" />
<glyph unicode="&#xa8;" horiz-adv-x="878" d="M12 1704q0 55 39 94t96 39q55 0 94.5 -39t39.5 -94q0 -57 -39 -95t-95 -38q-57 0 -96 38t-39 95zM541 1704q0 55 38.5 94t96 39t96.5 -39t39 -94q0 -57 -39 -95t-96.5 -38t-96 38t-38.5 95z" />
<glyph unicode="&#xa9;" d="M78 716.5q0 321.5 216 533.5t527 212q313 0 529.5 -212t216.5 -533.5t-216 -533.5t-530 -212q-311 0 -527 212t-216 533.5zM289 717q0 -240 150.5 -392.5t382 -152.5t382 152.5t150.5 392.5q0 242 -150.5 395.5t-382 153.5t-382 -153.5t-150.5 -395.5zM475 716.5 q0 149.5 102.5 251t247.5 101.5q102 0 189.5 -54t128.5 -143l-164 -43q-51 78 -154 78q-82 0 -131 -51t-49 -139q0 -86 49 -137.5t131 -51.5q117 0 162 99l164 -45q-37 -96 -127 -156.5t-199 -60.5q-145 0 -247.5 101t-102.5 250.5z" />
<glyph unicode="&#xaa;" horiz-adv-x="743" d="M41 465v174h661v-174h-661zM43 768l248 682h160l249 -682h-178l-39 125h-225l-41 -125h-174zM301 1024h139l-28 90q-12 39 -21.5 83t-13.5 67l-4 22h-2l-6 -22q-4 -23 -13.5 -67t-21.5 -83z" />
<glyph unicode="&#xab;" horiz-adv-x="1595" d="M170 721l481 -481l158 157l-338 324l336 323l-154 156zM786 721l482 -481l157 157l-338 324l336 323l-153 156z" />
<glyph unicode="&#xad;" horiz-adv-x="1273" d="M170 610v234h934v-234h-934z" />
<glyph unicode="&#xae;" d="M78 716.5q0 321.5 216 533.5t527 212q313 0 529.5 -212t216.5 -533.5t-216 -533.5t-530 -212q-311 0 -527 212t-216 533.5zM289 717q0 -240 150.5 -392.5t382 -152.5t382 152.5t150.5 392.5q0 242 -150.5 395.5t-382 153.5t-382 -153.5t-150.5 -395.5zM580 371v696h245 q127 0 200 -62.5t73 -166.5q0 -143 -127 -197l164 -270h-170l-138 243h-2h-88v-243h-157zM737 743h107q47 0 72.5 25t25.5 66q0 39 -25.5 63.5t-72.5 24.5h-107v-179z" />
<glyph unicode="&#xaf;" horiz-adv-x="704" d="M-20 1380v222h694v-222h-694z" />
<glyph unicode="&#xb0;" horiz-adv-x="659" d="M49 1454q0 115 84 198t198.5 83t196.5 -83t82 -198t-82 -196.5t-196.5 -81.5t-198.5 82.5t-84 195.5zM219 1456q0 -45 34 -77.5t79 -32.5q47 0 80.5 32.5t33.5 77.5q0 49 -33.5 82t-80.5 33t-80 -33t-33 -82z" />
<glyph unicode="&#xb1;" horiz-adv-x="1429" d="M248 -18v233h936v-233h-936zM248 610v234h342v350h250v-350h344v-234h-342v-239h-250v239h-344z" />
<glyph unicode="&#xb2;" horiz-adv-x="688" d="M41 1524q25 109 108.5 183.5t200.5 74.5q123 0 206 -78t83 -193q0 -129 -129 -237q-51 -43 -111 -86q-27 -18 -55 -35l-43 -25l-14 -8l2 -2h12q12 2 31.5 5t44 5t58.5 3.5t67 1.5h133v-162h-586v123l277 231q47 39 68.5 60.5t42 56.5t20.5 69q0 43 -32 72t-79 29 q-43 0 -73.5 -22.5t-43 -47t-24.5 -61.5z" />
<glyph unicode="&#xb3;" horiz-adv-x="704" d="M41 1190l160 43q20 -121 157 -121q55 0 88 28.5t33 71.5q0 45 -35.5 73t-91.5 28h-76v131h76q49 0 82 27.5t33 66.5q0 35 -30.5 61.5t-80.5 26.5q-115 0 -145 -119l-158 43q23 104 105 168t198 64q133 0 210 -66.5t77 -165.5q0 -74 -53 -121t-113 -49v-2q72 -4 125 -48 t53 -122q0 -111 -84 -182.5t-213 -71.5q-117 0 -208 67t-109 169z" />
<glyph unicode="&#xb4;" horiz-adv-x="647" d="M12 1649l473 254l99 -195l-490 -211z" />
<glyph unicode="&#xb6;" horiz-adv-x="1566" d="M78 1024q0 193 132 301.5t368 108.5h817v-1434h-285v1165h-172v-1165h-268v612h-92q-236 0 -368 108.5t-132 303.5z" />
<glyph unicode="&#xb7;" horiz-adv-x="528" d="M123 725q0 57 41 98t100 41q57 0 99.5 -41t42.5 -98q0 -59 -41 -100t-100.5 -41t-100.5 41t-41 100z" />
<glyph unicode="&#xb8;" horiz-adv-x="532" d="M12 -535l60 152h159q78 0 78 64q0 27 -21.5 44t-56.5 19h-190l88 256h160l-41 -111q90 2 154.5 -55t64.5 -151q0 -109 -66.5 -163.5t-169.5 -54.5h-219z" />
<glyph unicode="&#xb9;" horiz-adv-x="514" d="M23 1497l292 268h131v-794h-186v401q0 20 1 43t3 42.5t4 35.5t2 27l2 10h-2q-2 0 -10 -11.5t-24.5 -32t-36.5 -36.5l-60 -57z" />
<glyph unicode="&#xba;" horiz-adv-x="745" d="M20 1105.5q0 151.5 101.5 253t251.5 101.5q147 0 249.5 -101.5t102.5 -253t-102.5 -251.5t-249.5 -100q-150 0 -251.5 100t-101.5 251.5zM41 465v174h664v-174h-664zM195 1106q0 -80 50 -132t128 -52t128 52t50 132q0 82 -50 134t-128 52t-128 -52t-50 -134z" />
<glyph unicode="&#xbb;" horiz-adv-x="1595" d="M170 397l338 324l-336 323l154 156l483 -479l-481 -481zM786 397l338 324l-336 323l154 156l483 -479l-481 -481z" />
<glyph unicode="&#xbc;" horiz-adv-x="1476" d="M23 1165l292 269h131v-795h-186v401q0 20 1 43t3 42.5t4 36t2 26.5l2 10h-2q-2 0 -10 -11t-24.5 -31.5t-36.5 -37.5l-60 -57zM129 0l1010 1434h188l-1012 -1434h-186zM774 154v127l422 514h141v-488h90v-153h-90v-154h-166v154h-397zM961 301l2 -2h6q6 2 15 3t21.5 1 t29 1t30.5 1h106v133v31q0 16 1.5 29.5t2.5 25t1 17.5v6h-2l-11 -12q-8 -12 -22.5 -32t-28.5 -34l-96 -113q-12 -14 -26.5 -27.5t-22.5 -21.5z" />
<glyph unicode="&#xbd;" horiz-adv-x="1544" d="M23 1165l292 269h131v-795h-186v401q0 20 1 43t3 42.5t4 36t2 26.5l2 10h-2q-2 0 -10 -11t-24.5 -31.5t-36.5 -37.5l-60 -57zM129 0l1010 1434h188l-1012 -1434h-186zM897 553q25 109 109 183.5t200 74.5q123 0 206 -78t83 -192q0 -129 -129 -238q-51 -43 -111 -86 q-27 -18 -55 -35l-43 -24l-14 -8l2 -3h12q12 2 31.5 5.5t44 5.5t58.5 3t67 1h133v-162h-586v123l277 231q47 39 68.5 60.5t42 56.5t20.5 70q0 43 -32 71.5t-79 28.5q-43 0 -73.5 -22.5t-43 -47t-24.5 -61.5z" />
<glyph unicode="&#xbe;" horiz-adv-x="1609" d="M41 858l160 43q20 -121 157 -121q55 0 88 29t33 72q0 45 -35.5 72.5t-91.5 27.5h-76v131h76q49 0 82 27.5t33 66.5q0 35 -30.5 61.5t-80.5 26.5q-115 0 -145 -118l-158 43q23 104 105 167.5t198 63.5q133 0 210 -66.5t77 -164.5q0 -74 -53 -121t-113 -49v-2 q72 -4 125 -48.5t53 -121.5q0 -111 -84 -182.5t-213 -71.5q-117 0 -208 66.5t-109 168.5zM260 0l1012 1434h188l-1011 -1434h-189zM907 154v127l422 514h141v-488h91v-153h-91v-154h-165v154h-398zM1094 301l2 -2h6q6 2 15 3t21.5 1t29 1t30.5 1h107v133v31q0 16 1 29.5 t2 25t1 17.5v6h-2l-9 -12q-10 -12 -24 -32t-29 -34l-96 -113q-12 -14 -26.5 -27.5t-20.5 -21.5z" />
<glyph unicode="&#xbf;" horiz-adv-x="1196" d="M76 387q0 72 24.5 133.5t54 102.5t92 86t102.5 68.5t120 64.5v143h287v-248q-231 -125 -307 -187.5t-76 -143.5q0 -70 52 -126.5t167 -56.5q117 0 183.5 51.5t103.5 161.5l239 -67q-45 -184 -188.5 -291t-347.5 -107q-240 0 -373 119t-133 297zM469 1112v322h287v-322 h-287z" />
<glyph unicode="&#xc0;" horiz-adv-x="1472" d="M12 0l590 1434h268l590 -1434h-307l-106 274h-621l-107 -274h-307zM356 1708l101 195l471 -254l-82 -152zM524 526h424l-141 363q-12 35 -29.5 85t-27.5 83l-13 30h-2l-10 -30q-12 -33 -29.5 -83t-29.5 -85z" />
<glyph unicode="&#xc1;" horiz-adv-x="1472" d="M12 0l590 1434h268l590 -1434h-307l-106 274h-621l-107 -274h-307zM498 1649l473 254l98 -195l-487 -211zM524 526h424l-141 363q-12 35 -29.5 85t-27.5 83l-13 30h-2l-10 -30q-12 -33 -29.5 -83t-29.5 -85z" />
<glyph unicode="&#xc2;" horiz-adv-x="1472" d="M12 0l590 1434h268l590 -1434h-307l-106 274h-621l-107 -274h-307zM346 1638l383 326l381 -326l-137 -141l-244 203l-244 -203zM524 526h424l-141 363q-12 35 -29.5 85t-27.5 83l-13 30h-2l-10 -30q-12 -33 -29.5 -83t-29.5 -85z" />
<glyph unicode="&#xc3;" horiz-adv-x="1472" d="M12 0l590 1434h268l590 -1434h-307l-106 274h-621l-107 -274h-307zM279 1561q0 123 82.5 203.5t207.5 80.5q63 0 121 -31.5t103 -62.5t81 -31q41 0 68 26t27 64h223q0 -123 -82 -202.5t-209 -79.5q-78 0 -172 61.5t-133 61.5q-41 0 -67.5 -26t-26.5 -64h-223zM524 526 h424l-141 363q-12 35 -29.5 85t-27.5 83l-13 30h-2l-10 -30q-12 -33 -29.5 -83t-29.5 -85z" />
<glyph unicode="&#xc4;" horiz-adv-x="1472" d="M12 0l590 1434h268l590 -1434h-307l-106 274h-621l-107 -274h-307zM328 1704q0 55 40 94t97 39q55 0 94 -39t39 -94q0 -57 -39 -95t-94 -38q-59 0 -98 38t-39 95zM524 526h424l-141 363q-12 35 -29.5 85t-27.5 83l-13 30h-2l-10 -30q-12 -33 -29.5 -83t-29.5 -85z M858 1704q0 55 39 94t96 39q55 0 94 -39t39 -94q0 -57 -38.5 -95t-94.5 -38q-57 0 -96 38t-39 95z" />
<glyph unicode="&#xc5;" horiz-adv-x="1472" d="M12 0l588 1430q-66 37 -105.5 102t-39.5 143q0 115 83 197t197.5 82t197.5 -82t83 -197q0 -76 -40 -141.5t-104 -101.5l588 -1432h-307l-106 274h-621l-107 -274h-307zM524 526h424l-141 363q-12 35 -29.5 85t-27.5 83l-13 30h-2l-10 -30q-12 -33 -29.5 -83t-29.5 -85z M623 1675q0 -45 33.5 -77.5t78.5 -32.5q47 0 81 32.5t34 77.5q0 49 -34 83t-81 34q-45 0 -78.5 -34t-33.5 -83z" />
<glyph unicode="&#xc6;" horiz-adv-x="2074" d="M12 0l596 1434h1315v-267h-727v-305h576v-250h-576v-346h739v-266h-1017v274h-488l-108 -274h-310zM528 526h390v641h-146l-18 -47q-16 -47 -46 -127t-46 -123z" />
<glyph unicode="&#xc7;" horiz-adv-x="1548" d="M78 717q0 322 216 533.5t527 211.5q209 0 382 -102.5t270 -276.5l-291 -75q-57 80 -155.5 127t-205.5 47q-201 0 -323.5 -130t-122.5 -335q0 -207 126 -334t320 -127q121 0 226.5 58.5t160.5 152.5l287 -76q-84 -178 -247 -290.5t-367 -127.5l-31 -84q90 2 154.5 -55 t64.5 -151q0 -109 -66.5 -163.5t-171.5 -54.5h-217l60 152h157q78 0 78 64q0 59 -78 63h-188l80 233q-279 35 -462 241t-183 499z" />
<glyph unicode="&#xc8;" horiz-adv-x="1335" d="M170 0v1434h1014v-267h-729v-305h575v-250h-575v-346h741v-266h-1026zM324 1708l100 195l471 -254l-82 -152z" />
<glyph unicode="&#xc9;" horiz-adv-x="1335" d="M170 0v1434h1014v-267h-729v-305h575v-250h-575v-346h741v-266h-1026zM465 1649l473 254l98 -195l-487 -211z" />
<glyph unicode="&#xca;" horiz-adv-x="1335" d="M170 0v1434h1014v-267h-729v-305h575v-250h-575v-346h741v-266h-1026zM313 1638l383 326l381 -326l-137 -141l-244 203l-243 -203z" />
<glyph unicode="&#xcb;" horiz-adv-x="1335" d="M170 0v1434h1014v-267h-729v-305h575v-250h-575v-346h741v-266h-1026zM295 1704q0 55 40 94t97 39q55 0 94 -39t39 -94q0 -57 -39 -95t-94 -38q-59 0 -98 38t-39 95zM825 1704q0 55 39 94t97 39q55 0 94 -39t39 -94q0 -57 -39 -95t-94 -38q-57 0 -96.5 38t-39.5 95z" />
<glyph unicode="&#xcc;" horiz-adv-x="624" d="M-66 1708l101 195l471 -254l-82 -152zM170 0v1434h285v-1434h-285z" />
<glyph unicode="&#xcd;" horiz-adv-x="624" d="M76 1649l473 254l98 -195l-487 -211zM170 0v1434h285v-1434h-285z" />
<glyph unicode="&#xce;" horiz-adv-x="624" d="M-76 1638l383 326l381 -326l-137 -141l-244 203l-244 -203zM170 0v1434h285v-1434h-285z" />
<glyph unicode="&#xcf;" horiz-adv-x="624" d="M-94 1704q0 55 40 94t97 39q55 0 94 -39t39 -94q0 -57 -39 -95t-94 -38q-59 0 -98 38t-39 95zM170 0v1434h285v-1434h-285zM436 1704q0 55 39 94t96 39q55 0 94.5 -39t39.5 -94q0 -57 -39 -95t-95 -38q-57 0 -96 38t-39 95z" />
<glyph unicode="&#xd0;" horiz-adv-x="1630" d="M78 598v256h115v580h618q313 0 527 -203t214 -520q0 -315 -213 -513t-524 -198h-622v598h-115zM477 266h338q186 0 314 121t128 323.5t-130 329.5t-316 127h-334v-313h268v-256h-268v-332z" />
<glyph unicode="&#xd1;" horiz-adv-x="1589" d="M170 0v1434h268l416 -560q43 -55 113.5 -152t117.5 -165l50 -68h2v70q0 45 -1 175t-1 231v469h284v-1434h-268l-408 553q-55 76 -128.5 178.5t-116.5 161.5l-43 61h-2v-64q0 -38 1 -173t1 -254v-463h-285zM340 1561q0 123 83 203.5t208 80.5q63 0 120.5 -31.5 t102.5 -62.5t82 -31q41 0 67.5 26t26.5 64h223q0 -123 -81.5 -202.5t-208.5 -79.5q-78 0 -172.5 61.5t-133.5 61.5q-41 0 -67.5 -26t-26.5 -64h-223z" />
<glyph unicode="&#xd2;" d="M78 716.5q0 321.5 216 533.5t527 212q313 0 529.5 -212t216.5 -533.5t-216 -533.5t-530 -212q-311 0 -527 212t-216 533.5zM375 717q0 -205 125 -335t321 -130q199 0 324 130t125 335q0 207 -125 336t-324 129q-197 0 -321.5 -129t-124.5 -336zM453 1708l100 195 l471 -254l-82 -152z" />
<glyph unicode="&#xd3;" d="M78 716.5q0 321.5 216 533.5t527 212q313 0 529.5 -212t216.5 -533.5t-216 -533.5t-530 -212q-311 0 -527 212t-216 533.5zM375 717q0 -205 125 -335t321 -130q199 0 324 130t125 335q0 207 -125 336t-324 129q-197 0 -321.5 -129t-124.5 -336zM594 1649l473 254l98 -195 l-487 -211z" />
<glyph unicode="&#xd4;" d="M78 716.5q0 321.5 216 533.5t527 212q313 0 529.5 -212t216.5 -533.5t-216 -533.5t-530 -212q-311 0 -527 212t-216 533.5zM375 717q0 -205 125 -335t321 -130q199 0 324 130t125 335q0 207 -125 336t-324 129q-197 0 -321.5 -129t-124.5 -336zM442 1638l383 326 l381 -326l-137 -141l-244 203l-243 -203z" />
<glyph unicode="&#xd5;" d="M78 716.5q0 321.5 216 533.5t527 212q313 0 529.5 -212t216.5 -533.5t-216 -533.5t-530 -212q-311 0 -527 212t-216 533.5zM375 717q0 -205 125 -335t321 -130q199 0 324 130t125 335q0 207 -125 336t-324 129q-197 0 -321.5 -129t-124.5 -336zM375 1561q0 123 83 203.5 t208 80.5q63 0 120.5 -31.5t102.5 -62.5t82 -31q41 0 67.5 26t26.5 64h223q0 -123 -82 -202.5t-209 -79.5q-76 0 -170 61.5t-135 61.5t-67.5 -26t-26.5 -64h-223z" />
<glyph unicode="&#xd6;" d="M78 716.5q0 321.5 216 533.5t527 212q313 0 529.5 -212t216.5 -533.5t-216 -533.5t-530 -212q-311 0 -527 212t-216 533.5zM375 717q0 -205 125 -335t321 -130q199 0 324 130t125 335q0 207 -125 336t-324 129q-197 0 -321.5 -129t-124.5 -336zM424 1704q0 55 40 94 t97 39q55 0 94 -39t39 -94q0 -57 -39 -95t-94 -38q-59 0 -98 38t-39 95zM954 1704q0 55 39 94t97 39q55 0 94 -39t39 -94q0 -57 -39 -95t-94 -38q-57 0 -96.5 38t-39.5 95z" />
<glyph unicode="&#xd7;" horiz-adv-x="1429" d="M270 467l254 254l-254 254l189 188l256 -252l258 256l188 -190l-256 -256l256 -258l-190 -189l-256 256l-254 -254z" />
<glyph unicode="&#xd8;" d="M78 717q0 322 216 533.5t527 211.5q188 0 353 -84l75 99l203 -152l-78 -100q193 -209 193 -508q0 -322 -216 -534t-530 -212q-182 0 -342 80l-76 -98l-202 151l73 99q-196 213 -196 514zM375 717q0 -162 80 -281l544 713q-86 33 -178 33q-197 0 -321.5 -129t-124.5 -336z M653 281q80 -29 168 -29q199 0 324 130t125 335q0 158 -74 272z" />
<glyph unicode="&#xd9;" horiz-adv-x="1515" d="M139 623v811h285v-807q0 -389 334 -389q332 0 332 389v807h286v-811q0 -311 -166 -481.5t-452 -170.5q-289 0 -454 170.5t-165 481.5zM381 1708l100 195l471 -254l-82 -152z" />
<glyph unicode="&#xda;" horiz-adv-x="1515" d="M139 623v811h285v-807q0 -389 334 -389q332 0 332 389v807h286v-811q0 -311 -166 -481.5t-452 -170.5q-289 0 -454 170.5t-165 481.5zM522 1649l473 254l99 -195l-488 -211z" />
<glyph unicode="&#xdb;" horiz-adv-x="1515" d="M139 623v811h285v-807q0 -389 334 -389q332 0 332 389v807h286v-811q0 -311 -166 -481.5t-452 -170.5q-289 0 -454 170.5t-165 481.5zM371 1638l383 326l381 -326l-138 -141l-243 203l-244 -203z" />
<glyph unicode="&#xdc;" horiz-adv-x="1515" d="M139 623v811h285v-807q0 -389 334 -389q332 0 332 389v807h286v-811q0 -311 -166 -481.5t-452 -170.5q-289 0 -454 170.5t-165 481.5zM352 1704q0 55 40 94t97 39q55 0 94.5 -39t39.5 -94q0 -57 -39 -95t-95 -38q-59 0 -98 38t-39 95zM883 1704q0 55 39 94t96 39 q55 0 94 -39t39 -94q0 -57 -39 -95t-94 -38q-57 0 -96 38t-39 95z" />
<glyph unicode="&#xdd;" horiz-adv-x="1435" d="M25 1434h319l295 -412q72 -106 78 -107h2q6 0 78 107l293 412h321l-553 -777v-657h-283v657zM479 1649l473 254l99 -195l-488 -211z" />
<glyph unicode="&#xde;" horiz-adv-x="1302" d="M170 0v1434h285v-236h241q238 0 386.5 -134t148.5 -345t-148.5 -345t-386.5 -134h-241v-240h-285zM455 506h247q106 0 169 58.5t63 154.5q0 94 -62.5 153.5t-169.5 57.5h-247v-424z" />
<glyph unicode="&#xdf;" horiz-adv-x="1658" d="M170 0v1434h1274l-215 -402q-100 -190 -101 -192l2 -2h11q182 2 311 -120t129 -296q0 -193 -136 -322t-362 -129q-162 0 -294 76t-203 203l270 74q84 -111 213 -111q109 0 167 60.5t58 152.5q0 86 -60 145.5t-171 59.5h-207v207l94 186q12 27 30.5 63.5t31.5 59.5l10 22 l-2 2h-8q-8 0 -21.5 -1t-30 -2t-37.5 -1h-42h-426v-1167h-285z" />
<glyph unicode="&#xe0;" horiz-adv-x="1472" d="M12 0l590 1434h268l590 -1434h-307l-106 274h-621l-107 -274h-307zM356 1708l101 195l471 -254l-82 -152zM524 526h424l-141 363q-12 35 -29.5 85t-27.5 83l-13 30h-2l-10 -30q-12 -33 -29.5 -83t-29.5 -85z" />
<glyph unicode="&#xe1;" horiz-adv-x="1472" d="M12 0l590 1434h268l590 -1434h-307l-106 274h-621l-107 -274h-307zM498 1649l473 254l98 -195l-487 -211zM524 526h424l-141 363q-12 35 -29.5 85t-27.5 83l-13 30h-2l-10 -30q-12 -33 -29.5 -83t-29.5 -85z" />
<glyph unicode="&#xe2;" horiz-adv-x="1472" d="M12 0l590 1434h268l590 -1434h-307l-106 274h-621l-107 -274h-307zM346 1638l383 326l381 -326l-137 -141l-244 203l-244 -203zM524 526h424l-141 363q-12 35 -29.5 85t-27.5 83l-13 30h-2l-10 -30q-12 -33 -29.5 -83t-29.5 -85z" />
<glyph unicode="&#xe3;" horiz-adv-x="1472" d="M12 0l590 1434h268l590 -1434h-307l-106 274h-621l-107 -274h-307zM279 1561q0 123 82.5 203.5t207.5 80.5q63 0 121 -31.5t103 -62.5t81 -31q41 0 68 26t27 64h223q0 -123 -82 -202.5t-209 -79.5q-78 0 -172 61.5t-133 61.5q-41 0 -67.5 -26t-26.5 -64h-223zM524 526 h424l-141 363q-12 35 -29.5 85t-27.5 83l-13 30h-2l-10 -30q-12 -33 -29.5 -83t-29.5 -85z" />
<glyph unicode="&#xe4;" horiz-adv-x="1472" d="M12 0l590 1434h268l590 -1434h-307l-106 274h-621l-107 -274h-307zM328 1704q0 55 40 94t97 39q55 0 94 -39t39 -94q0 -57 -39 -95t-94 -38q-59 0 -98 38t-39 95zM524 526h424l-141 363q-12 35 -29.5 85t-27.5 83l-13 30h-2l-10 -30q-12 -33 -29.5 -83t-29.5 -85z M858 1704q0 55 39 94t96 39q55 0 94 -39t39 -94q0 -57 -38.5 -95t-94.5 -38q-57 0 -96 38t-39 95z" />
<glyph unicode="&#xe5;" horiz-adv-x="1472" d="M12 0l588 1430q-66 37 -105.5 102t-39.5 143q0 115 83 197t197.5 82t197.5 -82t83 -197q0 -76 -40 -141.5t-104 -101.5l588 -1432h-307l-106 274h-621l-107 -274h-307zM524 526h424l-141 363q-12 35 -29.5 85t-27.5 83l-13 30h-2l-10 -30q-12 -33 -29.5 -83t-29.5 -85z M623 1675q0 -45 33.5 -77.5t78.5 -32.5q47 0 81 32.5t34 77.5q0 49 -34 83t-81 34q-45 0 -78.5 -34t-33.5 -83z" />
<glyph unicode="&#xe6;" horiz-adv-x="2074" d="M12 0l596 1434h1315v-267h-727v-305h576v-250h-576v-346h739v-266h-1017v274h-488l-108 -274h-310zM528 526h390v641h-146l-18 -47q-16 -47 -46 -127t-46 -123z" />
<glyph unicode="&#xe7;" horiz-adv-x="1548" d="M78 717q0 322 216 533.5t527 211.5q209 0 382 -102.5t270 -276.5l-291 -75q-57 80 -155.5 127t-205.5 47q-201 0 -323.5 -130t-122.5 -335q0 -207 126 -334t320 -127q121 0 226.5 58.5t160.5 152.5l287 -76q-84 -178 -247 -290.5t-367 -127.5l-31 -84q90 2 154.5 -55 t64.5 -151q0 -109 -66.5 -163.5t-171.5 -54.5h-217l60 152h157q78 0 78 64q0 59 -78 63h-188l80 233q-279 35 -462 241t-183 499z" />
<glyph unicode="&#xe8;" horiz-adv-x="1335" d="M170 0v1434h1014v-267h-729v-305h575v-250h-575v-346h741v-266h-1026zM322 1708l100 195l471 -254l-82 -152z" />
<glyph unicode="&#xe9;" horiz-adv-x="1335" d="M170 0v1434h1014v-267h-729v-305h575v-250h-575v-346h741v-266h-1026zM463 1649l473 254l98 -195l-487 -211z" />
<glyph unicode="&#xea;" horiz-adv-x="1335" d="M170 0v1434h1014v-267h-729v-305h575v-250h-575v-346h741v-266h-1026zM311 1638l383 326l381 -326l-137 -141l-244 203l-243 -203z" />
<glyph unicode="&#xeb;" horiz-adv-x="1335" d="M170 0v1434h1014v-267h-729v-305h575v-250h-575v-346h741v-266h-1026zM293 1704q0 55 40 94t97 39q55 0 94 -39t39 -94q0 -57 -39 -95t-94 -38q-59 0 -98 38t-39 95zM823 1704q0 55 39 94t96 39q55 0 94.5 -39t39.5 -94q0 -57 -39 -95t-95 -38q-57 0 -96 38t-39 95z" />
<glyph unicode="&#xec;" horiz-adv-x="624" d="M-66 1708l101 195l471 -254l-82 -152zM170 0v1434h285v-1434h-285z" />
<glyph unicode="&#xed;" horiz-adv-x="624" d="M76 1649l473 254l98 -195l-487 -211zM170 0v1434h285v-1434h-285z" />
<glyph unicode="&#xee;" horiz-adv-x="624" d="M-76 1638l383 326l381 -326l-137 -141l-244 203l-244 -203zM170 0v1434h285v-1434h-285z" />
<glyph unicode="&#xef;" horiz-adv-x="624" d="M-94 1704q0 55 40 94t97 39q55 0 94 -39t39 -94q0 -57 -39 -95t-94 -38q-59 0 -98 38t-39 95zM170 0v1434h285v-1434h-285zM436 1704q0 55 39 94t96 39q55 0 94.5 -39t39.5 -94q0 -57 -39 -95t-95 -38q-57 0 -96 38t-39 95z" />
<glyph unicode="&#xf0;" horiz-adv-x="1630" d="M78 598v256h115v580h618q313 0 527 -203t214 -520q0 -315 -213 -513t-524 -198h-622v598h-115zM477 266h338q186 0 314 121t128 323.5t-130 329.5t-316 127h-334v-313h268v-256h-268v-332z" />
<glyph unicode="&#xf1;" horiz-adv-x="1589" d="M170 0v1434h268l416 -560q43 -55 113.5 -152t117.5 -165l50 -68h2v70q0 45 -1 175t-1 231v469h284v-1434h-268l-408 553q-55 76 -128.5 178.5t-116.5 161.5l-43 61h-2v-64q0 -38 1 -173t1 -254v-463h-285zM340 1561q0 123 83 203.5t208 80.5q63 0 120.5 -31.5 t102.5 -62.5t82 -31q41 0 67.5 26t26.5 64h223q0 -123 -81.5 -202.5t-208.5 -79.5q-78 0 -172.5 61.5t-133.5 61.5q-41 0 -67.5 -26t-26.5 -64h-223z" />
<glyph unicode="&#xf2;" d="M78 716.5q0 321.5 216 533.5t527 212q313 0 529.5 -212t216.5 -533.5t-216 -533.5t-530 -212q-311 0 -527 212t-216 533.5zM375 717q0 -205 125 -335t321 -130q199 0 324 130t125 335q0 207 -125 336t-324 129q-197 0 -321.5 -129t-124.5 -336zM449 1708l100 195 l471 -254l-82 -152z" />
<glyph unicode="&#xf3;" d="M78 716.5q0 321.5 216 533.5t527 212q313 0 529.5 -212t216.5 -533.5t-216 -533.5t-530 -212q-311 0 -527 212t-216 533.5zM375 717q0 -205 125 -335t321 -130q199 0 324 130t125 335q0 207 -125 336t-324 129q-197 0 -321.5 -129t-124.5 -336zM590 1649l473 254l98 -195 l-487 -211z" />
<glyph unicode="&#xf4;" d="M78 716.5q0 321.5 216 533.5t527 212q313 0 529.5 -212t216.5 -533.5t-216 -533.5t-530 -212q-311 0 -527 212t-216 533.5zM375 717q0 -205 125 -335t321 -130q199 0 324 130t125 335q0 207 -125 336t-324 129q-197 0 -321.5 -129t-124.5 -336zM438 1638l383 326 l381 -326l-137 -141l-244 203l-243 -203z" />
<glyph unicode="&#xf5;" d="M78 716.5q0 321.5 216 533.5t527 212q313 0 529.5 -212t216.5 -533.5t-216 -533.5t-530 -212q-311 0 -527 212t-216 533.5zM371 1561q0 123 83 203.5t208 80.5q63 0 120.5 -31.5t102.5 -62.5t82 -31q41 0 67.5 26t26.5 64h223q0 -123 -82 -202.5t-209 -79.5 q-76 0 -170 61.5t-135 61.5t-67.5 -26t-26.5 -64h-223zM375 717q0 -205 125 -335t321 -130q199 0 324 130t125 335q0 207 -125 336t-324 129q-197 0 -321.5 -129t-124.5 -336z" />
<glyph unicode="&#xf6;" d="M78 716.5q0 321.5 216 533.5t527 212q313 0 529.5 -212t216.5 -533.5t-216 -533.5t-530 -212q-311 0 -527 212t-216 533.5zM375 717q0 -205 125 -335t321 -130q199 0 324 130t125 335q0 207 -125 336t-324 129q-197 0 -321.5 -129t-124.5 -336zM420 1704q0 55 40 94 t97 39q55 0 94 -39t39 -94q0 -57 -39 -95t-94 -38q-59 0 -98 38t-39 95zM950 1704q0 55 39 94t96 39q55 0 94.5 -39t39.5 -94q0 -57 -39 -95t-95 -38q-57 0 -96 38t-39 95z" />
<glyph unicode="&#xf7;" horiz-adv-x="1429" d="M246 610v234h936v-234h-936zM561 270q0 57 41 98.5t100 41.5q57 0 99.5 -41t42.5 -99q0 -59 -41 -100t-100.5 -41t-100.5 41t-41 100zM561 1188q0 57 41 98t100 41q57 0 99.5 -41t42.5 -98q0 -59 -41 -100t-100.5 -41t-100.5 41t-41 100z" />
<glyph unicode="&#xf8;" d="M78 717q0 322 216 533.5t527 211.5q188 0 353 -84l75 99l203 -152l-78 -100q193 -209 193 -508q0 -322 -216 -534t-530 -212q-182 0 -342 80l-76 -98l-202 151l73 99q-196 213 -196 514zM375 717q0 -162 80 -281l544 713q-86 33 -178 33q-197 0 -321.5 -129t-124.5 -336z M653 281q80 -29 168 -29q199 0 324 130t125 335q0 158 -74 272z" />
<glyph unicode="&#xf9;" horiz-adv-x="1515" d="M139 623v811h285v-807q0 -389 334 -389q332 0 332 389v807h286v-811q0 -311 -166 -481.5t-452 -170.5q-289 0 -454 170.5t-165 481.5zM381 1708l100 195l471 -254l-82 -152z" />
<glyph unicode="&#xfa;" horiz-adv-x="1515" d="M139 623v811h285v-807q0 -389 334 -389q332 0 332 389v807h286v-811q0 -311 -166 -481.5t-452 -170.5q-289 0 -454 170.5t-165 481.5zM522 1649l473 254l99 -195l-488 -211z" />
<glyph unicode="&#xfb;" horiz-adv-x="1515" d="M139 623v811h285v-807q0 -389 334 -389q332 0 332 389v807h286v-811q0 -311 -166 -481.5t-452 -170.5q-289 0 -454 170.5t-165 481.5zM371 1638l383 326l381 -326l-138 -141l-243 203l-244 -203z" />
<glyph unicode="&#xfc;" horiz-adv-x="1515" d="M139 623v811h285v-807q0 -389 334 -389q332 0 332 389v807h286v-811q0 -311 -166 -481.5t-452 -170.5q-289 0 -454 170.5t-165 481.5zM352 1704q0 55 40 94t97 39q55 0 94.5 -39t39.5 -94q0 -57 -39 -95t-95 -38q-59 0 -98 38t-39 95zM883 1704q0 55 39 94t96 39 q55 0 94 -39t39 -94q0 -57 -39 -95t-94 -38q-57 0 -96 38t-39 95z" />
<glyph unicode="&#xfd;" horiz-adv-x="1435" d="M25 1434h319l295 -412q72 -106 78 -107h2q6 0 78 107l293 412h321l-553 -777v-657h-283v657zM481 1649l473 254l99 -195l-488 -211z" />
<glyph unicode="&#xfe;" horiz-adv-x="1302" d="M170 0v1434h285v-236h241q238 0 386.5 -134t148.5 -345t-148.5 -345t-386.5 -134h-241v-240h-285zM455 506h247q106 0 169 58.5t63 154.5q0 94 -62.5 153.5t-169.5 57.5h-247v-424z" />
<glyph unicode="&#xff;" horiz-adv-x="1435" d="M25 1434h319l295 -412q72 -106 78 -107h2q6 0 78 107l293 412h321l-553 -777v-657h-283v657zM311 1704q0 55 40 94t98 39q55 0 94 -39t39 -94q0 -57 -39 -95t-94 -38q-59 0 -98.5 38t-39.5 95zM842 1704q0 55 39 94t96 39q55 0 94 -39t39 -94q0 -57 -39 -95t-94 -38 q-57 0 -96 38t-39 95z" />
<glyph unicode="&#x152;" horiz-adv-x="2140" d="M78 716.5q0 315.5 208 520.5t515 205q121 0 182 -8h1006v-267h-727v-305h575v-250h-575v-346h739v-266h-1018q-57 -8 -182 -8q-307 0 -515 204.5t-208 520zM375 717q0 -201 116.5 -323t309.5 -122q111 0 182 33v823q-72 33 -182 33q-193 0 -309.5 -120.5t-116.5 -323.5z " />
<glyph unicode="&#x153;" horiz-adv-x="2140" d="M78 716.5q0 315.5 208 520.5t515 205q121 0 182 -8h1006v-267h-727v-305h575v-250h-575v-346h739v-266h-1018q-57 -8 -182 -8q-307 0 -515 204.5t-208 520zM375 717q0 -201 116.5 -323t309.5 -122q111 0 182 33v823q-72 33 -182 33q-193 0 -309.5 -120.5t-116.5 -323.5z " />
<glyph unicode="&#x178;" horiz-adv-x="1435" d="M25 1434h319l295 -412q72 -106 78 -107h2q6 0 78 107l293 412h321l-553 -777v-657h-283v657zM309 1704q0 55 40 94t97 39q55 0 94.5 -39t39.5 -94q0 -57 -39 -95t-95 -38q-59 0 -98 38t-39 95zM840 1704q0 55 39 94t96 39q55 0 94 -39t39 -94q0 -57 -39 -95t-94 -38 q-57 0 -96 38t-39 95z" />
<glyph unicode="&#x2c6;" horiz-adv-x="774" d="M-23 1638l383 326l381 -326l-137 -141l-244 203l-243 -203z" />
<glyph unicode="&#x2dc;" horiz-adv-x="989" d="M12 1561q0 123 82 203.5t209 80.5q82 0 174 -62.5t131 -62.5t65.5 26t26.5 64h224q0 -123 -82 -202.5t-209 -79.5q-76 0 -170 61.5t-135 61.5t-68 -26t-27 -64h-221z" />
<glyph unicode="&#x2000;" horiz-adv-x="980" />
<glyph unicode="&#x2001;" horiz-adv-x="1964" />
<glyph unicode="&#x2002;" horiz-adv-x="980" />
<glyph unicode="&#x2003;" horiz-adv-x="1964" />
<glyph unicode="&#x2004;" horiz-adv-x="653" />
<glyph unicode="&#x2005;" horiz-adv-x="489" />
<glyph unicode="&#x2006;" horiz-adv-x="325" />
<glyph unicode="&#x2007;" horiz-adv-x="325" />
<glyph unicode="&#x2008;" horiz-adv-x="243" />
<glyph unicode="&#x2009;" horiz-adv-x="391" />
<glyph unicode="&#x200a;" horiz-adv-x="108" />
<glyph unicode="&#x2010;" horiz-adv-x="1273" d="M170 610v234h934v-234h-934z" />
<glyph unicode="&#x2011;" horiz-adv-x="1273" d="M170 610v234h934v-234h-934z" />
<glyph unicode="&#x2012;" horiz-adv-x="1273" d="M170 610v234h934v-234h-934z" />
<glyph unicode="&#x2013;" horiz-adv-x="1210" d="M170 592v268h870v-268h-870z" />
<glyph unicode="&#x2014;" horiz-adv-x="2111" d="M170 592v268h1772v-268h-1772z" />
<glyph unicode="&#x2018;" horiz-adv-x="657" d="M170 1092q0 92 60.5 193t148.5 173h108q-51 -35 -97 -114.5t-46 -133.5l-27 -8l27 -2q43 -6 77 -40t34 -89q0 -59 -42 -100t-101.5 -41t-100.5 45t-41 117z" />
<glyph unicode="&#x2019;" horiz-adv-x="657" d="M170 930q51 37 97 115.5t46 132.5l27 8l-27 4q-43 6 -76.5 40t-33.5 89q0 57 42 98t101.5 41t100 -44t40.5 -116q0 -92 -60 -193t-148 -175h-109z" />
<glyph unicode="&#x201a;" horiz-adv-x="657" d="M170 -270q51 37 97 115.5t46 131.5l27 9l-27 4q-43 6 -76.5 39.5t-33.5 89.5q0 57 42 98t101.5 41t100 -44t40.5 -116q0 -92 -60 -193.5t-148 -174.5h-109z" />
<glyph unicode="&#x201c;" horiz-adv-x="1095" d="M170 1092q0 92 60.5 193t148.5 173h108q-51 -35 -97 -114.5t-46 -133.5l-27 -8l27 -2q43 -6 77 -40t34 -89q0 -59 -42 -100t-101.5 -41t-100.5 45t-41 117zM610 1092q0 92 60.5 193t148.5 173h107q-51 -35 -96.5 -114.5t-45.5 -133.5l-28 -8l28 -2q41 -6 75 -41t34 -88 q0 -59 -42 -100t-101.5 -41t-99.5 45t-40 117z" />
<glyph unicode="&#x201d;" horiz-adv-x="1095" d="M170 930q51 37 97 115.5t46 132.5l27 8l-27 4q-43 6 -76.5 40t-33.5 89q0 57 42 98t101.5 41t100 -44t40.5 -116q0 -92 -60 -193t-148 -175h-109zM610 930q51 37 96.5 115.5t45.5 132.5l26 8l-26 4q-43 4 -76 39t-33 90q0 57 42 98t101 41q57 0 98.5 -45t41.5 -115 q0 -92 -60.5 -193t-148.5 -175h-107z" />
<glyph unicode="&#x201e;" horiz-adv-x="1087" d="M170 -270q51 37 97 115.5t46 131.5l27 9l-27 4q-43 6 -76.5 39.5t-33.5 89.5q0 57 42 98t101.5 41t100 -44t40.5 -116q0 -92 -59 -192.5t-149 -175.5h-109zM600 -270q51 37 97 115.5t46 131.5l27 9l-27 4q-43 6 -76.5 39.5t-33.5 89.5q0 57 42 98t101.5 41t100.5 -44 t41 -116q0 -92 -59.5 -192.5t-149.5 -175.5h-109z" />
<glyph unicode="&#x2022;" horiz-adv-x="821" d="M170 727q0 98 70.5 169t171.5 71q98 0 167.5 -71t69.5 -169q0 -100 -69.5 -171t-167.5 -71q-100 0 -171 71t-71 171z" />
<glyph unicode="&#x2026;" horiz-adv-x="1564" d="M123 90q0 47 35 81t82 34t81.5 -34t34.5 -81q0 -49 -34.5 -83t-81.5 -34q-49 0 -83 34t-34 83zM655 90q0 47 35 81t82 34t82 -34t35 -81q0 -49 -35 -83t-82 -34q-49 0 -83 34t-34 83zM1208 90q0 47 35 81t82 34t82 -34t35 -81q0 -49 -35 -83t-82 -34q-49 0 -83 34t-34 83 z" />
<glyph unicode="&#x202f;" horiz-adv-x="391" />
<glyph unicode="&#x2039;" horiz-adv-x="978" d="M170 721l481 -481l158 157l-336 324l334 323l-154 156z" />
<glyph unicode="&#x203a;" horiz-adv-x="978" d="M170 397l338 324l-336 323l154 156l483 -479l-481 -481z" />
<glyph unicode="&#x205f;" horiz-adv-x="489" />
<glyph unicode="&#x20ac;" horiz-adv-x="1642" d="M78 494v188h100v35v35h-98v186h129q70 233 263.5 376.5t445.5 143.5q209 0 380.5 -101.5t266.5 -275.5l-289 -71q-57 80 -151.5 126t-204.5 46q-133 0 -243 -65.5t-167 -178.5h430v-186h-481q-2 -12 -2 -35t2 -35h481v-188h-428q59 -111 167.5 -174.5t240.5 -63.5 q123 0 226 56.5t159 152.5l284 -72q-88 -193 -268 -305.5t-403 -112.5q-250 0 -444.5 142.5t-264.5 376.5h-131z" />
<glyph unicode="&#x2122;" horiz-adv-x="1611" d="M29 1266v168h610v-168h-219v-498h-172v498h-219zM743 768v666h162l129 -203q20 -31 36.5 -62.5t23.5 -46.5l6 -16h2l8 16q6 14 22.5 46t36.5 63l129 203h160v-666h-168v217q0 45 3 91t5 67v22h-2q-4 0 -77 -116l-80 -125h-76l-78 125q-76 117 -78 116h-2v-22 q2 -20 4 -66.5t2 -91.5v-217h-168z" />
<glyph unicode="&#xe000;" horiz-adv-x="1435" d="M0 1435h1435v-1435h-1435v1435z" />
<glyph unicode="&#xfb01;" horiz-adv-x="1859" d="M1405 0v1434h285v-1434h-285zM170 0v1434h993v-267h-708v-350h555v-256h-555v-561h-285z" />
<glyph unicode="&#xfb02;" horiz-adv-x="2439" d="M1405 0v1434h285v-1168h708v-266h-993zM170 0v1434h993v-267h-708v-350h555v-256h-555v-561h-285z" />
<glyph unicode="&#xfb03;" horiz-adv-x="3094" d="M2640 0v1434h285v-1434h-285zM1405 0v1434h993v-267h-708v-350h555v-256h-555v-561h-285zM170 0v1434h993v-267h-708v-350h555v-256h-555v-561h-285z" />
<glyph unicode="&#xfb04;" horiz-adv-x="3674" d="M2640 0v1434h285v-1168h708v-266h-993zM1405 0v1434h993v-267h-708v-350h555v-256h-555v-561h-285zM170 0v1434h993v-267h-708v-350h555v-256h-555v-561h-285z" />
</font>
</defs>
</svg>
