<?xml version="1.0" standalone="no"?>
<!DOCTYPE svg PUBLIC "-//W3C//DTD SVG 1.1//EN" "http://www.w3.org/Graphics/SVG/1.1/DTD/svg11.dtd" >
<svg xmlns="http://www.w3.org/2000/svg">
<metadata>
This is a custom SVG webfont generated by Font Squirrel.
</metadata>
<defs>
<font id="webfont3besXUxk" horiz-adv-x="550" >
<font-face units-per-em="1000" ascent="800" descent="-200" />
<missing-glyph horiz-adv-x="218" />
<glyph unicode=" "  horiz-adv-x="218" />
<glyph unicode="&#x09;" horiz-adv-x="218" />
<glyph unicode="&#xa0;" horiz-adv-x="218" />
<glyph unicode="!" horiz-adv-x="315" d="M332 708l-118 -520h-108l79 520h147zM214 69q0 -35 -24 -57.5t-58 -22.5q-32 0 -53 21t-21 50q0 35 24 58t58 23q32 0 53 -21.5t21 -50.5z" />
<glyph unicode="&#x22;" horiz-adv-x="397" d="M444 702l-64 -254h-93l32 254h125zM260 702l-65 -254h-93l32 254h126z" />
<glyph unicode="#" d="M572 483l-17 -87h-84l-40 -137h75l-16 -88h-85l-51 -171h-93l51 171h-127l-51 -171h-93l51 171h-76l17 88h85l40 137h-76l17 87h85l49 167h93l-49 -167h127l48 167h93l-48 -167h75zM378 396h-127l-40 -137h127z" />
<glyph unicode="$" d="M495 631l-22 -110q-52 17 -111 17q-52 0 -81 -20t-29 -52q0 -25 22.5 -43t54 -32.5t63.5 -32.5t54.5 -51t22.5 -80q0 -77 -57 -134.5t-145 -72.5l-20 -105h-91l20 100q-51 0 -114 13l23 115q61 -22 126 -22q53 0 86.5 23t33.5 55q0 28 -22 48t-53.5 34.5t-63 32 t-53.5 50.5t-22 81q0 71 53.5 125t137.5 67l17 93h92l-17 -88q57 -3 95 -11z" />
<glyph unicode="%" horiz-adv-x="745" d="M392 546q0 -94 -56 -149t-126 -55q-61 0 -93 31t-32 87q0 92 55.5 146.5t124.5 54.5q61 0 94 -29.5t33 -85.5zM730 609l-612 -631l-68 61l612 631zM699 192q0 -93 -55.5 -148t-125.5 -55q-62 0 -94 30.5t-32 86.5q0 92 56 147t124 55q61 0 94 -29.5t33 -86.5zM297 536 q0 45 -40 45q-33 0 -55.5 -33.5t-22.5 -79.5q0 -45 40 -45q33 0 55.5 33t22.5 80zM604 182q0 45 -39 45q-33 0 -55.5 -33.5t-22.5 -78.5q0 -46 39 -46q33 0 55.5 33.5t22.5 79.5z" />
<glyph unicode="&#x26;" horiz-adv-x="781" d="M743 458q-23 -168 -143 -301q59 -53 114 -92l-88 -87q-59 42 -121 97q-121 -86 -267 -86q-100 0 -150.5 48t-50.5 123q0 74 46 131t125 112q-57 88 -57 149q0 75 60.5 130.5t152.5 55.5q83 0 124 -35t41 -95q0 -61 -41 -110.5t-118 -106.5q59 -77 144 -159q84 97 105 226 h124zM403 592q0 50 -52 50q-32 0 -53 -22t-21 -55t33 -92q31 22 47 36t31 37t15 46zM418 150q-101 103 -150 169q-47 -35 -72.5 -66.5t-25.5 -68.5q0 -38 24 -62t70 -24q82 0 154 52z" />
<glyph unicode="'" horiz-adv-x="211" d="M260 702l-65 -254h-93l32 254h126z" />
<glyph unicode="(" horiz-adv-x="300" d="M389 742q-97 -124 -159 -293.5t-62 -314.5q0 -175 48 -306l-101 -43q-70 161 -70 343q0 162 66 334.5t191 323.5z" />
<glyph unicode=")" horiz-adv-x="300" d="M280 443q0 -162 -65.5 -334t-190.5 -324l-87 44q97 125 159 294.5t62 313.5q0 172 -48 306l100 43q70 -160 70 -343z" />
<glyph unicode="*" horiz-adv-x="377" d="M420 599l-108 -33l91 -47l-59 -74l-71 74l-8 -110l-89 12l38 102l-94 -60l-30 82l108 32l-92 48l60 73l71 -74l7 111l89 -12l-38 -103l95 61z" />
<glyph unicode="+" d="M534 351l-20 -107h-176l-35 -186h-122l36 186h-175l21 107h174l35 185h122l-35 -185h175z" />
<glyph unicode="," horiz-adv-x="253" d="M101 149q49 0 70 -46q10 -21 10 -46q0 -46 -37 -102q-43 -66 -131 -127l-46 53q59 48 75 85q6 15 6 29q0 20 -13 36q-13 18 -13 39q0 18 10 38q22 41 69 41z" />
<glyph unicode="-" horiz-adv-x="330" d="M306 329l-20 -103h-242l20 103h242z" />
<glyph unicode="." horiz-adv-x="256" d="M183 74q0 -36 -25 -60.5t-59 -24.5q-33 0 -56 23.5t-23 54.5q0 36 25 60.5t59 24.5q33 0 56 -23.5t23 -54.5z" />
<glyph unicode="/" horiz-adv-x="454" d="M557 757l-520 -918h-128l521 918h127z" />
<glyph unicode="0" d="M547 460q0 -77 -17.5 -155t-53 -151t-99 -119t-145.5 -46q-95 0 -143 48t-48 153q0 77 17.5 155t53 151t99 119t146.5 46q190 0 190 -201zM412 454q0 52 -16 75.5t-56 23.5q-42 0 -76 -42.5t-52 -103t-27.5 -116t-9.5 -93.5q0 -52 16.5 -75.5t56.5 -23.5q42 0 75.5 42.5 t51.5 103t27.5 116t9.5 93.5z" />
<glyph unicode="1" d="M483 115l-22 -115h-439l22 115h164l76 401l-154 -56l-1 122l211 68h102l-102 -535h143z" />
<glyph unicode="2" d="M518 499q0 -71 -43.5 -136.5t-168.5 -165.5l-93 -75v-1q88 2 183 2h77l-24 -123h-442l21 106l125 103q133 108 175.5 160t42.5 102q0 33 -22.5 53t-67.5 20q-74 0 -147 -46l-7 115q92 48 198 48q95 0 144 -45.5t49 -116.5z" />
<glyph unicode="3" d="M522 520q0 -57 -37.5 -102t-104.5 -63l-1 -3q49 -8 76 -41.5t27 -82.5q0 -40 -18 -79.5t-55 -76.5t-105 -60t-156 -23q-73 0 -123 14l30 111q46 -18 113 -18q83 0 128 34t45 81q0 34 -30 54t-90 20q-56 0 -110 -6l19 99h30q107 0 165 33t58 84q0 60 -92 60 q-68 0 -144 -33l-1 107q89 32 178 32q100 0 149 -37.5t49 -103.5z" />
<glyph unicode="4" d="M519 650l-75 -394h91l-23 -115h-90l-27 -141h-125l26 141h-283l9 108l322 401h175zM372 520h-1l-217 -266q90 2 167 2z" />
<glyph unicode="5" d="M542 650l-23 -120h-253l-24 -128q12 1 38 1q104 0 156 -43t52 -112q0 -114 -93 -186.5t-231 -72.5q-74 0 -129 12l23 116q59 -18 118 -18q76 0 122.5 34.5t46.5 92.5q0 76 -139 76q-64 0 -106 -8l68 356h374z" />
<glyph unicode="6" d="M537 655l-20 -110q-42 7 -77 7q-152 0 -225 -153l-11 -23q-8 -16 -11 -24h1q54 62 148 62q84 0 129 -42.5t45 -114.5q0 -116 -79.5 -192t-200.5 -76q-96 0 -145.5 50.5t-49.5 148.5q0 58 13.5 120t45.5 126t78.5 113.5t118.5 81t159 31.5q53 0 81 -5zM384 231 q0 78 -84 78q-58 0 -94.5 -37.5t-36.5 -90.5q0 -40 22.5 -64t64.5 -24q54 0 91 40t37 98z" />
<glyph unicode="7" d="M580 650l-21 -110q-171 -238 -321 -540h-152q154 298 318 527q-56 -2 -207 -2h-90l24 125h449z" />
<glyph unicode="8" d="M547 523q0 -110 -138 -184q92 -56 92 -134q0 -96 -80.5 -156t-187.5 -60q-100 0 -153.5 38t-53.5 106t40.5 114t112.5 82q-77 51 -77 122q0 87 73 148.5t179 61.5q94 0 143.5 -37t49.5 -101zM415 505q0 26 -19.5 41.5t-56.5 15.5q-48 0 -77 -26t-29 -64q0 -25 19 -43.5 t56 -37.5q59 29 83 54.5t24 59.5zM367 188q0 29 -22.5 48.5t-64.5 40.5q-68 -33 -94 -62.5t-26 -61.5q0 -27 23 -44.5t66 -17.5q50 0 84 26t34 71z" />
<glyph unicode="9" d="M544 463q0 -52 -10.5 -109t-39.5 -124t-73 -118.5t-119.5 -86.5t-170.5 -35q-60 0 -99 7l22 114q39 -13 92 -13q79 0 138 41.5t88 112.5l13 34h-1q-57 -51 -139 -51q-81 0 -128 41t-47 118q0 107 76 187t200 80q198 0 198 -198zM413 472q0 39 -22 62t-62 23 q-56 0 -92 -41.5t-36 -97.5q0 -78 82 -78q53 0 91.5 37t38.5 95z" />
<glyph unicode=":" horiz-adv-x="295" d="M266 357q0 -35 -25 -60t-58 -25t-56.5 23.5t-23.5 54.5q0 36 25 60.5t59 24.5q33 0 56 -23.5t23 -54.5zM212 74q0 -36 -25 -60.5t-58 -24.5t-56.5 23.5t-23.5 54.5q0 36 25 60.5t59 24.5q33 0 56 -23.5t23 -54.5z" />
<glyph unicode=";" horiz-adv-x="295" d="M266 357q0 -35 -25 -60t-58 -25t-56.5 23.5t-23.5 54.5q0 36 25 60.5t59 24.5q33 0 56 -23.5t23 -54.5zM132 149q49 0 70 -46q10 -21 10 -46q0 -46 -37 -102q-43 -66 -131 -127l-46 53q59 48 74 85q6 15 6 29q0 19 -13 36q-12 18 -12 38q0 18 11 39q21 41 68 41z" />
<glyph unicode="&#x3c;" d="M518 507l-276 -208l199 -212l-93 -81l-271 302l366 287z" />
<glyph unicode="=" d="M537 444l-19 -103h-443l19 103h443zM501 253l-19 -103h-443l19 103h443z" />
<glyph unicode="&#x3e;" d="M500 293l-366 -287l-74 88l276 208l-200 212l94 81z" />
<glyph unicode="?" horiz-adv-x="442" d="M449 532q0 -42 -17 -77t-42 -57l-52 -46l-52 -44q-23 -21 -36 -52q-9 -22 -9 -48q0 -10 1 -20h-123q-3 18 -3 35q0 35 11 63q16 44 45.5 71t60 49.5t53 48.5t22.5 54q0 40 -46.5 63t-123.5 29l37 116q134 -7 204 -58.5t70 -126.5zM237 69q0 -35 -24 -57.5t-58 -22.5 q-32 0 -52.5 21t-20.5 50q0 35 23.5 58t57.5 23q32 0 53 -21.5t21 -50.5z" />
<glyph unicode="@" horiz-adv-x="962" d="M899 451q0 -137 -72.5 -229t-195.5 -92q-53 0 -77 27q-20 22 -20 53q0 8 1 16h-3q-21 -37 -62.5 -66.5t-85.5 -29.5q-43 0 -66.5 28.5t-23.5 84.5q0 38 8.5 77.5t28.5 79.5t49 70.5t74.5 50t100.5 19.5q70 0 121 -20l-55 -198q-8 -29 -8 -49q0 -43 40 -43q57 0 94.5 57.5 t37.5 149.5q0 86 -55 141.5t-172 55.5q-104 0 -186.5 -56.5t-125 -144.5t-42.5 -186q0 -107 63.5 -165.5t191.5 -58.5q87 0 177 29l9 -100q-105 -34 -212 -34q-168 0 -257 82.5t-89 229.5q0 133 62 248.5t175 186.5t251 71q158 0 241 -79t83 -206zM560 449q-16 6 -40 6 q-49 0 -86.5 -59t-37.5 -127q0 -40 25 -40q31 0 66.5 45t60.5 131z" />
<glyph unicode="A" horiz-adv-x="614" d="M570 0h-137l-20 138h-250l-72 -138h-133l360 675h144zM400 241l-29 191q-6 40 -10 94h-1q-23 -55 -43 -93l-102 -192h185z" />
<glyph unicode="B" horiz-adv-x="568" d="M566 542q0 -131 -128 -184v-1q41 -10 65 -44.5t24 -78.5q0 -100 -82.5 -168t-220.5 -68q-17 0 -84 1t-114 1l128 674q93 5 213 5q199 0 199 -137zM427 512q0 62 -93 62q-27 0 -71 -2l-34 -176q15 -1 46 -1q70 0 111 31.5t41 85.5zM390 225q0 73 -111 73q-55 0 -69 -1 l-35 -189q28 -4 65 -4q70 0 110 35t40 86z" />
<glyph unicode="C" horiz-adv-x="549" d="M587 662l-35 -119q-61 22 -121 22q-63 0 -111.5 -29.5t-75 -77.5t-39.5 -100t-13 -106q0 -69 33 -105.5t111 -36.5q71 0 137 28l-1 -118q-84 -28 -174 -28q-73 0 -125 20.5t-78 56.5t-37 74.5t-11 84.5q0 87 26 167.5t74 144.5t125 102.5t172 38.5q74 0 143 -19z" />
<glyph unicode="D" horiz-adv-x="654" d="M651 435q0 -86 -27.5 -164t-80 -140t-137 -98.5t-189.5 -36.5q-51 0 -191 5l128 673q130 5 211 5q142 0 214 -62.5t72 -181.5zM512 422q0 72 -38 110t-129 38q-53 0 -84 -3l-86 -455q28 -5 61 -5q73 0 128.5 30.5t86.5 79t46 101t15 104.5z" />
<glyph unicode="E" horiz-adv-x="482" d="M513 675l-20 -109h-232l-32 -166h221l-21 -106h-220l-34 -183h231l-21 -111h-359l128 675h359z" />
<glyph unicode="F" horiz-adv-x="456" d="M508 675l-21 -110h-226l-33 -174h214l-21 -107h-213l-54 -284h-128l128 675h354z" />
<glyph unicode="G" horiz-adv-x="661" d="M671 658l-38 -123q-80 34 -167 34q-127 0 -203.5 -89t-76.5 -216q0 -68 40 -112.5t126 -44.5q49 0 96 13l45 234h127l-62 -324q-108 -40 -229 -40q-140 0 -210.5 69.5t-70.5 188.5q0 189 122 313t308 124q104 0 193 -27z" />
<glyph unicode="H" horiz-adv-x="673" d="M689 675l-128 -675h-128l56 293h-280l-56 -293h-128l128 675h128l-51 -270h280l51 270h128z" />
<glyph unicode="I" horiz-adv-x="265" d="M282 675l-128 -675h-128l128 675h128z" />
<glyph unicode="J" horiz-adv-x="327" d="M346 675l-95 -498q-34 -186 -214 -186q-38 0 -80 8l22 112q23 -10 54 -10q77 0 94 90l92 484h127z" />
<glyph unicode="K" horiz-adv-x="573" d="M639 675l-295 -336l169 -339h-159l-139 324l-62 -324h-127l128 675h127l-58 -306l253 306h163z" />
<glyph unicode="L" horiz-adv-x="420" d="M390 114l-22 -114h-342l128 675h128l-107 -561h215z" />
<glyph unicode="M" horiz-adv-x="862" d="M814 675l-24 -675h-133l13 320q5 105 11 163h-2q-24 -65 -63 -144l-170 -339h-125l-40 315q-10 83 -10 155v13h-1q-29 -100 -52 -172l-97 -311h-133l230 675h147l44 -347q7 -58 9 -142h2q25 65 64 140l178 349h152z" />
<glyph unicode="N" horiz-adv-x="672" d="M690 675l-129 -675h-149l-130 337q-28 74 -46 147q-12 -96 -31 -193l-55 -291h-124l128 675h151l126 -319q23 -58 51 -160q12 94 32 200l51 279h125z" />
<glyph unicode="O" horiz-adv-x="689" d="M688 439q0 -193 -115 -321.5t-279 -128.5q-125 0 -187.5 64t-62.5 182q0 185 114.5 318t280.5 133q121 0 185 -64t64 -183zM551 424q0 68 -33.5 106.5t-99.5 38.5q-104 0 -170.5 -93t-66.5 -219q0 -72 34 -111t97 -39q101 0 170 93t69 224z" />
<glyph unicode="P" horiz-adv-x="520" d="M547 507q0 -114 -88.5 -192.5t-215.5 -78.5q-13 0 -45 2l-45 -238h-127l128 675q73 4 182 4q99 0 155 -44.5t56 -127.5zM414 490q0 83 -100 83q-37 0 -52 -1l-42 -224q11 -3 36 -3q65 0 111.5 42.5t46.5 102.5z" />
<glyph unicode="Q" horiz-adv-x="690" d="M688 439q0 -193 -115 -321.5t-279 -128.5q-125 0 -187.5 64t-62.5 182q0 186 113 318.5t280 132.5q122 0 186.5 -64t64.5 -183zM627 -89l-21 -110q-55 -7 -94 -7q-33 0 -54 5q-46 11 -110 23q-40 8 -78 8q-25 0 -49 -3l20 111q32 4 61 4q39 0 74 -7l121 -23q31 -6 65 -6 q31 0 65 5zM551 424q0 68 -33.5 106.5t-99.5 38.5q-104 0 -170.5 -93t-66.5 -219q0 -72 34 -111t97 -39q101 0 170 93t69 224z" />
<glyph unicode="R" horiz-adv-x="555" d="M553 525q0 -87 -57 -147.5t-149 -81.5l36 -74l110 -222h-150l-126 279h-10l-53 -279h-128l128 675q71 4 187 4q212 0 212 -154zM417 501q0 72 -97 72q-38 0 -58 -3l-37 -195q18 -2 44 -2q65 0 106.5 35.5t41.5 92.5z" />
<glyph unicode="S" horiz-adv-x="460" d="M463 677l-22 -115q-47 16 -95 16q-61 0 -91.5 -25.5t-30.5 -62.5q0 -28 20 -51t49 -41.5t57.5 -39.5t48.5 -55.5t20 -79.5q0 -99 -79.5 -166.5t-201.5 -67.5q-74 0 -122 15l23 123q51 -24 108 -24q64 0 98 26t34 72q0 23 -14.5 42.5t-35.5 32.5t-46.5 31t-46.5 36 t-35.5 48.5t-14.5 68.5q0 97 70 161.5t196 64.5q62 0 111 -9z" />
<glyph unicode="T" horiz-adv-x="500" d="M570 675l-20 -111h-171l-108 -564h-127l107 564h-171l21 111h469z" />
<glyph unicode="U" horiz-adv-x="667" d="M684 675l-82 -427q-49 -259 -316 -259q-221 0 -221 184q0 34 7 74l81 428h128l-84 -438q-5 -25 -5 -45q0 -38 16 -60q25 -35 96 -35q76 0 117 38t57 124l80 416h126z" />
<glyph unicode="V" horiz-adv-x="616" d="M698 675l-360 -675h-148l-101 675h134l55 -395q9 -68 12 -132h2q26 64 67 140l203 387h136z" />
<glyph unicode="W" horiz-adv-x="934" d="M995 675l-297 -675h-157l-26 372q-2 20 -2 47q0 39 4 92h-1q-21 -71 -50 -136l-168 -375h-149l-39 675h130l21 -374q1 -15 1 -33q0 -44 -4 -103h1q35 99 51 133l172 377h136l32 -375q3 -37 3 -73q0 -30 -2 -59h1q22 70 48 130l162 377h133z" />
<glyph unicode="X" horiz-adv-x="615" d="M669 675l-261 -333l152 -342h-154l-96 248l-189 -248h-155l279 348l-135 327h142l91 -233l176 233h150z" />
<glyph unicode="Y" d="M633 675l-294 -436l-45 -239h-127l45 238l-124 437h134l51 -194q15 -61 24 -112h2q21 39 77 125l116 181h141z" />
<glyph unicode="Z" horiz-adv-x="520" d="M558 675l-19 -104l-318 -406q-20 -27 -39 -47q16 2 142 2h133l-23 -120h-433l19 100l303 396q21 28 55 64q-48 -2 -118 -2h-144l21 117h421z" />
<glyph unicode="[" horiz-adv-x="321" d="M391 777l-20 -101h-97l-149 -778h98l-19 -103h-215l187 982h215z" />
<glyph unicode="\" horiz-adv-x="470" d="M401 -161h-115l-176 918h114z" />
<glyph unicode="]" horiz-adv-x="321" d="M357 777l-187 -982h-216l19 103h98l148 778h-98l20 101h216z" />
<glyph unicode="^" d="M504 383l-96 -46l-80 247l-171 -247l-78 45l217 293h97z" />
<glyph unicode="_" d="M484 -144l-20 -102h-550l20 102h550z" />
<glyph unicode="`" horiz-adv-x="366" d="M360 628l-52 -68l-172 111l62 83z" />
<glyph unicode="a" horiz-adv-x="542" d="M525 491q-78 -407 -91 -491h-124q13 55 47 158h-2q-93 -169 -208 -169q-117 0 -117 155q0 72 19.5 136t57.5 115t100.5 81t141.5 30q100 0 176 -15zM383 399q-28 7 -56 7q-54 0 -94 -38.5t-57 -91t-17 -108.5q0 -69 38 -69q50 0 107 91t73 177z" />
<glyph unicode="b" horiz-adv-x="542" d="M522 353q0 -72 -19.5 -136t-57.5 -115t-100.5 -81t-141.5 -30q-95 0 -176 18l138 721h125l-41 -212q-10 -55 -54 -179h2q85 169 208 169q117 0 117 -155zM393 329q0 69 -38 69q-50 0 -106 -90.5t-73 -175.5l-7 -34q30 -7 56 -7q54 0 94 38.5t57 91t17 108.5z" />
<glyph unicode="c" horiz-adv-x="404" d="M423 494l-30 -110q-33 15 -77 15q-72 0 -112 -65t-40 -144q0 -88 88 -88q48 0 92 18l-8 -109q-57 -21 -121 -21q-184 0 -184 172q0 147 80.5 246t212.5 99q49 0 99 -13z" />
<glyph unicode="d" horiz-adv-x="542" d="M571 730l-105 -551q-11 -55 -32 -179h-123q8 43 46 158h-2q-93 -169 -208 -169q-117 0 -117 155q0 72 19.5 136t57.5 115t100.5 81t141.5 30q25 0 53 -4l43 228h126zM383 399q-28 7 -56 7q-54 0 -94 -38.5t-57 -91t-17 -108.5q0 -69 38 -69q50 0 107 91t73 177z" />
<glyph unicode="e" horiz-adv-x="485" d="M474 386q0 -87 -81.5 -132.5t-231.5 -50.5q-3 -33 -3 -39q0 -43 19.5 -58.5t71.5 -15.5q71 0 144 30l2 -98q-85 -32 -187 -32q-92 0 -134 42t-42 126q0 153 81.5 251t199.5 98q85 0 123 -34.5t38 -86.5zM350 369q0 44 -51 44q-46 0 -77.5 -35.5t-46.5 -89.5q175 6 175 81 z" />
<glyph unicode="f" horiz-adv-x="347" d="M465 730l-29 -104q-29 8 -59 8q-44 0 -67.5 -23.5t-33.5 -80.5l-6 -33h113l-19 -99h-114l-78 -416q-43 -230 -234 -230q-45 0 -87 9l30 105q29 -8 58 -8q44 0 68.5 27t38.5 98l79 415h-85l20 99h85l6 37q18 102 74 153t159 51q46 0 81 -8z" />
<glyph unicode="g" horiz-adv-x="539" d="M525 491l-100 -522q-20 -107 -93.5 -163t-213.5 -56q-81 0 -144 21l29 117q61 -29 137 -29q72 0 112 29.5t53 95.5q12 63 51 171l-2 1q-92 -167 -207 -167q-117 0 -117 155q0 72 19.5 136t57.5 115t100.5 81t141.5 30q100 0 176 -15zM383 399q-28 7 -56 7 q-54 0 -94 -38.5t-57 -91t-17 -108.5q0 -69 38 -69q50 0 107 91t73 177z" />
<glyph unicode="h" horiz-adv-x="559" d="M514 343l-65 -343h-126l60 312q5 23 5 40q0 46 -35 46q-48 0 -105 -90t-74 -182l-24 -126h-125l139 730h125l-39 -210q-13 -64 -54 -177l2 -1q84 166 209 166q69 0 95 -44q17 -29 17 -72q0 -22 -5 -49z" />
<glyph unicode="i" horiz-adv-x="262" d="M291 655q0 -36 -25 -60t-59 -24q-32 0 -53.5 21.5t-21.5 51.5q0 35 25 58.5t59 23.5q32 0 53.5 -21t21.5 -50zM245 497l-95 -497h-125l95 497h125z" />
<glyph unicode="j" horiz-adv-x="265" d="M294 655q0 -36 -25 -60t-59 -24q-32 0 -53.5 21.5t-21.5 51.5q0 35 25 58.5t59 23.5q32 0 53.5 -21t21.5 -50zM250 497l-103 -539q-20 -102 -73.5 -154t-154.5 -52q-38 0 -68 8l27 109q24 -10 53 -10q40 0 60 24.5t33 88.5l101 525h125z" />
<glyph unicode="k" horiz-adv-x="503" d="M520 461l-198 -193l132 -268h-151l-105 249l-48 -249h-125l139 730h125l-83 -436l216 232z" />
<glyph unicode="l" horiz-adv-x="261" d="M289 730l-139 -730h-125l139 730h125z" />
<glyph unicode="m" horiz-adv-x="850" d="M805 343l-66 -343h-125l60 312q4 23 4 40q0 47 -32 47q-45 0 -102 -86.5t-76 -186.5l-23 -126h-125l60 312q4 23 4 40q0 47 -33 47q-45 0 -101.5 -87t-75.5 -186l-24 -126h-125l50 260q30 153 43 237h123q-11 -55 -45 -154l2 -1q84 166 206 166q47 0 74 -25t27 -72 q0 -23 -15 -72h2q84 169 208 169q68 0 94 -44q16 -29 16 -70q0 -23 -5 -51z" />
<glyph unicode="n" horiz-adv-x="559" d="M514 343l-65 -343h-126l60 312q5 23 5 40q0 46 -35 46q-48 0 -105 -90t-74 -182l-24 -126h-125l50 260q30 153 43 237h123q-11 -57 -45 -154l2 -1q84 166 209 166q69 0 95 -44q17 -29 17 -72q0 -22 -5 -49z" />
<glyph unicode="o" horiz-adv-x="545" d="M525 326q0 -149 -89 -242.5t-211 -93.5q-194 0 -194 178q0 151 87.5 245t211.5 94q101 0 148 -48.5t47 -132.5zM393 310q0 88 -82 88q-66 0 -107.5 -65t-41.5 -145q0 -88 80 -88q65 0 108 62t43 148z" />
<glyph unicode="p" horiz-adv-x="542" d="M522 353q0 -72 -19.5 -136t-57.5 -115t-100.5 -81t-141.5 -30q-26 0 -54 4l-44 -236h-125l95 500q29 149 43 238h123q-10 -47 -45 -156l2 -1q84 168 207 168q117 0 117 -155zM393 329q0 69 -38 69q-50 0 -106 -90.5t-73 -175.5l-6 -32q29 -9 56 -9q54 0 93.5 38.5 t56.5 91.5t17 108z" />
<glyph unicode="q" horiz-adv-x="542" d="M525 490l-139 -731h-125l39 205q14 80 57 194h-2q-93 -169 -208 -169q-117 0 -117 155q0 72 19.5 136t57.5 115t100.5 81t141.5 30q95 0 176 -16zM383 399q-28 7 -56 7q-54 0 -94 -38.5t-57 -91t-17 -108.5q0 -69 38 -69q50 0 107 91t73 177z" />
<glyph unicode="r" horiz-adv-x="351" d="M391 507l-27 -123q-9 3 -18 3q-46 0 -94 -69q-58 -83 -81 -210l-21 -108h-125l50 260q30 153 43 237h121q-11 -59 -43 -150h2q44 88 88 129q36 33 82 33q11 0 23 -2z" />
<glyph unicode="s" horiz-adv-x="377" d="M361 500l-23 -98q-31 10 -67 10q-77 0 -77 -53q0 -17 13.5 -33.5t32 -32t37.5 -33.5t32.5 -44.5t13.5 -56.5q0 -68 -59 -118.5t-168 -50.5q-50 0 -87 9l23 107q38 -15 76 -15q39 0 61 14.5t22 41.5q0 22 -20 43t-44 37.5t-44 47.5t-20 71q0 71 55.5 116t158.5 45 q49 0 84 -7z" />
<glyph unicode="t" horiz-adv-x="367" d="M385 497l-20 -99h-117l-42 -224q-4 -23 -4 -39q0 -14 4 -21q7 -16 38 -16q30 0 62 7l-12 -102q-54 -13 -102 -13q-79 0 -105 40q-16 24 -16 67q0 27 7 63l45 238h-85l20 99h84l29 153l130 26l-34 -179h118z" />
<glyph unicode="u" horiz-adv-x="558" d="M543 497l-50 -260q-30 -153 -43 -237h-122q9 52 44 154l-2 1q-84 -166 -209 -166q-69 0 -95 45q-17 28 -17 71q0 22 5 49l66 343h125l-60 -312q-4 -22 -4 -39q0 -47 34 -47q48 0 105 90t74 182l24 126h125z" />
<glyph unicode="v" horiz-adv-x="492" d="M533 482l-260 -482h-132l-85 497h133l33 -216q9 -57 12 -118h2l175 356z" />
<glyph unicode="w" horiz-adv-x="781" d="M818 483l-240 -483h-141l-27 214q-7 60 -7 112h-1l-156 -326h-129l-53 497h131l16 -188q8 -98 9 -146h1l158 334h121l24 -188q9 -71 11 -147h1l161 356z" />
<glyph unicode="x" horiz-adv-x="523" d="M553 466l-206 -224l117 -242h-147l-69 164l-169 -194l-104 62l214 227l-113 238h140l70 -163l166 192z" />
<glyph unicode="y" horiz-adv-x="512" d="M544 484q-107 -247 -196 -399t-178 -241q-94 -93 -192 -93q-40 0 -74 8l21 110q27 -10 61 -10q52 0 93 41q46 46 46 128q0 190 -77 469h140q50 -195 50 -355q0 -20 -5 -42h2q95 176 190 418z" />
<glyph unicode="z" horiz-adv-x="437" d="M439 497l-18 -91l-235 -290q21 1 106 1h78l-22 -117h-346l17 91l239 294q-38 -2 -100 -2h-78l22 114h337z" />
<glyph unicode="{" horiz-adv-x="355" d="M430 777l-19 -101q-49 0 -70.5 -23.5t-35.5 -94.5l-16 -86q-28 -146 -121 -159v-2q66 -11 66 -96q0 -28 -7 -64l-26 -134q-7 -38 -7 -62q0 -23 6 -34q12 -23 61 -23l-20 -103h-20q-95 0 -127 54q-19 31 -19 83q0 38 10 86l26 135q5 23 5 41q0 28 -12 44q-20 24 -70 27 l19 96q53 3 80.5 25.5t38.5 82.5l16 87q21 112 73 166.5t147 54.5h22z" />
<glyph unicode="|" horiz-adv-x="282" d="M291 759l-191 -1000h-99l190 1000h100z" />
<glyph unicode="}" horiz-adv-x="355" d="M358 361l-18 -96q-54 -3 -81 -27t-39 -85l-26 -134q-22 -118 -73.5 -170.5t-146.5 -52.5h-21l19 102q49 0 70.5 24t34.5 96l26 133q29 150 122 162v2q-67 11 -67 95q0 27 7 62l17 86q7 37 7 61q0 23 -7 35q-12 22 -60 22l19 101h20q95 0 127 -55q19 -32 19 -84 q0 -36 -9 -82l-18 -87q-4 -22 -4 -39q0 -29 12 -44q19 -22 70 -25z" />
<glyph unicode="~" d="M571 584q-4 -85 -47.5 -131.5t-114.5 -46.5q-32 0 -56 10.5t-37.5 26t-25 31t-24.5 26t-28 10.5q-48 0 -57 -80h-95q4 85 47.5 131.5t114.5 46.5q32 0 56 -11t37.5 -26t25 -30.5t24.5 -26.5t28 -11q48 0 57 81h95z" />
<glyph unicode="&#xa1;" horiz-adv-x="315" d="M266 437q0 -35 -24 -58t-58 -23q-32 0 -52.5 21.5t-20.5 50.5q0 35 23.5 57.5t57.5 22.5q33 0 53.5 -21t20.5 -50zM218 309l-79 -520h-146l118 520h107z" />
<glyph unicode="&#xa2;" d="M526 545l-45 -102q-44 22 -97 22q-71 0 -116 -49.5t-45 -121.5q0 -90 107 -90q56 0 111 24l17 -99q-59 -26 -118 -31l-19 -98h-97l19 99q-156 18 -156 172q0 116 67.5 195t177.5 97l16 87h97l-17 -83q51 -3 98 -22z" />
<glyph unicode="&#xa3;" d="M542 645l-39 -107q-51 19 -100 19q-67 0 -90.5 -47t-25.5 -137h151l-18 -99h-139q-1 -100 -80 -166q42 2 73 2h194l-21 -110h-422l16 87q65 46 87.5 86t24.5 101h-96l18 99h83q1 45 6.5 81t22.5 76.5t43.5 67.5t74.5 45t112 18q63 0 125 -16z" />
<glyph unicode="&#xa4;" d="M574 537l-88 -89q12 -21 12 -60q0 -99 -64 -174l60 -98l-109 -69l-57 103q-40 -16 -77 -16q-29 0 -54 9l-87 -95l-88 73l85 86q-16 26 -16 72q0 101 67 172l-55 92l108 67l53 -97q36 13 74 13q37 0 62 -11l89 96zM385 367q0 66 -68 66q-50 0 -81 -40.5t-31 -94.5 q0 -71 65 -71q53 0 84 44t31 96z" />
<glyph unicode="&#xa5;" d="M612 650l-226 -330h125l-16 -82h-155l-11 -59h155l-15 -81h-155l-19 -98h-129l19 98h-155l16 81h154l11 59h-155l16 82h125l-96 330h137l43 -167q6 -23 20 -100h2q20 38 61 103l106 164h142z" />
<glyph unicode="&#xa6;" horiz-adv-x="282" d="M291 759l-70 -368h-99l69 368h100zM172 137l-72 -378h-99l72 378h99z" />
<glyph unicode="&#xa7;" horiz-adv-x="519" d="M483 730l-26 -106q-34 10 -68 10q-50 0 -71.5 -23t-21.5 -54q0 -19 16.5 -42t39.5 -46.5t46 -50.5t39.5 -65.5t16.5 -80.5q0 -50 -28 -95.5t-75 -76.5q20 -30 20 -73q0 -79 -65.5 -136.5t-179.5 -57.5q-55 0 -92 10l27 108q42 -13 74 -13q53 0 76.5 25t23.5 54 q0 25 -24.5 56.5t-54.5 59t-54.5 71.5t-24.5 91q0 107 104 178q-22 38 -22 78q0 67 59 127t178 60q45 0 87 -8zM339 250q0 7 -1.5 14.5t-3 13.5t-5.5 14t-7 13t-10 15l-10 14q-4 5 -14 16.5t-14 16.5t-16.5 18.5t-17.5 19.5q-47 -31 -47 -86q0 -21 14 -46.5t30.5 -45 t54.5 -60.5q47 31 47 83z" />
<glyph unicode="&#xa8;" horiz-adv-x="535" d="M489 651q0 -30 -21 -51t-50 -21q-28 0 -47.5 20t-19.5 48q0 29 21.5 49.5t50.5 20.5q28 0 47 -19.5t19 -46.5zM287 651q0 -30 -21 -51t-50 -21t-48 19.5t-19 47.5q0 30 21 50.5t50 20.5t48 -19.5t19 -46.5z" />
<glyph unicode="&#xa9;" horiz-adv-x="747" d="M737 352q0 -152 -106.5 -256t-251.5 -104q-139 0 -233 94t-94 230q0 151 106.5 255t251.5 104q138 0 232.5 -94t94.5 -229zM639 346q0 97 -68 166t-166 69q-104 0 -180 -75t-76 -185q0 -97 68.5 -166t166.5 -69q103 0 179 75t76 185zM518 497l-30 -84q-21 16 -59 16 q-47 0 -71 -39t-24 -89q0 -56 54 -56q40 0 72 14l3 -82q-46 -20 -100 -20q-63 0 -98 34t-35 95q0 93 56 159.5t147 66.5q52 0 85 -15z" />
<glyph unicode="&#xaa;" horiz-adv-x="402" d="M429 673q-56 -295 -64 -348h-98q5 26 27 89h-1q-55 -97 -137 -97q-90 0 -90 112q0 107 61 181t169 74q71 0 133 -11zM375 275l-18 -99h-314l19 99h313zM315 597q-22 5 -38 5q-48 0 -77.5 -46.5t-29.5 -103.5q0 -45 25 -45q34 0 70 52.5t46 115.5z" />
<glyph unicode="&#xab;" horiz-adv-x="520" d="M508 435l-117 -142l69 -144l-103 -46l-88 195l149 186zM288 440l-112 -147l60 -150l-104 -45l-78 201l141 190z" />
<glyph unicode="&#xac;" d="M513 351l-49 -256h-113l28 149h-337l21 107h450z" />
<glyph unicode="&#xad;" horiz-adv-x="330" d="M306 329l-20 -103h-242l20 103h242z" />
<glyph unicode="&#xae;" horiz-adv-x="553" d="M565 543q0 -103 -73 -173t-170 -70q-93 0 -156 62t-63 154q0 105 72.5 175t169.5 70q93 0 156.5 -62.5t63.5 -155.5zM487 540q0 61 -42 105.5t-103 44.5q-65 0 -113 -48.5t-48 -118.5q0 -62 42 -107t103 -45q64 0 112.5 49t48.5 120zM433 594q0 -55 -58 -75q7 -12 12 -29 l20 -68h-69l-21 85h-9l-16 -85h-58l42 223h86q71 0 71 -51zM366 582q0 17 -23 17h-17l-9 -51h10q18 0 28.5 9.5t10.5 24.5z" />
<glyph unicode="&#xaf;" horiz-adv-x="387" d="M415 692l-17 -92h-264l17 92h264z" />
<glyph unicode="&#xb0;" horiz-adv-x="380" d="M412 612q0 -74 -48.5 -114t-113.5 -40q-66 0 -101.5 35t-35.5 92q0 71 49 112t111 41q71 0 105 -35.5t34 -90.5zM317 604q0 21 -12.5 37.5t-37.5 16.5t-42 -17.5t-17 -46.5q0 -25 14 -40t38 -15q25 0 41 18t16 47z" />
<glyph unicode="&#xb1;" d="M553 452l-20 -106h-175l-34 -183h-122l35 183h-175l19 106h175l36 182h121l-35 -182h175zM484 107l-20 -107h-465l21 107h464z" />
<glyph unicode="&#xb2;" horiz-adv-x="316" d="M330 582q0 -33 -19 -60t-64 -61l-38 -28h103l-16 -79h-230l14 71l66 50q40 29 55 46.5t15 33.5q0 25 -31 25q-25 0 -57 -16l-8 75q54 21 102 21q54 0 81 -21t27 -57z" />
<glyph unicode="&#xb3;" horiz-adv-x="466" d="M320 591q0 -60 -58 -84q21 -3 32.5 -18t11.5 -36q0 -46 -41.5 -77.5t-124.5 -31.5q-35 0 -72 8l18 65q23 -7 48 -7q62 0 62 40q0 26 -46 26q-17 0 -41 -4l11 59h12q82 0 82 43q0 21 -32 21q-29 0 -55 -13l-5 62q41 16 95 16q53 0 78 -19t25 -50z" />
<glyph unicode="&#xb4;" horiz-adv-x="385" d="M382 667l-189 -107l-42 70l179 124z" />
<glyph unicode="&#xb5;" horiz-adv-x="621" d="M581 60q-55 -70 -136 -70q-83 0 -83 74q0 21 10 57h-1q-26 -53 -75 -91t-97 -38q-33 0 -52 21l-29 -254h-132l141 738h124l-59 -312q-4 -22 -4 -38q0 -48 37 -48q45 0 98.5 71.5t71.5 169.5l30 157h125l-64 -335q-6 -30 -6 -46.5t4.5 -22t14.5 -5.5q23 0 44 28z" />
<glyph unicode="&#xb6;" horiz-adv-x="583" d="M618 675l-18 -102h-64l-128 -669h-175l20 102h68l128 669h169zM372 675l-84 -444h-4q-94 0 -142 47q-50 48 -50 131q0 107 76.5 186.5t203.5 79.5z" />
<glyph unicode="&#xb7;" horiz-adv-x="269" d="M232 300q0 -35 -26 -60t-61 -25q-34 0 -57 24t-23 57q0 35 25.5 59.5t60.5 24.5q34 0 57.5 -23.5t23.5 -56.5z" />
<glyph unicode="&#xb8;" horiz-adv-x="392" d="M199 -40q19 -35 19 -69q0 -64 -66 -125h-101q45 46 55 80q3 10 3 21q0 27 -18 61z" />
<glyph unicode="&#xb9;" horiz-adv-x="311" d="M304 650l-56 -296h-101l40 213l-70 -28l-2 75l96 36h93z" />
<glyph unicode="&#xba;" horiz-adv-x="417" d="M437 554q0 -108 -63.5 -172.5t-152.5 -64.5q-69 0 -103.5 34t-34.5 95q0 102 59 171t154 69q141 0 141 -132zM371 275l-19 -99h-307l18 99h308zM332 540q0 56 -50 56q-47 0 -70.5 -42.5t-23.5 -90.5q0 -57 49 -57q42 0 68.5 40t26.5 94z" />
<glyph unicode="&#xbb;" horiz-adv-x="520" d="M498 288l-140 -189l-93 48l112 148l-61 149l105 45zM284 289l-150 -186l-90 49l118 143l-69 144l103 45z" />
<glyph unicode="&#xbc;" horiz-adv-x="710" d="M304 650l-56 -296h-102l40 213l-69 -28l-3 75l96 36h94zM697 609l-613 -631l-67 61l612 631zM642 120l-14 -71h-44l-9 -49h-90l10 49h-139l6 66l135 181h134l-33 -176h44zM531 236l-88 -117h66z" />
<glyph unicode="&#xbd;" horiz-adv-x="713" d="M650 229q0 -34 -19 -61t-64 -61l-38 -28h103l-15 -79h-231l14 72l67 49q40 29 54.5 46.5t14.5 33.5q0 25 -30 25t-57 -16l-8 75q53 21 101 21q54 0 81 -21t27 -56zM697 609l-613 -631l-67 61l612 631zM304 650l-56 -296h-102l40 213l-69 -28l-3 75l96 36h94z" />
<glyph unicode="&#xbe;" horiz-adv-x="715" d="M537 236l-89 -117h66zM647 120l-13 -71h-44l-10 -49h-89l9 49h-139l6 66l135 181h135l-34 -176h44zM701 609l-612 -631l-67 61l611 631zM323 591q0 -60 -58 -84q21 -3 32.5 -18t11.5 -36q0 -46 -41.5 -77.5t-124.5 -31.5q-35 0 -72 8l18 65q23 -7 49 -7q62 0 62 40 q0 26 -47 26q-17 0 -41 -4l11 59h13q81 0 81 43q0 21 -31 21q-28 0 -56 -13l-5 62q43 16 96 16q102 0 102 -69z" />
<glyph unicode="&#xbf;" horiz-adv-x="442" d="M370 437q0 -35 -24 -58t-58 -23q-32 0 -52.5 21.5t-20.5 50.5q0 35 23.5 57.5t57.5 22.5q33 0 53.5 -21t20.5 -50zM333 309q3 -18 3 -35q0 -34 -12 -64q-16 -43 -45.5 -70t-60 -49.5t-53 -48.5t-22.5 -54q0 -78 171 -92l-38 -116q-133 7 -203 58.5t-70 126.5q0 42 17 77 t42 57l52 46l52 45q23 20 36 51q9 22 9 48q0 10 -1 20h123z" />
<glyph unicode="&#xc0;" horiz-adv-x="614" d="M570 0h-137l-20 138h-250l-72 -138h-133l360 675h144zM400 241l-29 191q-6 40 -10 94h-1q-23 -55 -43 -93l-102 -192h185zM462 786l-28 -70l-209 53l40 92z" />
<glyph unicode="&#xc1;" horiz-adv-x="614" d="M570 0h-137l-20 138h-250l-72 -138h-133l360 675h144zM400 241l-29 191q-6 40 -10 94h-1q-23 -55 -43 -93l-102 -192h185zM554 769l-217 -53l-14 70l212 75z" />
<glyph unicode="&#xc2;" horiz-adv-x="614" d="M570 0h-137l-20 138h-250l-72 -138h-133l360 675h144zM400 241l-29 191q-6 40 -10 94h-1q-23 -55 -43 -93l-102 -192h185zM561 779l-35 -64l-125 60l-141 -60l-24 62l173 87z" />
<glyph unicode="&#xc3;" horiz-adv-x="614" d="M570 0h-137l-20 138h-250l-72 -138h-133l360 675h144zM400 241l-29 191q-6 40 -10 94h-1q-23 -55 -43 -93l-102 -192h185zM583 810q-50 -82 -127 -82q-37 0 -72 23.5t-50 23.5q-34 0 -59 -43l-61 44q50 82 126 82q37 0 72.5 -23.5t50.5 -23.5q32 0 59 42z" />
<glyph unicode="&#xc4;" horiz-adv-x="614" d="M570 0h-137l-20 138h-250l-72 -138h-133l360 675h144zM400 241l-29 191q-6 40 -10 94h-1q-23 -55 -43 -93l-102 -192h185zM570 790q0 -27 -18.5 -46t-43.5 -19t-42 17.5t-17 41.5q0 27 18.5 45.5t43.5 18.5t42 -17t17 -41zM358 790q0 -27 -18.5 -46t-44.5 -19 q-24 0 -41 17.5t-17 41.5q0 27 18.5 45.5t43.5 18.5t42 -17t17 -41z" />
<glyph unicode="&#xc5;" horiz-adv-x="614" d="M570 0h-137l-20 138h-250l-72 -138h-133l342 641q-33 28 -33 75q0 56 39 92t93 36q52 0 86.5 -33t34.5 -82q0 -62 -51 -97zM446 726q0 21 -14 35.5t-36 14.5q-23 0 -39 -16.5t-16 -39.5q0 -21 14.5 -36t35.5 -15q23 0 39 16.5t16 40.5zM400 241l-29 177q-8 58 -11 107h-1 q-33 -75 -53 -112l-92 -172h186z" />
<glyph unicode="&#xc6;" horiz-adv-x="763" d="M794 675l-21 -109h-228l-31 -166h220l-21 -106h-219l-36 -183h236l-21 -111h-359l29 145h-192l-96 -145h-137l447 675h429zM423 567h-1q-57 -99 -91 -148l-117 -171h149z" />
<glyph unicode="&#xc7;" horiz-adv-x="549" d="M587 662l-35 -119q-61 22 -121 22q-63 0 -111.5 -29.5t-75 -77.5t-39.5 -100t-13 -106q0 -69 33 -105.5t111 -36.5q71 0 137 28l-1 -118q-84 -28 -174 -28q-73 0 -125 20.5t-78 56.5t-37 74.5t-11 84.5q0 87 26 167.5t74 144.5t125 102.5t172 38.5q74 0 143 -19zM303 -40 q19 -35 19 -69q0 -64 -66 -125h-101q45 46 55 80q3 10 3 21q0 27 -18 61z" />
<glyph unicode="&#xc8;" horiz-adv-x="482" d="M513 675l-20 -109h-232l-32 -166h221l-21 -106h-220l-34 -183h231l-21 -111h-359l128 675h359zM426 786l-28 -70l-209 53l40 92z" />
<glyph unicode="&#xc9;" horiz-adv-x="482" d="M513 675l-20 -109h-232l-32 -166h221l-21 -106h-220l-34 -183h231l-21 -111h-359l128 675h359zM510 769l-217 -53l-14 70l212 75z" />
<glyph unicode="&#xca;" horiz-adv-x="482" d="M513 675l-20 -109h-232l-32 -166h221l-21 -106h-220l-34 -183h231l-21 -111h-359l128 675h359zM509 779l-35 -64l-125 60l-141 -60l-24 62l173 87z" />
<glyph unicode="&#xcb;" horiz-adv-x="482" d="M513 675l-20 -109h-232l-32 -166h221l-21 -106h-220l-34 -183h231l-21 -111h-359l128 675h359zM515 790q0 -27 -18.5 -46t-43.5 -19t-42 17.5t-17 41.5q0 27 18.5 45.5t43.5 18.5t42 -17t17 -41zM303 790q0 -27 -18.5 -46t-44.5 -19q-24 0 -41 17.5t-17 41.5 q0 27 18.5 45.5t43.5 18.5t42 -17t17 -41z" />
<glyph unicode="&#xcc;" horiz-adv-x="265" d="M282 675l-128 -675h-128l128 675h128zM315 786l-28 -70l-209 53l40 92z" />
<glyph unicode="&#xcd;" horiz-adv-x="265" d="M282 675l-128 -675h-128l128 675h128zM381 769l-217 -53l-14 70l212 75z" />
<glyph unicode="&#xce;" horiz-adv-x="265" d="M282 675l-128 -675h-128l128 675h128zM396 779l-35 -64l-125 60l-141 -60l-24 62l173 87z" />
<glyph unicode="&#xcf;" horiz-adv-x="265" d="M282 675l-128 -675h-128l128 675h128zM400 790q0 -27 -18.5 -46t-43.5 -19t-42 17.5t-17 41.5q0 27 18.5 45.5t43.5 18.5t42 -17t17 -41zM188 790q0 -27 -18.5 -46t-44.5 -19q-24 0 -41 17.5t-17 41.5q0 27 18.5 45.5t43.5 18.5t42 -17t17 -41z" />
<glyph unicode="&#xd0;" horiz-adv-x="668" d="M657 435q0 -86 -27 -164t-79 -140t-135.5 -98.5t-188.5 -36.5q-53 0 -191 5l55 293h-78l19 98h78l54 282q128 5 208 5q141 0 213 -62.5t72 -181.5zM521 422q0 71 -38 109.5t-128 38.5q-53 0 -84 -3l-33 -175h118l-19 -98h-118l-35 -182q30 -5 62 -5q73 0 128.5 30.5 t86 79t45.5 101t15 104.5z" />
<glyph unicode="&#xd1;" horiz-adv-x="672" d="M690 675l-129 -675h-149l-130 337q-28 74 -46 147q-12 -96 -31 -193l-55 -291h-124l128 675h151l126 -319q23 -58 51 -160q12 94 32 200l51 279h125zM626 810q-50 -82 -127 -82q-37 0 -72 23.5t-50 23.5q-34 0 -59 -43l-61 44q50 82 126 82q37 0 72.5 -23.5t50.5 -23.5 q32 0 59 42z" />
<glyph unicode="&#xd2;" horiz-adv-x="689" d="M688 439q0 -193 -115 -321.5t-279 -128.5q-125 0 -187.5 64t-62.5 182q0 185 114.5 318t280.5 133q121 0 185 -64t64 -183zM551 424q0 68 -33.5 106.5t-99.5 38.5q-104 0 -170.5 -93t-66.5 -219q0 -72 34 -111t97 -39q101 0 170 93t69 224zM532 786l-28 -70l-209 53 l40 92z" />
<glyph unicode="&#xd3;" horiz-adv-x="689" d="M688 439q0 -193 -115 -321.5t-279 -128.5q-125 0 -187.5 64t-62.5 182q0 185 114.5 318t280.5 133q121 0 185 -64t64 -183zM551 424q0 68 -33.5 106.5t-99.5 38.5q-104 0 -170.5 -93t-66.5 -219q0 -72 34 -111t97 -39q101 0 170 93t69 224zM615 769l-217 -53l-14 70 l212 75z" />
<glyph unicode="&#xd4;" horiz-adv-x="689" d="M688 439q0 -193 -115 -321.5t-279 -128.5q-125 0 -187.5 64t-62.5 182q0 185 114.5 318t280.5 133q121 0 185 -64t64 -183zM551 424q0 68 -33.5 106.5t-99.5 38.5q-104 0 -170.5 -93t-66.5 -219q0 -72 34 -111t97 -39q101 0 170 93t69 224zM621 779l-35 -64l-125 60 l-141 -60l-24 62l173 87z" />
<glyph unicode="&#xd5;" horiz-adv-x="689" d="M688 439q0 -193 -115 -321.5t-279 -128.5q-125 0 -187.5 64t-62.5 182q0 185 114.5 318t280.5 133q121 0 185 -64t64 -183zM551 424q0 68 -33.5 106.5t-99.5 38.5q-104 0 -170.5 -93t-66.5 -219q0 -72 34 -111t97 -39q101 0 170 93t69 224zM647 810q-50 -82 -127 -82 q-37 0 -72 23.5t-50 23.5q-34 0 -59 -43l-61 44q50 82 126 82q37 0 72.5 -23.5t50.5 -23.5q32 0 59 42z" />
<glyph unicode="&#xd6;" horiz-adv-x="689" d="M688 439q0 -193 -115 -321.5t-279 -128.5q-125 0 -187.5 64t-62.5 182q0 185 114.5 318t280.5 133q121 0 185 -64t64 -183zM551 424q0 68 -33.5 106.5t-99.5 38.5q-104 0 -170.5 -93t-66.5 -219q0 -72 34 -111t97 -39q101 0 170 93t69 224zM633 790q0 -27 -18.5 -46 t-43.5 -19t-42 17.5t-17 41.5q0 27 18.5 45.5t43.5 18.5t42 -17t17 -41zM421 790q0 -27 -18.5 -46t-44.5 -19q-24 0 -41 17.5t-17 41.5q0 27 18.5 45.5t43.5 18.5t42 -17t17 -41z" />
<glyph unicode="&#xd7;" d="M546 450l-184 -155l126 -157l-86 -69l-125 155l-184 -155l-63 76l186 156l-126 156l86 69l124 -154l182 154z" />
<glyph unicode="&#xd8;" horiz-adv-x="689" d="M688 439q0 -193 -115 -321.5t-279 -128.5q-34 0 -63 6l-52 -99l-91 33l52 97q-96 61 -96 209q0 186 113 318.5t280 132.5q34 0 55 -5l49 93l90 -32l-48 -90q105 -58 105 -213zM555 426q0 69 -37 102l-227 -421q9 -1 18 -1q19 0 39 4q89 17 148 106.5t59 209.5zM433 570 q-9 1 -17 1q-17 0 -30 -3q-92 -15 -150.5 -105.5t-58.5 -207.5q0 -66 33 -99z" />
<glyph unicode="&#xd9;" horiz-adv-x="667" d="M684 675l-82 -427q-49 -259 -316 -259q-221 0 -221 184q0 34 7 74l81 428h128l-84 -438q-5 -25 -5 -45q0 -38 16 -60q25 -35 96 -35q76 0 117 38t57 124l80 416h126zM501 786l-28 -70l-209 53l40 92z" />
<glyph unicode="&#xda;" horiz-adv-x="667" d="M684 675l-82 -427q-49 -259 -316 -259q-221 0 -221 184q0 34 7 74l81 428h128l-84 -438q-5 -25 -5 -45q0 -38 16 -60q25 -35 96 -35q76 0 117 38t57 124l80 416h126zM608 769l-217 -53l-14 70l212 75z" />
<glyph unicode="&#xdb;" horiz-adv-x="667" d="M684 675l-82 -427q-49 -259 -316 -259q-221 0 -221 184q0 34 7 74l81 428h128l-84 -438q-5 -25 -5 -45q0 -38 16 -60q25 -35 96 -35q76 0 117 38t57 124l80 416h126zM597 779l-35 -64l-125 60l-141 -60l-24 62l173 87z" />
<glyph unicode="&#xdc;" horiz-adv-x="667" d="M684 675l-82 -427q-49 -259 -316 -259q-221 0 -221 184q0 34 7 74l81 428h128l-84 -438q-5 -25 -5 -45q0 -38 16 -60q25 -35 96 -35q76 0 117 38t57 124l80 416h126zM593 790q0 -27 -18.5 -46t-43.5 -19t-42 17.5t-17 41.5q0 27 18.5 45.5t43.5 18.5t42 -17t17 -41z M381 790q0 -27 -18.5 -46t-44.5 -19q-24 0 -41 17.5t-17 41.5q0 27 18.5 45.5t43.5 18.5t42 -17t17 -41z" />
<glyph unicode="&#xdd;" d="M633 675l-294 -436l-45 -239h-127l45 238l-124 437h134l51 -194q15 -61 24 -112h2q21 39 77 125l116 181h141zM535 769l-217 -53l-14 70l212 75z" />
<glyph unicode="&#xde;" horiz-adv-x="532" d="M549 409q0 -120 -88 -202.5t-229 -82.5q-40 0 -55 2l-24 -126h-127l128 675h128l-18 -94q44 2 72 2q104 0 158.5 -45.5t54.5 -128.5zM414 387q0 41 -26.5 65.5t-82.5 24.5q-24 0 -62 -4l-45 -239q23 -4 51 -4q75 0 120 45.5t45 111.5z" />
<glyph unicode="&#xdf;" horiz-adv-x="589" d="M568 604q0 -38 -15 -68.5t-37 -49t-43.5 -34.5t-36.5 -36t-15 -44q0 -22 17 -46.5t37 -44t37 -52t17 -67.5q0 -71 -58.5 -121.5t-164.5 -50.5q-42 0 -86 7l22 107q36 -14 74 -14t59 16t21 45q0 23 -16.5 47.5t-36 43t-36 50t-16.5 66.5q0 36 15 64.5t36 47.5l43 36 q21 17 36 38.5t15 46.5q0 21 -16 34t-46 13q-102 0 -128 -138l-99 -519q-23 -121 -81 -175.5t-158 -54.5q-27 0 -73 8l29 103q20 -6 53 -6q44 0 67.5 27t37.5 99l97 512q23 122 94 182.5t177 60.5q82 0 130 -35.5t48 -97.5z" />
<glyph unicode="&#xe0;" horiz-adv-x="542" d="M525 491q-78 -407 -91 -491h-124q13 55 47 158h-2q-93 -169 -208 -169q-117 0 -117 155q0 72 19.5 136t57.5 115t100.5 81t141.5 30q100 0 176 -15zM383 399q-28 7 -56 7q-54 0 -94 -38.5t-57 -91t-17 -108.5q0 -69 38 -69q50 0 107 91t73 177zM455 628l-52 -68l-172 111 l62 83z" />
<glyph unicode="&#xe1;" horiz-adv-x="542" d="M525 491q-78 -407 -91 -491h-124q13 55 47 158h-2q-93 -169 -208 -169q-117 0 -117 155q0 72 19.5 136t57.5 115t100.5 81t141.5 30q100 0 176 -15zM383 399q-28 7 -56 7q-54 0 -94 -38.5t-57 -91t-17 -108.5q0 -69 38 -69q50 0 107 91t73 177zM546 667l-189 -107l-42 70 l179 124z" />
<glyph unicode="&#xe2;" horiz-adv-x="542" d="M525 491q-78 -407 -91 -491h-124q13 55 47 158h-2q-93 -169 -208 -169q-117 0 -117 155q0 72 19.5 136t57.5 115t100.5 81t141.5 30q100 0 176 -15zM383 399q-28 7 -56 7q-54 0 -94 -38.5t-57 -91t-17 -108.5q0 -69 38 -69q50 0 107 91t73 177zM527 619l-56 -59l-86 81 l-116 -81l-42 58l174 136z" />
<glyph unicode="&#xe3;" horiz-adv-x="542" d="M525 491q-78 -407 -91 -491h-124q13 55 47 158h-2q-93 -169 -208 -169q-117 0 -117 155q0 72 19.5 136t57.5 115t100.5 81t141.5 30q100 0 176 -15zM383 399q-28 7 -56 7q-54 0 -94 -38.5t-57 -91t-17 -108.5q0 -69 38 -69q50 0 107 91t73 177zM559 669q-46 -89 -125 -89 q-35 0 -68.5 25t-49.5 25q-32 0 -58 -45l-59 47q46 89 124 89q36 0 70 -25t50 -25q31 0 57 45z" />
<glyph unicode="&#xe4;" horiz-adv-x="542" d="M525 491q-78 -407 -91 -491h-124q13 55 47 158h-2q-93 -169 -208 -169q-117 0 -117 155q0 72 19.5 136t57.5 115t100.5 81t141.5 30q100 0 176 -15zM383 399q-28 7 -56 7q-54 0 -94 -38.5t-57 -91t-17 -108.5q0 -69 38 -69q50 0 107 91t73 177zM546 651q0 -30 -21 -51 t-50 -21q-28 0 -47.5 20t-19.5 48q0 29 21.5 49.5t50.5 20.5q28 0 47 -19.5t19 -46.5zM344 651q0 -30 -21 -51t-50 -21t-48 19.5t-19 47.5q0 30 21 50.5t50 20.5t48 -19.5t19 -46.5z" />
<glyph unicode="&#xe5;" horiz-adv-x="542" d="M525 491q-78 -407 -91 -491h-124q13 55 47 158h-2q-93 -169 -208 -169q-117 0 -117 155q0 72 19.5 136t57.5 115t100.5 81t141.5 30q100 0 176 -15zM383 399q-28 7 -56 7q-54 0 -94 -38.5t-57 -91t-17 -108.5q0 -69 38 -69q50 0 107 91t73 177zM523 673 q0 -55 -39.5 -91.5t-92.5 -36.5q-52 0 -86.5 33t-34.5 82q0 56 39 92t93 36q52 0 86.5 -33t34.5 -82zM449 670q0 21 -14 35.5t-36 14.5q-23 0 -39 -16.5t-16 -39.5q0 -21 14.5 -36t35.5 -15q23 0 39 16.5t16 40.5z" />
<glyph unicode="&#xe6;" horiz-adv-x="762" d="M751 386q0 -81 -73.5 -126.5t-240.5 -51.5q-3 -20 -3 -44q0 -42 20 -58t72 -16q72 0 145 30v-98q-84 -32 -186 -32q-71 0 -107 25t-50 73q-28 -43 -77 -70.5t-104 -27.5q-69 0 -100.5 33t-31.5 84q0 177 313 187l6 26q3 15 3 27q0 24 -11 39q-17 22 -69 22 q-75 0 -145 -36v105q84 31 173 31q107 0 142 -61q29 25 72.5 43t88.5 18q87 0 125 -35t38 -87zM627 369q0 21 -14.5 33t-37.5 12q-44 0 -76 -35t-47 -87q86 4 130.5 21t44.5 56zM312 210q-86 -3 -130 -21t-44 -60q0 -18 13 -30t34 -12q48 0 83.5 36t43.5 87z" />
<glyph unicode="&#xe7;" horiz-adv-x="404" d="M423 494l-30 -110q-33 15 -77 15q-72 0 -112 -65t-40 -144q0 -88 88 -88q48 0 92 18l-8 -109q-57 -21 -121 -21q-184 0 -184 172q0 147 80.5 246t212.5 99q49 0 99 -13zM216 -40q19 -35 19 -69q0 -64 -66 -125h-101q45 46 55 80q3 10 3 21q0 27 -18 61z" />
<glyph unicode="&#xe8;" horiz-adv-x="485" d="M474 386q0 -87 -81.5 -132.5t-231.5 -50.5q-3 -33 -3 -39q0 -43 19.5 -58.5t71.5 -15.5q71 0 144 30l2 -98q-85 -32 -187 -32q-92 0 -134 42t-42 126q0 153 81.5 251t199.5 98q85 0 123 -34.5t38 -86.5zM350 369q0 44 -51 44q-46 0 -77.5 -35.5t-46.5 -89.5q175 6 175 81 zM422 628l-52 -68l-172 111l62 83z" />
<glyph unicode="&#xe9;" horiz-adv-x="485" d="M474 386q0 -87 -81.5 -132.5t-231.5 -50.5q-3 -33 -3 -39q0 -43 19.5 -58.5t71.5 -15.5q71 0 144 30l2 -98q-85 -32 -187 -32q-92 0 -134 42t-42 126q0 153 81.5 251t199.5 98q85 0 123 -34.5t38 -86.5zM350 369q0 44 -51 44q-46 0 -77.5 -35.5t-46.5 -89.5q175 6 175 81 zM484 667l-189 -107l-42 70l179 124z" />
<glyph unicode="&#xea;" horiz-adv-x="485" d="M474 386q0 -87 -81.5 -132.5t-231.5 -50.5q-3 -33 -3 -39q0 -43 19.5 -58.5t71.5 -15.5q71 0 144 30l2 -98q-85 -32 -187 -32q-92 0 -134 42t-42 126q0 153 81.5 251t199.5 98q85 0 123 -34.5t38 -86.5zM350 369q0 44 -51 44q-46 0 -77.5 -35.5t-46.5 -89.5q175 6 175 81 zM478 619l-56 -59l-86 81l-116 -81l-42 58l174 136z" />
<glyph unicode="&#xeb;" horiz-adv-x="485" d="M474 386q0 -87 -81.5 -132.5t-231.5 -50.5q-3 -33 -3 -39q0 -43 19.5 -58.5t71.5 -15.5q71 0 144 30l2 -98q-85 -32 -187 -32q-92 0 -134 42t-42 126q0 153 81.5 251t199.5 98q85 0 123 -34.5t38 -86.5zM350 369q0 44 -51 44q-46 0 -77.5 -35.5t-46.5 -89.5q175 6 175 81 zM510 651q0 -30 -21 -51t-50 -21q-28 0 -47.5 20t-19.5 48q0 29 21.5 49.5t50.5 20.5q28 0 47 -19.5t19 -46.5zM308 651q0 -30 -21 -51t-50 -21t-48 19.5t-19 47.5q0 30 21 50.5t50 20.5t48 -19.5t19 -46.5z" />
<glyph unicode="&#xec;" horiz-adv-x="262" d="M245 497l-95 -497h-125l95 497h125zM305 628l-52 -68l-172 111l62 83z" />
<glyph unicode="&#xed;" horiz-adv-x="262" d="M245 497l-95 -497h-125l95 497h125zM319 667l-189 -107l-42 70l179 124z" />
<glyph unicode="&#xee;" horiz-adv-x="262" d="M245 497l-95 -497h-125l95 497h125zM353 619l-56 -59l-86 81l-116 -81l-42 58l174 136z" />
<glyph unicode="&#xef;" horiz-adv-x="262" d="M245 497l-95 -497h-125l95 497h125zM382 651q0 -30 -21 -51t-50 -21q-28 0 -47.5 20t-19.5 48q0 29 21.5 49.5t50.5 20.5q28 0 47 -19.5t19 -46.5zM180 651q0 -30 -21 -51t-50 -21t-48 19.5t-19 47.5q0 30 21 50.5t50 20.5t48 -19.5t19 -46.5z" />
<glyph unicode="&#xf0;" horiz-adv-x="544" d="M547 670l-92 -39q72 -114 72 -252q0 -179 -87 -284t-210 -105q-199 0 -199 184q0 141 83.5 236t202.5 95q61 0 78 -31q-7 24 -16 41q-18 41 -38 69l-102 -43l-38 63l91 38q-18 19 -60 55l122 53q35 -32 56 -58l99 41zM391 311q0 40 -20.5 64t-59.5 24q-66 0 -107.5 -60 t-41.5 -140q0 -48 21 -74t60 -26q41 0 71.5 23.5t46 59.5t23 69t7.5 60z" />
<glyph unicode="&#xf1;" horiz-adv-x="559" d="M514 343l-65 -343h-126l60 312q5 23 5 40q0 46 -35 46q-48 0 -105 -90t-74 -182l-24 -126h-125l50 260q30 153 43 237h123q-11 -57 -45 -154l2 -1q84 166 209 166q69 0 95 -44q17 -29 17 -72q0 -22 -5 -49zM527 669q-46 -89 -125 -89q-35 0 -68.5 25t-49.5 25 q-32 0 -58 -45l-59 47q46 89 124 89q36 0 70 -25t50 -25q31 0 57 45z" />
<glyph unicode="&#xf2;" horiz-adv-x="545" d="M525 326q0 -149 -89 -242.5t-211 -93.5q-194 0 -194 178q0 151 87.5 245t211.5 94q101 0 148 -48.5t47 -132.5zM393 310q0 88 -82 88q-66 0 -107.5 -65t-41.5 -145q0 -88 80 -88q65 0 108 62t43 148zM430 628l-52 -68l-172 111l62 83z" />
<glyph unicode="&#xf3;" horiz-adv-x="545" d="M525 326q0 -149 -89 -242.5t-211 -93.5q-194 0 -194 178q0 151 87.5 245t211.5 94q101 0 148 -48.5t47 -132.5zM393 310q0 88 -82 88q-66 0 -107.5 -65t-41.5 -145q0 -88 80 -88q65 0 108 62t43 148zM509 667l-189 -107l-42 70l179 124z" />
<glyph unicode="&#xf4;" horiz-adv-x="545" d="M525 326q0 -149 -89 -242.5t-211 -93.5q-194 0 -194 178q0 151 87.5 245t211.5 94q101 0 148 -48.5t47 -132.5zM393 310q0 88 -82 88q-66 0 -107.5 -65t-41.5 -145q0 -88 80 -88q65 0 108 62t43 148zM508 619l-56 -59l-86 81l-116 -81l-42 58l174 136z" />
<glyph unicode="&#xf5;" horiz-adv-x="545" d="M525 326q0 -149 -89 -242.5t-211 -93.5q-194 0 -194 178q0 151 87.5 245t211.5 94q101 0 148 -48.5t47 -132.5zM393 310q0 88 -82 88q-66 0 -107.5 -65t-41.5 -145q0 -88 80 -88q65 0 108 62t43 148zM540 669q-46 -89 -125 -89q-35 0 -68.5 25t-49.5 25q-32 0 -58 -45 l-59 47q46 89 124 89q36 0 70 -25t50 -25q31 0 57 45z" />
<glyph unicode="&#xf6;" horiz-adv-x="545" d="M525 326q0 -149 -89 -242.5t-211 -93.5q-194 0 -194 178q0 151 87.5 245t211.5 94q101 0 148 -48.5t47 -132.5zM393 310q0 88 -82 88q-66 0 -107.5 -65t-41.5 -145q0 -88 80 -88q65 0 108 62t43 148zM530 651q0 -30 -21 -51t-50 -21q-28 0 -47.5 20t-19.5 48 q0 29 21.5 49.5t50.5 20.5q28 0 47 -19.5t19 -46.5zM328 651q0 -30 -21 -51t-50 -21t-48 19.5t-19 47.5q0 30 21 50.5t50 20.5t48 -19.5t19 -46.5z" />
<glyph unicode="&#xf7;" d="M404 501q0 -34 -24 -57.5t-57 -23.5q-32 0 -53.5 22.5t-21.5 53.5q0 34 24 57.5t56 23.5t54 -22.5t22 -53.5zM534 351l-20 -107h-472l21 107h471zM326 100q0 -34 -23.5 -57.5t-56.5 -23.5q-32 0 -53.5 22t-21.5 53q0 34 23.5 57.5t56.5 23.5q32 0 53.5 -22t21.5 -53z" />
<glyph unicode="&#xf8;" horiz-adv-x="545" d="M525 326q0 -149 -89 -242.5t-210 -93.5q-27 0 -54 5l-57 -101l-69 33l53 93q-68 42 -68 148q0 147 84 243t215 96q24 0 45 -3l58 103l68 -32l-54 -94q78 -43 78 -155zM403 310q0 39 -22 60l-154 -274q11 -2 25 -2h9q63 9 102.5 73.5t39.5 142.5zM320 403q-7 1 -13.5 1 t-14.5 -1q-60 -6 -100 -66.5t-40 -141.5q0 -38 15 -59z" />
<glyph unicode="&#xf9;" horiz-adv-x="558" d="M543 497l-50 -260q-30 -153 -43 -237h-122q9 52 44 154l-2 1q-84 -166 -209 -166q-69 0 -95 45q-17 28 -17 71q0 22 5 49l66 343h125l-60 -312q-4 -22 -4 -39q0 -47 34 -47q48 0 105 90t74 182l24 126h125zM410 628l-52 -68l-172 111l62 83z" />
<glyph unicode="&#xfa;" horiz-adv-x="558" d="M543 497l-50 -260q-30 -153 -43 -237h-122q9 52 44 154l-2 1q-84 -166 -209 -166q-69 0 -95 45q-17 28 -17 71q0 22 5 49l66 343h125l-60 -312q-4 -22 -4 -39q0 -47 34 -47q48 0 105 90t74 182l24 126h125zM524 667l-189 -107l-42 70l179 124z" />
<glyph unicode="&#xfb;" horiz-adv-x="558" d="M543 497l-50 -260q-30 -153 -43 -237h-122q9 52 44 154l-2 1q-84 -166 -209 -166q-69 0 -95 45q-17 28 -17 71q0 22 5 49l66 343h125l-60 -312q-4 -22 -4 -39q0 -47 34 -47q48 0 105 90t74 182l24 126h125zM498 619l-56 -59l-86 81l-116 -81l-42 58l174 136z" />
<glyph unicode="&#xfc;" horiz-adv-x="558" d="M543 497l-50 -260q-30 -153 -43 -237h-122q9 52 44 154l-2 1q-84 -166 -209 -166q-69 0 -95 45q-17 28 -17 71q0 22 5 49l66 343h125l-60 -312q-4 -22 -4 -39q0 -47 34 -47q48 0 105 90t74 182l24 126h125zM520 651q0 -30 -21 -51t-50 -21q-28 0 -47.5 20t-19.5 48 q0 29 21.5 49.5t50.5 20.5q28 0 47 -19.5t19 -46.5zM318 651q0 -30 -21 -51t-50 -21t-48 19.5t-19 47.5q0 30 21 50.5t50 20.5t48 -19.5t19 -46.5z" />
<glyph unicode="&#xfd;" horiz-adv-x="512" d="M544 484q-107 -247 -196 -399t-178 -241q-94 -93 -192 -93q-40 0 -74 8l21 110q27 -10 61 -10q52 0 93 41q46 46 46 128q0 190 -77 469h140q50 -195 50 -355q0 -20 -5 -42h2q95 176 190 418zM481 667l-189 -107l-42 70l179 124z" />
<glyph unicode="&#xfe;" horiz-adv-x="542" d="M522 353q0 -72 -19.5 -136t-57.5 -115t-100.5 -81t-141.5 -30q-26 0 -54 4l-44 -236h-125l185 971h127l-32 -165q-21 -111 -63 -220l3 -1q85 164 207 164q115 0 115 -155zM393 329q0 69 -38 69q-50 0 -106 -90.5t-73 -175.5l-6 -32q29 -9 56 -9q54 0 93.5 38.5t56.5 91.5 t17 108z" />
<glyph unicode="&#xff;" horiz-adv-x="512" d="M544 484q-107 -247 -196 -399t-178 -241q-94 -93 -192 -93q-40 0 -74 8l21 110q27 -10 61 -10q52 0 93 41q46 46 46 128q0 190 -77 469h140q50 -195 50 -355q0 -20 -5 -42h2q95 176 190 418zM487 651q0 -30 -21 -51t-50 -21q-28 0 -47.5 20t-19.5 48q0 29 21.5 49.5 t50.5 20.5q28 0 47 -19.5t19 -46.5zM285 651q0 -30 -21 -51t-50 -21t-48 19.5t-19 47.5q0 30 21 50.5t50 20.5t48 -19.5t19 -46.5z" />
<glyph unicode="&#x131;" horiz-adv-x="262" d="M245 497l-95 -497h-125l95 497h125z" />
<glyph unicode="&#x152;" horiz-adv-x="843" d="M874 675l-21 -109h-232l-31 -166h220l-20 -106h-220l-35 -183h232l-22 -111h-347q-53 -11 -104 -11q-125 0 -187.5 64t-62.5 182q0 185 114.5 318t280.5 133q52 0 101 -11h334zM491 556q-37 13 -73 13q-104 0 -170.5 -93t-66.5 -219q0 -72 33 -111t98 -39q52 0 98 16z " />
<glyph unicode="&#x153;" horiz-adv-x="828" d="M818 386q0 -87 -82 -132.5t-231 -50.5q-3 -33 -3 -39q0 -43 19.5 -58.5t71.5 -15.5q73 0 144 30l2 -98q-85 -32 -187 -32q-119 0 -146 76q-74 -76 -180 -76q-195 0 -195 178q0 151 87.5 245t211.5 94q115 0 157 -75q70 75 170 75q86 0 123.5 -34.5t37.5 -86.5zM694 369 q0 44 -51 44q-45 0 -77 -35.5t-47 -89.5q175 6 175 81zM393 310q0 88 -82 88q-66 0 -107.5 -65t-41.5 -145q0 -88 80 -88q65 0 108 62t43 148z" />
<glyph unicode="&#x178;" d="M633 675l-294 -436l-45 -239h-127l45 238l-124 437h134l51 -194q15 -61 24 -112h2q21 39 77 125l116 181h141zM538 790q0 -27 -18.5 -46t-43.5 -19t-42 17.5t-17 41.5q0 27 18.5 45.5t43.5 18.5t42 -17t17 -41zM326 790q0 -27 -18.5 -46t-44.5 -19q-24 0 -41 17.5 t-17 41.5q0 27 18.5 45.5t43.5 18.5t42 -17t17 -41z" />
<glyph unicode="&#x2c6;" horiz-adv-x="418" d="M420 619l-56 -59l-86 81l-116 -81l-42 58l174 136z" />
<glyph unicode="&#x2da;" horiz-adv-x="358" d="M389 651q0 -55 -39.5 -91.5t-92.5 -36.5q-52 0 -86.5 33t-34.5 82q0 56 39 92t93 36q52 0 86.5 -33t34.5 -82zM315 648q0 21 -14 35.5t-36 14.5q-23 0 -39 -16.5t-16 -39.5q0 -21 14.5 -36t35.5 -15q23 0 39 16.5t16 40.5z" />
<glyph unicode="&#x2dc;" horiz-adv-x="458" d="M473 669q-46 -89 -125 -89q-35 0 -68.5 25t-49.5 25q-32 0 -58 -45l-59 47q46 89 124 89q36 0 70 -25t50 -25q31 0 57 45z" />
<glyph unicode="&#x3bc;" horiz-adv-x="621" d="M581 60q-55 -70 -136 -70q-83 0 -83 74q0 21 10 57h-1q-26 -53 -75 -91t-97 -38q-33 0 -52 21l-29 -254h-132l141 738h124l-59 -312q-4 -22 -4 -38q0 -48 37 -48q45 0 98.5 71.5t71.5 169.5l30 157h125l-64 -335q-6 -30 -6 -46.5t4.5 -22t14.5 -5.5q23 0 44 28z" />
<glyph unicode="&#x2000;" horiz-adv-x="432" />
<glyph unicode="&#x2001;" horiz-adv-x="864" />
<glyph unicode="&#x2002;" horiz-adv-x="432" />
<glyph unicode="&#x2003;" horiz-adv-x="864" />
<glyph unicode="&#x2004;" horiz-adv-x="288" />
<glyph unicode="&#x2005;" horiz-adv-x="216" />
<glyph unicode="&#x2006;" horiz-adv-x="144" />
<glyph unicode="&#x2007;" horiz-adv-x="144" />
<glyph unicode="&#x2008;" horiz-adv-x="108" />
<glyph unicode="&#x2009;" horiz-adv-x="172" />
<glyph unicode="&#x200a;" horiz-adv-x="48" />
<glyph unicode="&#x2010;" horiz-adv-x="330" d="M306 329l-20 -103h-242l20 103h242z" />
<glyph unicode="&#x2011;" horiz-adv-x="330" d="M306 329l-20 -103h-242l20 103h242z" />
<glyph unicode="&#x2013;" d="M574 353l-21 -111h-550l21 111h550z" />
<glyph unicode="&#x2014;" horiz-adv-x="1000" d="M913 353l-21 -111h-779l22 111h778z" />
<glyph unicode="&#x2018;" horiz-adv-x="261" d="M315 699q-59 -48 -74 -85q-6 -15 -6 -29q0 -19 13 -36q12 -18 12 -38q0 -18 -10 -39q-22 -41 -69 -41q-49 0 -70 45q-10 22 -10 46q0 47 36 103q43 66 132 128z" />
<glyph unicode="&#x2019;" horiz-adv-x="261" d="M215 742q49 0 70 -45q10 -21 10 -46q0 -46 -37 -103q-43 -66 -131 -127l-46 53q59 49 73 86q6 14 6 28q0 20 -12 37q-12 18 -12 38q0 18 10 38q22 41 69 41z" />
<glyph unicode="&#x201a;" horiz-adv-x="261" d="M102 149q49 0 70 -46q10 -21 10 -46q0 -46 -37 -102q-43 -66 -131 -127l-46 53q59 48 74 85q6 15 6 29q0 19 -13 36q-12 18 -12 38q0 18 11 39q21 41 68 41z" />
<glyph unicode="&#x201c;" horiz-adv-x="475" d="M536 702q-59 -49 -74 -86q-5 -14 -5 -28q0 -20 12 -37q12 -18 12 -38q0 -18 -11 -38q-21 -41 -68 -41q-49 0 -70 46q-10 21 -10 46q0 46 37 102q43 66 131 127zM315 702q-59 -49 -73 -86q-6 -14 -6 -28q0 -20 12 -37q12 -18 12 -38q0 -18 -10 -38q-22 -41 -69 -41 q-49 0 -70 46q-10 21 -10 46q0 46 37 102q43 66 131 127z" />
<glyph unicode="&#x201d;" horiz-adv-x="475" d="M436 747q49 0 70 -46q10 -21 10 -46q0 -46 -37 -102q-43 -66 -131 -127l-46 53q59 48 74 85q6 15 6 29q0 19 -13 36q-12 18 -12 38q0 18 11 39q21 41 68 41zM215 747q49 0 70 -46q10 -21 10 -46q0 -46 -37 -102q-43 -66 -131 -127l-46 53q59 48 74 85q6 15 6 29 q0 19 -13 36q-12 18 -12 38q0 18 10 39q22 41 69 41z" />
<glyph unicode="&#x201e;" horiz-adv-x="475" d="M323 149q49 0 70 -46q10 -21 10 -46q0 -46 -37 -102q-43 -66 -131 -127l-46 53q59 48 74 85q6 15 6 29q0 19 -13 36q-12 18 -12 38q0 18 10 39q22 41 69 41zM102 149q49 0 70 -46q10 -21 10 -46q0 -46 -37 -102q-43 -66 -131 -127l-46 53q59 48 74 85q6 15 6 29 q0 19 -13 36q-12 18 -12 38q0 18 11 39q21 41 68 41z" />
<glyph unicode="&#x2022;" horiz-adv-x="423" d="M372 301q0 -63 -44 -107.5t-106 -44.5q-60 0 -102 42t-42 102q0 63 43.5 107.5t105.5 44.5q61 0 103 -42t42 -102z" />
<glyph unicode="&#x2026;" horiz-adv-x="709" d="M631 70q0 -34 -23 -57.5t-56 -23.5q-31 0 -52.5 22.5t-21.5 52.5q0 34 23 57.5t56 23.5q31 0 52.5 -22.5t21.5 -52.5zM402 70q0 -34 -23 -57.5t-56 -23.5q-31 0 -52.5 22.5t-21.5 52.5q0 34 23.5 57.5t55.5 23.5t53 -22t21 -53zM174 70q0 -34 -23.5 -57.5t-55.5 -23.5 t-53.5 22t-21.5 53q0 34 23.5 57.5t55.5 23.5t53.5 -22t21.5 -53z" />
<glyph unicode="&#x202f;" horiz-adv-x="172" />
<glyph unicode="&#x2039;" horiz-adv-x="306" d="M290 438l-116 -145l64 -147l-103 -46l-82 199l146 188z" />
<glyph unicode="&#x203a;" horiz-adv-x="306" d="M281 288l-146 -188l-91 49l116 145l-63 147l103 46z" />
<glyph unicode="&#x205f;" horiz-adv-x="216" />
<glyph unicode="&#x20ac;" d="M590 635l-43 -102q-49 27 -110 27q-108 0 -165 -118h163l-15 -79h-180q-8 -27 -14 -74h180l-14 -79h-170q2 -60 29 -89t91 -29q59 0 125 27l17 -98q-79 -32 -172 -32q-117 0 -170.5 56t-52.5 165h-81l14 79h74q3 38 14 74h-73l15 79h85q41 99 120.5 159t199.5 60 q71 0 133 -26z" />
<glyph unicode="&#x2122;" horiz-adv-x="676" d="M681 675l-8 -281h-93l6 121l3 47l-17 -43l-56 -125h-82l-9 128v40l-10 -36l-42 -132h-84l96 281h107l10 -123l1 -41l13 39l58 125h107zM334 675l-15 -77h-64l-39 -204h-89l39 204h-67l15 77h220z" />
</font>
</defs>
</svg>
