<?xml version="1.0" standalone="no"?>
<!DOCTYPE svg PUBLIC "-//W3C//DTD SVG 1.1//EN" "http://www.w3.org/Graphics/SVG/1.1/DTD/svg11.dtd" >
<svg xmlns="http://www.w3.org/2000/svg">
<metadata>
This is a custom SVG webfont generated by Font Squirrel.
</metadata>
<defs>
<font id="webfontXCJrXMTm" horiz-adv-x="550" >
<font-face units-per-em="1000" ascent="800" descent="-200" />
<missing-glyph horiz-adv-x="218" />
<glyph unicode=" "  horiz-adv-x="218" />
<glyph unicode="&#x09;" horiz-adv-x="218" />
<glyph unicode="&#xa0;" horiz-adv-x="218" />
<glyph unicode="!" horiz-adv-x="314" d="M318 705l-117 -528h-89l83 528h123zM201 60q0 -30 -20.5 -50t-49.5 -20t-47 18.5t-18 44.5q0 30 20.5 50t50.5 20q28 0 46 -18.5t18 -44.5z" />
<glyph unicode="&#x22;" horiz-adv-x="375" d="M417 701l-60 -241h-77l30 241h107zM244 701l-61 -241h-77l31 241h107z" />
<glyph unicode="#" d="M567 478l-14 -73h-89l-45 -154h81l-14 -74h-89l-53 -177h-79l53 177h-138l-53 -177h-79l53 177h-83l14 74h91l45 154h-83l14 73h91l50 172h79l-50 -172h138l50 172h79l-50 -172h81zM385 405h-138l-45 -154h137z" />
<glyph unicode="$" d="M491 628l-19 -93q-51 17 -112 17q-59 0 -91.5 -23.5t-32.5 -60.5q0 -28 23 -48.5t56 -36t65.5 -33.5t55.5 -51.5t23 -79.5q0 -73 -56 -129t-145 -70l-20 -105h-78l19 101q-55 0 -115 14l20 97q62 -22 127 -22q59 0 96 27t37 64q0 31 -22.5 53.5t-55 37.5t-65 33t-55 51 t-22.5 79q0 70 53 122t138 63l18 95h78l-17 -90q54 -3 97 -12z" />
<glyph unicode="%" horiz-adv-x="740" d="M387 549q0 -93 -54.5 -148.5t-124.5 -55.5q-60 0 -90.5 29.5t-30.5 83.5q0 91 54.5 146.5t123.5 55.5q59 0 90.5 -28.5t31.5 -82.5zM721 618l-612 -639l-57 51l611 639zM689 193q0 -92 -54.5 -147.5t-124.5 -55.5q-60 0 -90.5 29.5t-30.5 83.5q0 91 55 146.5t123 55.5 q59 0 90.5 -29t31.5 -83zM304 539q0 52 -46 52q-37 0 -63 -36t-26 -88q0 -53 47 -53q37 0 62.5 36t25.5 89zM607 184q0 52 -47 52q-37 0 -63 -36.5t-26 -88.5t47 -52q37 0 63 36t26 89z" />
<glyph unicode="&#x26;" horiz-adv-x="780" d="M729 452q-23 -172 -143 -302q63 -58 116 -97l-74 -73q-59 44 -122 101q-120 -91 -272 -91q-97 0 -145.5 46.5t-48.5 119.5q0 54 28.5 103.5t62 79.5t86.5 67q-59 93 -59 151q0 73 57.5 126.5t145.5 53.5q78 0 116 -33.5t38 -89.5q0 -62 -41.5 -111t-121.5 -107 q60 -81 163 -183q89 100 110 239h104zM409 599q0 57 -59 57q-38 0 -62 -25t-24 -63q0 -37 39 -103q36 25 54 40.5t35 41t17 52.5zM435 144q-108 110 -168 192q-56 -42 -86 -78t-30 -81q0 -41 27 -68.5t79 -27.5q95 0 178 63z" />
<glyph unicode="'" horiz-adv-x="202" d="M244 701l-61 -241h-77l31 241h107z" />
<glyph unicode="(" horiz-adv-x="298" d="M381 746q-98 -124 -161.5 -293t-63.5 -318q0 -180 51 -310l-85 -36q-69 162 -69 340q0 163 66.5 334t189.5 321z" />
<glyph unicode=")" horiz-adv-x="298" d="M269 444q0 -164 -66.5 -335t-188.5 -320l-72 37q97 124 161 293.5t64 318.5q0 176 -51 309l84 37q69 -160 69 -340z" />
<glyph unicode="*" horiz-adv-x="371" d="M409 610l-109 -37l91 -49l-50 -64l-75 72l-10 -112l-77 10l36 104l-95 -61l-27 70l108 37l-91 50l50 62l74 -71l10 113l77 -10l-36 -105l97 61z" />
<glyph unicode="+" d="M530 342l-18 -89h-184l-37 -195h-101l37 195h-183l17 89h183l37 194h101l-36 -194h184z" />
<glyph unicode="," horiz-adv-x="237" d="M91 129q45 0 62 -43q7 -18 7 -37q0 -47 -42 -105q-40 -55 -113 -106l-39 45q57 48 72 84q7 16 7 30q0 18 -11 33q-10 15 -10 32q0 15 10 32q18 35 57 35z" />
<glyph unicode="-" horiz-adv-x="329" d="M301 326l-16 -86h-238l16 86h238z" />
<glyph unicode="." horiz-adv-x="239" d="M161 64q0 -31 -21 -52.5t-51 -21.5q-28 0 -48 20.5t-20 47.5q0 31 21 52.5t51 21.5q29 0 48.5 -20t19.5 -48z" />
<glyph unicode="/" horiz-adv-x="440" d="M539 757l-519 -918h-106l520 918h105z" />
<glyph unicode="0" d="M539 463q0 -58 -10 -119.5t-34 -125.5t-58.5 -114t-88.5 -82t-119 -32q-183 0 -183 197q0 58 10 119.5t34 125.5t58.5 114t88.5 82t120 32q182 0 182 -197zM426 457q0 58 -19 85.5t-65 27.5q-38 0 -70.5 -29.5t-52.5 -73.5t-34.5 -97t-20.5 -98t-6 -78q0 -58 19.5 -85.5 t66.5 -27.5t84 44t57 107.5t30.5 122.5t10.5 102z" />
<glyph unicode="1" d="M473 96l-18 -96h-429l18 96h170l84 443l-163 -59l-2 101l211 69h86l-106 -554h149z" />
<glyph unicode="2" d="M512 502q0 -71 -43 -137.5t-168 -166.5l-121 -96v-2q63 3 196 3h87l-20 -103h-433l17 88l156 129q125 102 166 155t41 107q0 38 -25 61t-74 23q-79 0 -152 -48l-10 95q96 50 197 50q91 0 138.5 -44t47.5 -114z" />
<glyph unicode="3" d="M515 524q0 -60 -39.5 -106t-108.5 -65l-1 -2q52 -7 80 -41t28 -85q0 -40 -18 -79t-54 -75t-101 -58.5t-149 -22.5q-75 0 -122 15l25 94q52 -19 114 -19q91 0 139 39t48 92q0 39 -33 61.5t-97 22.5q-48 0 -106 -5l16 84h26q118 0 177.5 37.5t59.5 92.5q0 32 -25 50t-73 18 q-68 0 -147 -35l-2 91q88 32 175 32q94 0 141 -36t47 -100z" />
<glyph unicode="4" d="M508 650l-78 -408h100l-19 -96h-99l-28 -146h-105l27 146h-293l8 89l341 415h146zM384 541h-1l-249 -301q53 2 193 2z" />
<glyph unicode="5" d="M535 650l-20 -101h-261l-29 -151q16 1 47 1q103 0 155 -42.5t52 -110.5q0 -111 -89.5 -183.5t-226.5 -72.5q-71 0 -125 12l19 98q59 -18 117 -18q84 0 135 40.5t51 105.5q0 86 -145 86q-66 0 -108 -8l66 344h362z" />
<glyph unicode="6" d="M529 655l-17 -92q-42 6 -70 6q-169 0 -247 -182q-16 -34 -21 -50h1q27 35 70 54.5t91 19.5q84 0 128.5 -42t44.5 -113q0 -114 -78.5 -190t-196.5 -76q-92 0 -140 50t-48 147q0 52 12 111t43 124t76 117t118.5 86t163.5 34q40 0 70 -4zM398 235q0 42 -24 65t-72 23 q-65 0 -106.5 -43.5t-41.5 -101.5q0 -46 25.5 -73.5t74.5 -27.5q60 0 102 45.5t42 112.5z" />
<glyph unicode="7" d="M576 650l-18 -93q-184 -254 -340 -557h-127q164 307 339 548q-75 -3 -225 -3h-93l20 105h444z" />
<glyph unicode="8" d="M538 526q0 -61 -36 -104.5t-113 -83.5q48 -27 75 -59.5t27 -79.5q0 -93 -78 -151t-182 -58q-96 0 -148 37t-52 103q0 67 42.5 113.5t122.5 86.5q-87 54 -87 127q0 83 71 143t174 60q88 0 136 -36t48 -98zM427 510q0 31 -22.5 48.5t-63.5 17.5q-55 0 -88 -30t-33 -72 q0 -29 21.5 -49.5t62.5 -42.5q68 34 95.5 62.5t27.5 65.5zM379 185q0 33 -25 55.5t-72 45.5q-79 -38 -108.5 -71.5t-29.5 -68.5q0 -31 26 -50.5t75 -19.5q55 0 94.5 29t39.5 80z" />
<glyph unicode="9" d="M536 467q0 -38 -7.5 -83t-23.5 -101t-47.5 -106t-74.5 -92.5t-109.5 -68t-147.5 -25.5q-56 0 -92 7l18 95q44 -11 88 -11q88 0 150.5 46.5t94.5 130.5q9 27 15 39h-1q-61 -61 -152 -61q-81 0 -126.5 41t-45.5 117q0 106 74.5 185.5t195.5 79.5q91 0 141 -47t50 -146z M426 474q0 45 -25 72t-72 27q-63 0 -103.5 -47.5t-40.5 -110.5q0 -43 24 -66t69 -23q60 0 104 42.5t44 105.5z" />
<glyph unicode=":" horiz-adv-x="289" d="M252 352q0 -31 -21 -52.5t-51 -21.5q-29 0 -49 20.5t-20 48.5q0 31 21.5 52t50.5 21t49 -20.5t20 -47.5zM197 63q0 -31 -21.5 -52t-50.5 -21t-49 20.5t-20 47.5q0 31 21 52.5t51 21.5q29 0 49 -20.5t20 -48.5z" />
<glyph unicode=";" horiz-adv-x="289" d="M252 352q0 -31 -21 -52.5t-51 -21.5q-29 0 -49 20.5t-20 48.5q0 31 21.5 52t50.5 21t49 -20.5t20 -47.5zM128 129q45 0 62 -43q7 -17 7 -36q0 -48 -43 -106q-40 -55 -112 -106l-39 45q57 48 73 84q6 16 6 30q0 18 -11 33q-10 16 -10 32t9 32q18 35 58 35z" />
<glyph unicode="&#x3c;" d="M507 516l-289 -215l210 -220l-77 -68l-270 296l364 281z" />
<glyph unicode="=" d="M532 430l-16 -87h-440l16 87h440zM498 251l-16 -87h-441l17 87h440z" />
<glyph unicode="&#x3e;" d="M495 295l-364 -282l-62 74l288 215l-210 220l78 68z" />
<glyph unicode="?" horiz-adv-x="439" d="M436 530q0 -48 -23.5 -86t-56.5 -64l-64 -54q-32 -26 -51 -64q-14 -28 -14 -63q0 -10 1 -22h-103q-3 18 -3 35q0 36 12 66q17 45 47 73.5t61 52.5t53.5 51.5t22.5 57.5q0 42 -46.5 68.5t-122.5 34.5l31 97q123 -9 189.5 -60t66.5 -123zM223 60q0 -30 -20.5 -50t-49.5 -20 t-47 18.5t-18 44.5q0 30 20.5 50t49.5 20t47 -18.5t18 -44.5z" />
<glyph unicode="@" horiz-adv-x="963" d="M897 446q0 -136 -71 -226.5t-187 -90.5q-56 0 -81 30q-17 22 -17 51q0 11 2 23h-4q-19 -37 -63 -70.5t-89 -33.5q-88 0 -88 110q0 48 14 97.5t42.5 95.5t80 75t117.5 29q67 0 122 -17l-58 -206q-8 -28 -8 -48q0 -50 48 -50q63 0 103.5 61.5t40.5 159.5q0 92 -59 152.5 t-182 60.5q-159 0 -265.5 -121.5t-106.5 -283.5q0 -113 67.5 -176.5t198.5 -63.5q81 0 173 27l7 -84q-94 -31 -201 -31q-166 0 -254.5 83.5t-88.5 231.5q0 133 63 249t174.5 185.5t245.5 69.5q159 0 241.5 -80.5t82.5 -208.5zM574 456q-18 7 -47 7q-55 0 -97.5 -62.5 t-42.5 -139.5q0 -46 30 -46q37 0 77 49.5t67 143.5z" />
<glyph unicode="A" horiz-adv-x="609" d="M558 0h-115l-22 149h-268l-79 -149h-113l366 675h119zM409 236l-36 222q-6 39 -10 93h-2q-25 -57 -43 -92l-121 -223h212z" />
<glyph unicode="B" horiz-adv-x="562" d="M553 545q0 -69 -37.5 -117t-96.5 -71v-1q44 -10 69.5 -44.5t25.5 -79.5q0 -99 -80 -167t-218 -68q-24 0 -89 1.5t-94 1.5l128 675q156 3 200 3q192 0 192 -133zM438 521q0 34 -23.5 52t-81.5 18q-31 0 -81 -2l-39 -200q18 -1 53 -1q78 0 125 35.5t47 97.5zM400 224 q0 83 -129 83q-58 0 -73 -1l-41 -215q27 -5 75 -5q79 0 123.5 39.5t44.5 98.5z" />
<glyph unicode="C" horiz-adv-x="556" d="M589 661l-29 -99q-66 23 -130 23q-68 0 -120 -31t-81.5 -82t-44 -108.5t-14.5 -118.5q0 -74 36.5 -114.5t122.5 -40.5q74 0 146 31l1 -97q-88 -32 -179 -32q-58 0 -102 13.5t-71 35.5t-44 53t-23.5 63t-6.5 69q0 120 43 221.5t134 167.5t215 66q82 0 147 -20z" />
<glyph unicode="D" horiz-adv-x="660" d="M650 434q0 -86 -27.5 -163.5t-79.5 -139.5t-137 -98.5t-192 -36.5q-45 0 -110 2t-71 2l128 674q16 0 56 1.5t77.5 2t68.5 0.5q146 0 216.5 -63.5t70.5 -180.5zM535 423q0 79 -43.5 122t-145.5 43q-60 0 -95 -3l-94 -491q37 -5 72 -5q64 0 117 20.5t87.5 54.5t58 78 t33.5 89.5t10 91.5z" />
<glyph unicode="E" horiz-adv-x="487" d="M510 675l-18 -91h-241l-37 -192h231l-18 -89h-230l-40 -210h242l-17 -93h-349l128 675h349z" />
<glyph unicode="F" horiz-adv-x="457" d="M506 675l-18 -92h-237l-38 -198h225l-17 -89h-225l-56 -296h-107l128 675h345z" />
<glyph unicode="G" horiz-adv-x="665" d="M665 657l-32 -104q-83 36 -168 36q-132 0 -215.5 -95.5t-83.5 -232.5q0 -74 44 -124t137 -50q56 0 114 17l47 244h107l-62 -319q-105 -39 -225 -39q-137 0 -207.5 70t-70.5 189q0 189 121.5 312t304.5 123q102 0 189 -27z" />
<glyph unicode="H" horiz-adv-x="679" d="M686 675l-129 -675h-106l58 303h-312l-58 -303h-107l128 675h107l-53 -279h312l53 279h107z" />
<glyph unicode="I" horiz-adv-x="260" d="M268 675l-128 -675h-107l128 675h107z" />
<glyph unicode="J" horiz-adv-x="324" d="M333 675l-95 -501q-34 -182 -205 -182q-37 0 -77 8l18 95q29 -11 58 -11q41 0 66 22.5t35 77.5l94 491h106z" />
<glyph unicode="K" horiz-adv-x="561" d="M622 675l-310 -335l185 -340h-134l-161 330l-63 -330h-106l128 675h106l-59 -313l276 313h138z" />
<glyph unicode="L" horiz-adv-x="418" d="M385 95l-19 -95h-333l128 675h107l-110 -580h227z" />
<glyph unicode="M" horiz-adv-x="866" d="M809 675l-26 -675h-111l16 356q2 67 10 168h-1q-27 -69 -60 -132l-199 -392h-109l-48 365q-12 94 -12 159h-1q-14 -53 -51 -175l-109 -349h-112l227 675h125l52 -390q8 -56 10 -138h2q22 56 62 134l203 394h132z" />
<glyph unicode="N" horiz-adv-x="678" d="M686 675l-129 -675h-125l-153 379q-30 74 -49 145q-13 -107 -37 -225l-56 -299h-104l128 675h126l151 -366q24 -60 52 -153q20 136 37 223l54 296h105z" />
<glyph unicode="O" horiz-adv-x="690" d="M683 439q0 -192 -114 -320.5t-277 -128.5q-122 0 -183.5 64t-61.5 182q0 185 113 317t277 132q119 0 182.5 -64t63.5 -182zM568 427q0 76 -37 119t-111 43q-112 0 -184.5 -99.5t-72.5 -236.5q0 -78 37 -122t107 -44q109 0 185 99.5t76 240.5z" />
<glyph unicode="P" horiz-adv-x="516" d="M538 512q0 -113 -88.5 -189t-212.5 -76q-25 0 -51 3l-47 -250h-106l128 675q104 4 171 4q99 0 152.5 -44t53.5 -123zM426 497q0 93 -113 93q-44 0 -62 -2l-47 -246q19 -4 46 -4q72 0 124 46t52 113z" />
<glyph unicode="Q" horiz-adv-x="691" d="M683 439q0 -192 -114 -320.5t-277 -128.5q-122 0 -183.5 64t-61.5 182q0 185 112 317t277 132q120 0 183.5 -64t63.5 -182zM626 -97l-18 -92q-39 -6 -74 -6q-20 0 -40 2q-53 5 -86 16t-80 17q-24 3 -48 3t-48 -3l17 93q24 3 49 3q65 0 140 -18q74 -18 136 -18q27 0 52 3z M568 427q0 76 -37 119t-111 43q-112 0 -184.5 -99.5t-72.5 -236.5q0 -78 37 -122t107 -44q109 0 185 99.5t76 240.5z" />
<glyph unicode="R" horiz-adv-x="548" d="M539 528q0 -90 -63 -149t-159 -75q0 -1 38 -73l123 -231h-127l-144 292h-12l-55 -292h-107l128 675q65 4 173 4q205 0 205 -151zM426 510q0 41 -26 60.5t-84 19.5q-33 0 -65 -2l-40 -214q20 -2 49 -2q72 0 119 37.5t47 100.5z" />
<glyph unicode="S" horiz-adv-x="457" d="M454 676l-19 -97q-48 16 -94 16q-67 0 -101 -29.5t-34 -71.5q0 -26 15 -48.5t37 -37.5l48 -34q27 -20 49 -39t37 -49.5t15 -68.5q0 -97 -77 -162t-196 -65q-74 0 -117 14l20 104q51 -22 105 -22q71 0 110 30.5t39 82.5q0 29 -20.5 53t-49.5 43l-59 40q-29 21 -49.5 55 t-20.5 79q0 92 67.5 154t188.5 62q57 0 106 -9z" />
<glyph unicode="T" horiz-adv-x="503" d="M571 675l-17 -92h-182l-111 -583h-107l111 583h-182l17 92h471z" />
<glyph unicode="U" horiz-adv-x="673" d="M680 675l-81 -428q-50 -257 -312 -257q-217 0 -217 179q0 32 7 71l83 435h107l-85 -441q-5 -28 -5 -50q0 -41 17 -66q28 -38 108 -38q83 0 129 41t64 137l80 417h105z" />
<glyph unicode="V" horiz-adv-x="610" d="M686 675l-366 -675h-122l-106 675h113l61 -416q10 -80 14 -137h2q26 62 70 144l220 409h114z" />
<glyph unicode="W" horiz-adv-x="935" d="M990 675l-301 -675h-132l-33 417q-2 33 -2 70q0 27 1 57h-1q-19 -60 -48 -125l-191 -419h-127l-42 675h109l25 -411q1 -19 1 -46q0 -36 -2 -86h1q34 92 51 129l191 414h118l38 -415q3 -39 3 -78q0 -24 -1 -48h1q20 61 45 119l184 422h112z" />
<glyph unicode="X" horiz-adv-x="599" d="M648 675l-264 -330l155 -345h-128l-107 265l-206 -265h-130l283 350l-139 325h119l101 -246l190 246h126z" />
<glyph unicode="Y" horiz-adv-x="536" d="M614 675l-293 -434l-46 -241h-106l45 241l-124 434h112l57 -213q13 -48 26 -114h2q24 43 79 127l129 200h119z" />
<glyph unicode="Z" horiz-adv-x="519" d="M556 675l-16 -86l-345 -437q-15 -21 -45 -54q18 2 155 2h146l-20 -100h-431l16 83l327 423q26 33 64 73q-28 -1 -130 -1h-158l19 97h418z" />
<glyph unicode="[" horiz-adv-x="318" d="M385 774l-17 -84h-104l-154 -806h105l-16 -85h-203l186 975h203z" />
<glyph unicode="\" horiz-adv-x="449" d="M380 -161h-96l-173 918h94z" />
<glyph unicode="]" horiz-adv-x="318" d="M344 774l-186 -975h-204l16 85h105l154 806h-105l16 84h204z" />
<glyph unicode="^" d="M495 380l-81 -40l-86 257l-179 -257l-66 38l218 297h83z" />
<glyph unicode="_" d="M480 -162l-16 -86h-550l16 86h550z" />
<glyph unicode="`" horiz-adv-x="364" d="M341 622l-47 -56l-153 114l58 68z" />
<glyph unicode="a" horiz-adv-x="540" d="M513 490q-78 -409 -92 -490h-104q14 63 53 182l-2 1q-98 -194 -222 -194q-113 0 -113 154q0 57 11.5 109t36.5 98.5t61.5 80.5t89 54t116.5 20q88 0 165 -15zM394 413q-32 9 -64 9q-63 0 -107.5 -42t-63 -99t-18.5 -119q0 -81 45 -81q58 0 120 100.5t81 195.5z" />
<glyph unicode="b" horiz-adv-x="540" d="M514 354q0 -57 -11.5 -109t-36.5 -98.5t-61.5 -80.5t-89 -54t-116.5 -20q-89 0 -165 17l138 721h104l-43 -228q-10 -54 -55 -186l2 -1q40 88 96 140.5t124 52.5q114 0 114 -154zM406 335q0 81 -45 81q-58 0 -120 -100t-81 -194l-7 -38q34 -9 64 -9q63 0 107.5 42t63 99 t18.5 119z" />
<glyph unicode="c" horiz-adv-x="408" d="M425 492l-25 -93q-39 18 -85 18q-80 0 -124.5 -72.5t-44.5 -161.5q0 -98 96 -98q54 0 101 20l-3 -90q-60 -24 -128 -24q-178 0 -178 168q0 147 78.5 247t209.5 100q53 0 103 -14z" />
<glyph unicode="d" horiz-adv-x="540" d="M559 730l-105 -550q-3 -14 -17 -92l-16 -88h-103q9 50 52 182l-2 1q-98 -194 -222 -194q-113 0 -113 154q0 57 11.5 109t36.5 98.5t61.5 80.5t89 54t116.5 20q31 0 62 -4l43 229h106zM394 413q-32 9 -64 9q-63 0 -107.5 -42t-63 -99t-18.5 -119q0 -81 45 -81 q58 0 120 100.5t81 195.5z" />
<glyph unicode="e" horiz-adv-x="480" d="M464 390q0 -167 -318 -178q-4 -26 -4 -50q0 -50 21.5 -68t78.5 -18q70 0 141 29l3 -83q-85 -32 -179 -32q-89 0 -130.5 40t-41.5 125q0 150 78.5 251t197.5 101q79 0 116 -33.5t37 -83.5zM359 376q0 24 -16 37.5t-44 13.5q-51 0 -87.5 -40t-52.5 -101q200 7 200 90z" />
<glyph unicode="f" horiz-adv-x="342" d="M467 728l-25 -87q-32 9 -66 9q-49 0 -76.5 -28t-39.5 -92l-6 -33h126l-17 -83h-125l-83 -436q-22 -119 -79.5 -174.5t-150.5 -55.5q-45 0 -87 9l26 90q30 -10 65 -10q50 0 78 31t43 110l83 436h-93l17 83h93l6 36q18 103 74 153.5t155 50.5q40 0 82 -9z" />
<glyph unicode="g" horiz-adv-x="538" d="M513 490l-102 -529q-40 -214 -296 -214q-76 0 -139 20l25 101q60 -29 134 -29q76 0 119 32.5t58 107.5q14 72 56 200h-2q-96 -190 -220 -190q-113 0 -113 154q0 71 19 135t56.5 115.5t99 81.5t140.5 30q88 0 165 -15zM394 413q-32 9 -64 9q-63 0 -107.5 -42t-63 -99 t-18.5 -119q0 -81 45 -81q58 0 120 100.5t81 195.5z" />
<glyph unicode="h" horiz-adv-x="561" d="M506 340l-65 -340h-105l61 315q5 27 5 47q0 18 -4 30q-10 24 -39 24q-38 0 -81.5 -50t-75.5 -118.5t-43 -129.5l-22 -118h-105l139 730h105l-42 -223q-12 -61 -56 -187l2 -1q91 189 221 189q68 0 94 -44q16 -29 16 -71q0 -24 -5 -53z" />
<glyph unicode="i" horiz-adv-x="258" d="M277 657q0 -31 -21 -51.5t-50 -20.5q-28 0 -46.5 18.5t-18.5 44.5q0 30 21.5 50.5t50.5 20.5q28 0 46 -18.5t18 -43.5zM232 497l-95 -497h-105l95 497h105z" />
<glyph unicode="j" horiz-adv-x="261" d="M280 657q0 -31 -21 -51.5t-50 -20.5q-28 0 -46.5 18.5t-18.5 44.5q0 30 21.5 50.5t50.5 20.5q28 0 46 -18.5t18 -43.5zM236 497l-105 -550q-20 -100 -69.5 -149.5t-145.5 -49.5q-32 0 -66 9l22 92q28 -11 55 -11q45 0 66.5 27t35.5 98l103 534h104z" />
<glyph unicode="k" horiz-adv-x="487" d="M497 466l-206 -196l142 -270h-127l-120 257l-49 -257h-105l139 730h105l-84 -441l225 235z" />
<glyph unicode="l" horiz-adv-x="257" d="M276 730l-139 -730h-105l139 730h105z" />
<glyph unicode="m" horiz-adv-x="856" d="M801 340l-65 -340h-105l60 315q5 27 5 47q0 54 -40 54q-53 0 -115.5 -94.5t-82.5 -203.5l-22 -118h-104l60 315q5 27 5 47q0 54 -40 54q-53 0 -115.5 -94.5t-82.5 -203.5l-22 -118h-105l50 259q24 117 43 238h104q-11 -61 -51 -177l2 -1q89 189 218 189q47 0 73.5 -25.5 t26.5 -72.5q0 -27 -20 -93h2q39 84 94 137.5t124 53.5q66 0 92 -45q16 -29 16 -70q0 -24 -5 -53z" />
<glyph unicode="n" horiz-adv-x="561" d="M506 340l-65 -340h-105l61 315q5 27 5 47q0 18 -4 30q-10 24 -39 24q-38 0 -81.5 -50t-75.5 -118.5t-43 -129.5l-22 -118h-105l50 259q24 117 43 238h104q-13 -66 -51 -177l2 -1q91 189 221 189q68 0 94 -44q16 -29 16 -71q0 -24 -5 -53z" />
<glyph unicode="o" horiz-adv-x="542" d="M517 326q0 -148 -88 -242t-207 -94q-188 0 -188 178q0 149 85 244t208 95q98 0 144 -48.5t46 -132.5zM406 314q0 102 -95 102q-73 0 -120 -70.5t-47 -160.5q0 -103 93 -103q71 0 120 67.5t49 164.5z" />
<glyph unicode="p" horiz-adv-x="540" d="M514 354q0 -57 -11.5 -109t-36.5 -98.5t-61.5 -80.5t-89 -54t-116.5 -20q-26 0 -63 5l-45 -241h-105l96 503l43 238h104q-10 -52 -51 -180l2 -1q40 87 96 139.5t124 52.5q114 0 114 -154zM406 335q0 81 -45 81q-58 0 -120 -100t-81 -194l-6 -35q28 -11 64 -11 q62 0 106.5 42t63 98.5t18.5 118.5z" />
<glyph unicode="q" horiz-adv-x="540" d="M513 490l-140 -734h-104l41 218q16 85 60 208l-2 1q-98 -194 -222 -194q-113 0 -113 154q0 57 11.5 109t36.5 98.5t61.5 80.5t89 54t116.5 20q88 0 165 -15zM394 413q-32 9 -64 9q-63 0 -107.5 -42t-63 -99t-18.5 -119q0 -81 45 -81q58 0 120 100.5t81 195.5z" />
<glyph unicode="r" horiz-adv-x="350" d="M385 507l-22 -103q-9 3 -18 3q-50 0 -103 -81q-62 -95 -84 -216l-21 -110h-105l50 259q24 117 43 238h102q-11 -64 -47 -168l2 -1q47 97 94 143q38 38 87 38q11 0 22 -2z" />
<glyph unicode="s" horiz-adv-x="379" d="M357 499l-20 -84q-30 11 -71 11q-43 0 -66 -17.5t-23 -46.5q0 -19 14.5 -37.5t35.5 -34.5t41.5 -34t35 -44t14.5 -56q0 -67 -58 -116.5t-162 -49.5q-45 0 -85 8l18 93q39 -14 79 -14q45 0 71.5 17.5t26.5 50.5q0 20 -14.5 37.5t-35 32.5t-41 32.5t-35 44t-14.5 59.5 q0 68 53 112t151 44q45 0 85 -8z" />
<glyph unicode="t" horiz-adv-x="366" d="M380 497l-17 -83h-127l-46 -244q-5 -27 -5 -45q0 -16 4 -25q9 -18 43 -18q33 0 66 7l-8 -87q-49 -11 -97 -11q-77 0 -102 39q-15 22 -15 63q0 27 7 63l49 258h-94l17 83h93l30 158l109 23l-35 -181h128z" />
<glyph unicode="u" horiz-adv-x="561" d="M536 497l-50 -259q-28 -137 -44 -238h-103q12 64 50 177l-2 1q-39 -83 -94.5 -136t-125.5 -53q-68 0 -94 45q-16 28 -16 70q0 24 5 53l65 340h104l-60 -315q-5 -27 -5 -47q0 -18 4 -30q10 -24 39 -24q56 0 118.5 100t81.5 198l22 118h105z" />
<glyph unicode="v" horiz-adv-x="481" d="M518 486l-264 -486h-109l-88 497h112l41 -258q7 -42 11 -106h2l194 385z" />
<glyph unicode="w" horiz-adv-x="777" d="M810 487l-244 -487h-119l-33 252q-7 53 -8 105h-1l-173 -357h-112l-54 497h111l20 -231q8 -94 9 -133h1l175 364h106l30 -230q9 -67 11 -135h1l180 385z" />
<glyph unicode="x" horiz-adv-x="517" d="M542 471l-214 -227l124 -244h-124l-82 177l-184 -205l-85 55l221 230l-119 240h119l80 -175l181 202z" />
<glyph unicode="y" horiz-adv-x="497" d="M524 489q-204 -478 -377 -650q-92 -91 -184 -91q-40 0 -72 8l18 94q27 -10 61 -10q55 0 103 50q51 52 51 145q0 190 -74 462h117q54 -209 54 -375q0 -18 -6 -52h1q103 185 210 447z" />
<glyph unicode="z" horiz-adv-x="433" d="M432 497l-15 -75l-263 -326q48 2 118 2h88l-19 -98h-340l15 76l266 327q-50 -2 -112 -2h-87l19 96h330z" />
<glyph unicode="{" horiz-adv-x="344" d="M417 774l-16 -84q-50 0 -73 -24.5t-37 -95.5l-19 -103q-28 -141 -121 -152v-2q68 -10 68 -95q0 -25 -6 -58l-30 -156q-7 -37 -7 -61q0 -23 6 -35q13 -24 63 -24l-16 -85h-19q-87 0 -116 51q-17 30 -17 79q0 34 8 77l31 157q5 22 5 40q0 28 -13 43q-19 25 -72 28l16 82 q57 3 84 25.5t38 82.5l19 104q19 101 67 153.5t136 52.5h21z" />
<glyph unicode="|" horiz-adv-x="280" d="M281 756l-191 -1000h-83l190 1000h84z" />
<glyph unicode="}" horiz-adv-x="344" d="M344 356l-15 -82q-57 -3 -84 -26.5t-39 -84.5l-29 -156q-21 -109 -68.5 -158.5t-134.5 -49.5h-21l16 85q51 0 74 25t36 96l29 155q28 144 121 155v2q-67 10 -67 93q0 25 6 57l20 104q6 36 6 59.5t-6 35.5q-13 25 -63 25l16 83h18q88 0 117 -52q17 -32 17 -80 q0 -33 -8 -74l-21 -104q-5 -22 -5 -40q0 -28 13 -42q19 -23 72 -26z" />
<glyph unicode="~" d="M563 579q-4 -78 -45 -122.5t-107 -44.5q-38 0 -65.5 17t-40.5 37t-31 37t-39 17q-55 0 -63 -85h-80q4 78 45 122t107 44q38 0 65.5 -17t40.5 -37t31 -37t39 -17q55 0 63 86h80z" />
<glyph unicode="&#xa1;" horiz-adv-x="314" d="M255 444q0 -30 -20.5 -50t-49.5 -20t-47 18.5t-18 44.5q0 30 20.5 50t49.5 20t47 -18.5t18 -44.5zM209 320l-83 -528h-123l117 528h89z" />
<glyph unicode="&#xa2;" d="M522 542l-38 -87q-46 24 -103 24q-79 0 -128.5 -54.5t-49.5 -136.5q0 -98 116 -98q61 0 121 27l14 -84q-61 -27 -124 -32l-19 -101h-82l19 101q-159 16 -159 168q0 120 68.5 198t178.5 95l17 88h82l-17 -85q52 -3 104 -23z" />
<glyph unicode="&#xa3;" d="M535 644l-33 -90q-55 19 -102 19q-39 0 -65 -16t-39 -48t-17.5 -65t-5.5 -80h157l-16 -83h-145q-1 -64 -22.5 -107.5t-71.5 -83.5q42 2 76 2h207l-18 -92h-414l14 73q74 54 97.5 96.5t24.5 111.5h-102l16 83h90q1 48 6 85t20.5 79t41.5 69t71.5 45t107.5 18q63 0 122 -16 z" />
<glyph unicode="&#xa4;" d="M566 543l-92 -94q14 -22 14 -63q0 -100 -66 -173l62 -102l-89 -57l-59 106q-43 -20 -84 -20q-37 0 -61 11l-89 -96l-73 61l88 88q-18 27 -18 76q0 104 70 173l-57 95l89 56l54 -100q38 16 80 16q45 0 70 -14l92 98zM392 369q0 72 -75 72q-55 0 -88 -44t-33 -102 q0 -77 73 -77q55 0 89 47.5t34 103.5z" />
<glyph unicode="&#xa5;" d="M603 650l-236 -343h135l-14 -70h-161l-12 -66h161l-13 -70h-161l-19 -101h-108l19 101h-160l14 70h160l12 66h-160l13 70h136l-102 343h115l50 -186l8 -36l10 -40l6 -31h1q26 49 68 112l119 181h119z" />
<glyph unicode="&#xa6;" horiz-adv-x="280" d="M281 756l-70 -368h-83l69 368h84zM162 134l-72 -378h-83l72 378h83z" />
<glyph unicode="&#xa7;" horiz-adv-x="514" d="M467 729l-22 -90q-33 11 -65 11q-53 0 -76.5 -27.5t-23.5 -60.5q0 -25 25 -58.5t54.5 -63t54.5 -77t25 -97.5q0 -102 -104 -171q20 -32 20 -74q0 -76 -61 -131.5t-164 -55.5q-45 0 -87 10l22 91q42 -13 73 -13q54 0 79 28t25 61q0 23 -16.5 49t-39.5 52l-46 52 q-23 28 -39.5 64.5t-16.5 74.5q0 105 105 175q-23 40 -23 79q0 28 12 57.5t36 58t69 46.5t103 18q43 0 81 -8zM341 248q0 13 -4.5 27.5t-9 25t-17 28t-19.5 26.5l-26 32q-19 23 -27 32q-56 -35 -56 -96q0 -9 1.5 -17.5t5.5 -17.5l7 -18q3 -7 10.5 -18t11.5 -17.5t15 -19.5 l15 -19l18 -20l19 -22q56 36 56 94z" />
<glyph unicode="&#xa8;" horiz-adv-x="535" d="M469 654q0 -27 -18.5 -45t-43.5 -18t-42 17.5t-17 41.5q0 26 18.5 44t44.5 18q24 0 41 -17t17 -41zM273 654q0 -27 -18.5 -45t-44.5 -18q-25 0 -42 17.5t-17 41.5q0 26 19 44t44 18t42 -17t17 -41z" />
<glyph unicode="&#xa9;" horiz-adv-x="743" d="M729 351q0 -150 -105 -252t-248 -102q-139 0 -232 93t-93 228q0 149 105.5 251.5t248.5 102.5q137 0 230.5 -93t93.5 -228zM646 347q0 101 -71 173t-174 72q-108 0 -187 -78t-79 -192q0 -102 71.5 -174t173.5 -72q108 0 187 78.5t79 192.5zM515 499l-25 -73 q-26 16 -64 16q-37 0 -63 -24t-35.5 -55.5t-9.5 -65.5q0 -65 62 -65q41 0 77 15l3 -71q-51 -19 -100 -19q-65 0 -98.5 33t-33.5 93q0 96 56 163t147 67q49 0 84 -14z" />
<glyph unicode="&#xaa;" horiz-adv-x="393" d="M417 673q-52 -264 -62 -338h-85q10 38 29 95h-1q-54 -102 -139 -102q-87 0 -87 107q0 103 59 175t163 72q69 0 123 -9zM366 279l-15 -84h-300l16 84h299zM320 607q-22 6 -43 6q-52 0 -84 -48.5t-32 -110.5q0 -50 29 -50q39 0 76.5 55t49.5 124z" />
<glyph unicode="&#xab;" horiz-adv-x="506" d="M487 435l-122 -142l74 -143l-86 -40l-91 188l150 180zM279 439l-116 -146l66 -147l-87 -39l-82 192l142 182z" />
<glyph unicode="&#xac;" d="M506 342l-46 -242h-94l29 153h-351l17 89h445z" />
<glyph unicode="&#xad;" horiz-adv-x="329" d="M301 326l-16 -86h-238l16 86h238z" />
<glyph unicode="&#xae;" horiz-adv-x="552" d="M556 542q0 -100 -71 -168.5t-164 -68.5q-91 0 -151.5 60.5t-60.5 150.5q0 101 70 169.5t165 68.5q90 0 151 -60.5t61 -151.5zM487 538q0 62 -42.5 107.5t-103.5 45.5q-66 0 -114.5 -49t-48.5 -120q0 -63 42 -108.5t104 -45.5q66 0 114.5 49t48.5 121zM428 595 q0 -59 -63 -77q3 -5 13 -29l25 -70h-62l-28 90h-8l-17 -90h-52l43 226h79q70 0 70 -50zM370 585q0 19 -26 19h-20l-11 -57h12q21 0 33 10.5t12 27.5z" />
<glyph unicode="&#xaf;" horiz-adv-x="387" d="M408 687l-15 -78h-254l14 78h255z" />
<glyph unicode="&#xb0;" horiz-adv-x="374" d="M401 616q0 -69 -45.5 -107t-106.5 -38q-62 0 -95.5 33t-33.5 88q0 67 46 105.5t104 38.5q65 0 98 -34t33 -86zM319 609q0 23 -13 41t-41 18q-27 0 -45 -19t-18 -50q0 -27 14.5 -43.5t41.5 -16.5t44 19.5t17 50.5z" />
<glyph unicode="&#xb1;" d="M546 429l-17 -89h-183l-36 -190h-102l36 190h-183l16 89h184l36 189h102l-37 -189h184zM479 89l-17 -89h-463l17 89h463z" />
<glyph unicode="&#xb2;" horiz-adv-x="313" d="M321 583q0 -34 -19 -61.5t-63 -61.5l-47 -35h111l-14 -70h-222l12 61l76 58q41 31 55.5 49.5t14.5 37.5q0 29 -35 29q-29 0 -58 -17l-11 64q49 22 98 22q51 0 76.5 -21t25.5 -55z" />
<glyph unicode="&#xb3;" horiz-adv-x="524" d="M311 592q0 -60 -59 -84q44 -6 44 -54q0 -46 -41 -77t-118 -31q-40 0 -68 8l17 59q26 -8 49 -8q68 0 68 47q0 28 -53 28q-17 0 -38 -3l10 52h16q83 0 83 48q0 24 -35 24q-29 0 -56 -12l-7 54q43 16 91 16q49 0 73 -18.5t24 -48.5z" />
<glyph unicode="&#xb4;" horiz-adv-x="383" d="M359 675l-174 -109l-38 58l166 124z" />
<glyph unicode="&#xb5;" horiz-adv-x="618" d="M572 63q-50 -73 -125 -73q-78 0 -78 73q0 23 13 68h-1q-24 -53 -78 -96t-107 -43q-38 0 -61 26l-34 -262h-111l142 741h104l-60 -315q-4 -21 -4 -38q0 -23 7 -38q12 -25 38 -25q51 0 110.5 76t79.5 185l30 155h104l-66 -344q-5 -32 -5 -49q0 -9 1 -14q4 -15 19 -15 q24 0 46 32z" />
<glyph unicode="&#xb6;" horiz-adv-x="573" d="M602 675l-15 -84h-67l-131 -687h-162l16 84h70l131 687h158zM369 675l-83 -435h-4q-90 0 -136 46q-48 47 -48 127q0 104 74 183t197 79z" />
<glyph unicode="&#xb7;" horiz-adv-x="250" d="M210 300q0 -31 -22.5 -53t-53.5 -22q-29 0 -49.5 20.5t-20.5 49.5q0 31 23 53t53 22t50 -20.5t20 -49.5z" />
<glyph unicode="&#xb8;" horiz-adv-x="392" d="M199 -40q19 -33 19 -67q0 -63 -66 -128h-87q46 49 57 83q3 11 3 22q0 27 -18 60z" />
<glyph unicode="&#xb9;" horiz-adv-x="306" d="M292 650l-56 -295h-86l41 222l-72 -30l-4 65l98 38h79z" />
<glyph unicode="&#xba;" horiz-adv-x="414" d="M427 558q0 -106 -61.5 -168t-146.5 -62q-65 0 -98 32t-33 92q0 98 56 165.5t147 67.5q136 0 136 -127zM360 279l-16 -84h-291l16 84h291zM335 546q0 62 -55 62q-51 0 -76 -45t-25 -96q0 -62 54 -62q45 0 73.5 41.5t28.5 99.5z" />
<glyph unicode="&#xbb;" horiz-adv-x="506" d="M479 290l-143 -182l-76 42l115 145l-66 147l88 40zM277 291l-151 -180l-74 43l122 141l-75 143l86 40z" />
<glyph unicode="&#xbc;" horiz-adv-x="701" d="M292 650l-56 -295h-87l42 222l-73 -30l-3 65l97 38h80zM684 618l-612 -639l-57 51l611 639zM626 115l-12 -63h-47l-10 -52h-78l10 52h-140l5 58l141 185h118l-35 -180h48zM526 240l-98 -126h73z" />
<glyph unicode="&#xbd;" horiz-adv-x="704" d="M633 227q0 -34 -19 -62t-63 -60l-47 -36h111l-13 -69h-223l12 61l77 58q40 31 54.5 49.5t14.5 37.5q0 29 -35 29q-29 0 -58 -18l-11 65q51 22 98 22q51 0 76.5 -21t25.5 -56zM684 618l-612 -639l-57 51l611 639zM292 650l-56 -295h-87l42 222l-73 -30l-3 65l97 38h80z " />
<glyph unicode="&#xbe;" horiz-adv-x="703" d="M529 240l-97 -126h73zM630 115l-12 -63h-48l-10 -52h-77l10 52h-141l6 58l141 185h118l-35 -180h48zM686 618l-612 -639l-57 51l611 639zM313 592q0 -60 -59 -84q44 -6 44 -54q0 -46 -41 -77t-118 -31q-39 0 -67 8l16 59q28 -8 49 -8q68 0 68 47q0 28 -53 28 q-16 0 -37 -3l9 52h16q83 0 83 48q0 24 -35 24q-28 0 -55 -12l-7 54q41 16 90 16q50 0 73.5 -18.5t23.5 -48.5z" />
<glyph unicode="&#xbf;" horiz-adv-x="439" d="M358 444q0 -30 -20.5 -50t-49.5 -20t-47 18.5t-18 44.5q0 30 20.5 50t49.5 20t47 -18.5t18 -44.5zM321 320q3 -19 3 -36q0 -36 -12 -66q-16 -44 -46 -72.5t-61 -52.5t-54 -51.5t-23 -57.5q0 -42 46.5 -68.5t123.5 -34.5l-32 -97q-123 9 -189.5 60t-66.5 123q0 48 23.5 86 t56.5 65l64 52q32 27 51 64q14 29 14 64q0 10 -1 22h103z" />
<glyph unicode="&#xc0;" horiz-adv-x="609" d="M558 0h-115l-22 149h-268l-79 -149h-113l366 675h119zM409 236l-36 222q-6 39 -10 93h-2q-25 -57 -43 -92l-121 -223h212zM452 781l-25 -60l-198 55l35 79z" />
<glyph unicode="&#xc1;" horiz-adv-x="609" d="M558 0h-115l-22 149h-268l-79 -149h-113l366 675h119zM409 236l-36 222q-6 39 -10 93h-2q-25 -57 -43 -92l-121 -223h212zM542 776l-204 -55l-14 60l200 74z" />
<glyph unicode="&#xc2;" horiz-adv-x="609" d="M558 0h-115l-22 149h-268l-79 -149h-113l366 675h119zM409 236l-36 222q-6 39 -10 93h-2q-25 -57 -43 -92l-121 -223h212zM553 776l-32 -56l-123 61l-141 -61l-22 54l170 86z" />
<glyph unicode="&#xc3;" horiz-adv-x="609" d="M558 0h-115l-22 149h-268l-79 -149h-113l366 675h119zM409 236l-36 222q-6 39 -10 93h-2q-25 -57 -43 -92l-121 -223h212zM574 809q-45 -77 -119 -77q-37 0 -72.5 25t-52.5 25q-33 0 -62 -44l-51 37q45 78 118 78q37 0 73 -25t53 -25q32 0 61 44z" />
<glyph unicode="&#xc4;" horiz-adv-x="609" d="M558 0h-115l-22 149h-268l-79 -149h-113l366 675h119zM409 236l-36 222q-6 39 -10 93h-2q-25 -57 -43 -92l-121 -223h212zM559 786q0 -24 -16.5 -41t-40.5 -17q-22 0 -37.5 15.5t-15.5 37.5q0 25 16.5 41.5t40.5 16.5q22 0 37.5 -15.5t15.5 -37.5zM348 786 q0 -24 -16.5 -41t-39.5 -17t-38 15.5t-15 37.5q0 24 16.5 41t39.5 17t38 -15.5t15 -37.5z" />
<glyph unicode="&#xc5;" horiz-adv-x="609" d="M558 0h-115l-22 149h-268l-79 -149h-113l349 644q-38 28 -38 77q0 52 37.5 86.5t88.5 34.5q48 0 80 -31t32 -77q0 -31 -16 -57.5t-42 -40.5zM445 731q0 22 -14 37t-36 15q-24 0 -40.5 -17t-16.5 -42q0 -22 14 -37t36 -15q24 0 40.5 17t16.5 42zM409 236l-35 212 q-9 50 -12 102h-1q-24 -56 -51 -105l-113 -209h212z" />
<glyph unicode="&#xc6;" horiz-adv-x="760" d="M782 675l-17 -91h-237l-37 -192h229l-17 -89h-229l-41 -210h247l-18 -93h-349l29 154h-206l-105 -154h-117l463 675h405zM425 585h-2q-52 -89 -91 -144l-142 -201h169z" />
<glyph unicode="&#xc7;" horiz-adv-x="556" d="M589 661l-29 -99q-66 23 -130 23q-68 0 -120 -31t-81.5 -82t-44 -108.5t-14.5 -118.5q0 -74 36.5 -114.5t122.5 -40.5q74 0 146 31l1 -97q-88 -32 -179 -32q-58 0 -102 13.5t-71 35.5t-44 53t-23.5 63t-6.5 69q0 120 43 221.5t134 167.5t215 66q82 0 147 -20zM298 -40 q19 -33 19 -67q0 -63 -66 -128h-87q46 49 57 83q3 11 3 22q0 27 -18 60z" />
<glyph unicode="&#xc8;" horiz-adv-x="487" d="M510 675l-18 -91h-241l-37 -192h231l-18 -89h-230l-40 -210h242l-17 -93h-349l128 675h349zM419 781l-25 -60l-198 55l35 79z" />
<glyph unicode="&#xc9;" horiz-adv-x="487" d="M510 675l-18 -91h-241l-37 -192h231l-18 -89h-230l-40 -210h242l-17 -93h-349l128 675h349zM499 776l-204 -55l-14 60l200 74z" />
<glyph unicode="&#xca;" horiz-adv-x="487" d="M510 675l-18 -91h-241l-37 -192h231l-18 -89h-230l-40 -210h242l-17 -93h-349l128 675h349zM508 776l-32 -56l-123 61l-141 -61l-22 54l170 86z" />
<glyph unicode="&#xcb;" horiz-adv-x="487" d="M510 675l-18 -91h-241l-37 -192h231l-18 -89h-230l-40 -210h242l-17 -93h-349l128 675h349zM508 786q0 -24 -17 -41t-40 -17q-22 0 -37.5 15.5t-15.5 37.5q0 25 17 41.5t40 16.5q22 0 37.5 -15.5t15.5 -37.5zM297 786q0 -24 -16.5 -41t-39.5 -17t-38 15.5t-15 37.5 q0 24 16.5 41t39.5 17t38 -15.5t15 -37.5z" />
<glyph unicode="&#xcc;" horiz-adv-x="260" d="M268 675l-128 -675h-107l128 675h107zM299 781l-25 -60l-198 55l35 79z" />
<glyph unicode="&#xcd;" horiz-adv-x="260" d="M268 675l-128 -675h-107l128 675h107zM374 776l-204 -55l-14 60l200 74z" />
<glyph unicode="&#xce;" horiz-adv-x="260" d="M268 675l-128 -675h-107l128 675h107zM388 776l-32 -56l-123 61l-141 -61l-22 54l170 86z" />
<glyph unicode="&#xcf;" horiz-adv-x="260" d="M268 675l-128 -675h-107l128 675h107zM391 786q0 -24 -16.5 -41t-40.5 -17q-22 0 -37.5 15.5t-15.5 37.5q0 25 16.5 41.5t40.5 16.5q22 0 37.5 -15.5t15.5 -37.5zM180 786q0 -24 -16.5 -41t-39.5 -17t-38 15.5t-15 37.5q0 24 16.5 41t39.5 17t38 -15.5t15 -37.5z" />
<glyph unicode="&#xd0;" horiz-adv-x="673" d="M658 434q0 -86 -27 -163.5t-79 -139.5t-137 -98.5t-192 -36.5q-45 0 -110 2t-70 2l57 304h-88l16 82h88l55 288q16 0 55 1.5t76 2t68 0.5q146 0 217 -63.5t71 -180.5zM544 423q0 79 -43 122t-145 43q-60 0 -95 -3l-38 -199h130l-16 -82h-130l-40 -210q35 -5 72 -5 q80 0 141 31t95.5 81.5t51.5 107t17 114.5z" />
<glyph unicode="&#xd1;" horiz-adv-x="678" d="M686 675l-129 -675h-125l-153 379q-30 74 -49 145q-13 -107 -37 -225l-56 -299h-104l128 675h126l151 -366q24 -60 52 -153q20 136 37 223l54 296h105zM621 809q-45 -77 -119 -77q-37 0 -72.5 25t-52.5 25q-33 0 -62 -44l-51 37q45 78 118 78q37 0 73 -25t53 -25 q32 0 61 44z" />
<glyph unicode="&#xd2;" horiz-adv-x="690" d="M683 439q0 -192 -114 -320.5t-277 -128.5q-122 0 -183.5 64t-61.5 182q0 185 113 317t277 132q119 0 182.5 -64t63.5 -182zM568 427q0 76 -37 119t-111 43q-112 0 -184.5 -99.5t-72.5 -236.5q0 -78 37 -122t107 -44q109 0 185 99.5t76 240.5zM520 781l-25 -60l-198 55 l35 79z" />
<glyph unicode="&#xd3;" horiz-adv-x="690" d="M683 439q0 -192 -114 -320.5t-277 -128.5q-122 0 -183.5 64t-61.5 182q0 185 113 317t277 132q119 0 182.5 -64t63.5 -182zM568 427q0 76 -37 119t-111 43q-112 0 -184.5 -99.5t-72.5 -236.5q0 -78 37 -122t107 -44q109 0 185 99.5t76 240.5zM610 776l-204 -55l-14 60 l200 74z" />
<glyph unicode="&#xd4;" horiz-adv-x="690" d="M683 439q0 -192 -114 -320.5t-277 -128.5q-122 0 -183.5 64t-61.5 182q0 185 113 317t277 132q119 0 182.5 -64t63.5 -182zM568 427q0 76 -37 119t-111 43q-112 0 -184.5 -99.5t-72.5 -236.5q0 -78 37 -122t107 -44q109 0 185 99.5t76 240.5zM618 776l-32 -56l-123 61 l-141 -61l-22 54l170 86z" />
<glyph unicode="&#xd5;" horiz-adv-x="690" d="M683 439q0 -192 -114 -320.5t-277 -128.5q-122 0 -183.5 64t-61.5 182q0 185 113 317t277 132q119 0 182.5 -64t63.5 -182zM568 427q0 76 -37 119t-111 43q-112 0 -184.5 -99.5t-72.5 -236.5q0 -78 37 -122t107 -44q109 0 185 99.5t76 240.5zM644 809q-45 -77 -119 -77 q-37 0 -72.5 25t-52.5 25q-33 0 -62 -44l-51 37q45 78 118 78q37 0 73 -25t53 -25q32 0 61 44z" />
<glyph unicode="&#xd6;" horiz-adv-x="690" d="M683 439q0 -192 -114 -320.5t-277 -128.5q-122 0 -183.5 64t-61.5 182q0 185 113 317t277 132q119 0 182.5 -64t63.5 -182zM568 427q0 76 -37 119t-111 43q-112 0 -184.5 -99.5t-72.5 -236.5q0 -78 37 -122t107 -44q109 0 185 99.5t76 240.5zM626 786q0 -24 -17 -41 t-40 -17q-22 0 -37.5 15.5t-15.5 37.5q0 25 17 41.5t40 16.5q22 0 37.5 -15.5t15.5 -37.5zM415 786q0 -24 -16.5 -41t-39.5 -17t-38 15.5t-15 37.5q0 24 16.5 41t39.5 17t38 -15.5t15 -37.5z" />
<glyph unicode="&#xd7;" d="M542 457l-193 -162l132 -164l-72 -58l-131 163l-193 -163l-53 64l194 163l-132 163l72 58l131 -161l191 161z" />
<glyph unicode="&#xd8;" horiz-adv-x="690" d="M683 439q0 -192 -114 -320.5t-277 -128.5q-37 0 -71 8l-53 -100l-76 29l52 98q-97 60 -97 211q0 185 112 317t277 132q34 0 64 -6l50 93l76 -29l-49 -90q106 -58 106 -214zM571 428q0 84 -48 123l-252 -460q15 -3 32 -3q14 0 30 2q100 12 169 108.5t69 229.5zM450 586 q-16 3 -33 3q-10 0 -20 -1q-103 -11 -170 -108.5t-67 -228.5q0 -80 42 -119z" />
<glyph unicode="&#xd9;" horiz-adv-x="673" d="M680 675l-81 -428q-50 -257 -312 -257q-217 0 -217 179q0 32 7 71l83 435h107l-85 -441q-5 -28 -5 -50q0 -41 17 -66q28 -38 108 -38q83 0 129 41t64 137l80 417h105zM494 781l-25 -60l-198 55l35 79z" />
<glyph unicode="&#xda;" horiz-adv-x="673" d="M680 675l-81 -428q-50 -257 -312 -257q-217 0 -217 179q0 32 7 71l83 435h107l-85 -441q-5 -28 -5 -50q0 -41 17 -66q28 -38 108 -38q83 0 129 41t64 137l80 417h105zM600 776l-204 -55l-14 60l200 74z" />
<glyph unicode="&#xdb;" horiz-adv-x="673" d="M680 675l-81 -428q-50 -257 -312 -257q-217 0 -217 179q0 32 7 71l83 435h107l-85 -441q-5 -28 -5 -50q0 -41 17 -66q28 -38 108 -38q83 0 129 41t64 137l80 417h105zM595 776l-32 -56l-123 61l-141 -61l-22 54l170 86z" />
<glyph unicode="&#xdc;" horiz-adv-x="673" d="M680 675l-81 -428q-50 -257 -312 -257q-217 0 -217 179q0 32 7 71l83 435h107l-85 -441q-5 -28 -5 -50q0 -41 17 -66q28 -38 108 -38q83 0 129 41t64 137l80 417h105zM587 786q0 -24 -16.5 -41t-40.5 -17q-22 0 -37.5 15.5t-15.5 37.5q0 25 16.5 41.5t40.5 16.5 q22 0 37.5 -15.5t15.5 -37.5zM376 786q0 -24 -16.5 -41t-39.5 -17t-38 15.5t-15 37.5q0 24 16.5 41t39.5 17t38 -15.5t15 -37.5z" />
<glyph unicode="&#xdd;" horiz-adv-x="536" d="M614 675l-293 -434l-46 -241h-106l45 241l-124 434h112l57 -213q13 -48 26 -114h2q24 43 79 127l129 200h119zM520 776l-204 -55l-14 60l200 74z" />
<glyph unicode="&#xde;" horiz-adv-x="524" d="M539 408q0 -115 -87 -196.5t-229 -81.5q-42 0 -59 2l-25 -132h-106l128 675h107l-19 -99q37 3 80 3q104 0 157 -45t53 -126zM426 390q0 100 -125 100q-35 0 -70 -5l-49 -262q24 -4 58 -4q85 0 135.5 50t50.5 121z" />
<glyph unicode="&#xdf;" horiz-adv-x="577" d="M553 611q0 -40 -16 -70t-39 -48l-47 -35q-23 -16 -39 -36.5t-16 -46.5q0 -21 12 -41t29 -38l34 -37q17 -19 29 -45t12 -56q0 -70 -58 -119t-157 -49q-44 0 -84 8l19 91q39 -13 75 -13q45 0 69.5 19t24.5 52q0 26 -17.5 51.5t-39 45t-39 51t-17.5 67.5q0 37 16 66t39 48 l45 35q23 17 39 39t16 49q0 24 -18 39t-51 15q-112 0 -141 -150l-100 -527q-23 -123 -79.5 -175.5t-153.5 -52.5q-37 0 -72 8l24 87q27 -7 59 -7q50 0 76 30t41 111l99 520q46 239 260 239q77 0 121.5 -34t44.5 -91z" />
<glyph unicode="&#xe0;" horiz-adv-x="540" d="M513 490q-78 -409 -92 -490h-104q14 63 53 182l-2 1q-98 -194 -222 -194q-113 0 -113 154q0 57 11.5 109t36.5 98.5t61.5 80.5t89 54t116.5 20q88 0 165 -15zM394 413q-32 9 -64 9q-63 0 -107.5 -42t-63 -99t-18.5 -119q0 -81 45 -81q58 0 120 100.5t81 195.5zM440 622 l-47 -56l-153 114l58 68z" />
<glyph unicode="&#xe1;" horiz-adv-x="540" d="M513 490q-78 -409 -92 -490h-104q14 63 53 182l-2 1q-98 -194 -222 -194q-113 0 -113 154q0 57 11.5 109t36.5 98.5t61.5 80.5t89 54t116.5 20q88 0 165 -15zM394 413q-32 9 -64 9q-63 0 -107.5 -42t-63 -99t-18.5 -119q0 -81 45 -81q58 0 120 100.5t81 195.5zM531 675 l-174 -109l-38 58l166 124z" />
<glyph unicode="&#xe2;" horiz-adv-x="540" d="M513 490q-78 -409 -92 -490h-104q14 63 53 182l-2 1q-98 -194 -222 -194q-113 0 -113 154q0 57 11.5 109t36.5 98.5t61.5 80.5t89 54t116.5 20q88 0 165 -15zM394 413q-32 9 -64 9q-63 0 -107.5 -42t-63 -99t-18.5 -119q0 -81 45 -81q58 0 120 100.5t81 195.5zM515 616 l-49 -50l-85 83l-113 -83l-38 49l166 133z" />
<glyph unicode="&#xe3;" horiz-adv-x="540" d="M513 490q-78 -409 -92 -490h-104q14 63 53 182l-2 1q-98 -194 -222 -194q-113 0 -113 154q0 57 11.5 109t36.5 98.5t61.5 80.5t89 54t116.5 20q88 0 165 -15zM394 413q-32 9 -64 9q-63 0 -107.5 -42t-63 -99t-18.5 -119q0 -81 45 -81q58 0 120 100.5t81 195.5zM548 670 q-43 -82 -117 -82q-35 0 -69.5 26t-50.5 26q-33 0 -60 -46l-51 41q45 83 117 83q35 0 70 -26.5t51 -26.5q32 0 60 46z" />
<glyph unicode="&#xe4;" horiz-adv-x="540" d="M513 490q-78 -409 -92 -490h-104q14 63 53 182l-2 1q-98 -194 -222 -194q-113 0 -113 154q0 57 11.5 109t36.5 98.5t61.5 80.5t89 54t116.5 20q88 0 165 -15zM394 413q-32 9 -64 9q-63 0 -107.5 -42t-63 -99t-18.5 -119q0 -81 45 -81q58 0 120 100.5t81 195.5zM527 654 q0 -27 -18.5 -45t-43.5 -18t-42 17.5t-17 41.5q0 26 18.5 44t44.5 18q24 0 41 -17t17 -41zM331 654q0 -27 -18.5 -45t-44.5 -18q-25 0 -42 17.5t-17 41.5q0 26 19 44t44 18t42 -17t17 -41z" />
<glyph unicode="&#xe5;" horiz-adv-x="540" d="M513 490q-78 -409 -92 -490h-104q14 63 53 182l-2 1q-98 -194 -222 -194q-113 0 -113 154q0 57 11.5 109t36.5 98.5t61.5 80.5t89 54t116.5 20q88 0 165 -15zM394 413q-32 9 -64 9q-63 0 -107.5 -42t-63 -99t-18.5 -119q0 -81 45 -81q58 0 120 100.5t81 195.5zM511 671 q0 -52 -37.5 -87t-87.5 -35q-48 0 -80.5 31t-32.5 78q0 52 37.5 86.5t87.5 34.5q49 0 81 -30.5t32 -77.5zM446 668q0 21 -14.5 36.5t-36.5 15.5q-23 0 -40 -17t-17 -42q0 -22 14.5 -37t36.5 -15q23 0 40 17t17 42z" />
<glyph unicode="&#xe6;" horiz-adv-x="763" d="M746 390q0 -79 -72.5 -123t-246.5 -52q-4 -28 -4 -53q0 -50 22 -68t79 -18q71 0 142 29v-84q-83 -31 -177 -31q-73 0 -108.5 27.5t-47.5 78.5q-28 -45 -79 -75.5t-109 -30.5q-65 0 -96.5 31t-31.5 80q0 95 84 138t235 50l7 30q4 20 4 36q0 26 -11 42q-18 26 -74 26 q-76 0 -148 -39v90q83 33 170 33q64 0 95 -18t47 -51q30 29 74 49t93 20q80 0 116.5 -33.5t36.5 -83.5zM642 376q0 24 -17 38t-44 14q-50 0 -86.5 -39t-53.5 -100q100 6 150.5 24.5t50.5 62.5zM322 216q-99 -5 -150 -25t-51 -69q0 -22 15 -35.5t39 -13.5q55 0 96 42t51 101z " />
<glyph unicode="&#xe7;" horiz-adv-x="408" d="M425 492l-25 -93q-39 18 -85 18q-80 0 -124.5 -72.5t-44.5 -161.5q0 -98 96 -98q54 0 101 20l-3 -90q-60 -24 -128 -24q-178 0 -178 168q0 147 78.5 247t209.5 100q53 0 103 -14zM209 -40q19 -33 19 -67q0 -63 -66 -128h-87q46 49 57 83q3 11 3 22q0 27 -18 60z" />
<glyph unicode="&#xe8;" horiz-adv-x="480" d="M464 390q0 -167 -318 -178q-4 -26 -4 -50q0 -50 21.5 -68t78.5 -18q70 0 141 29l3 -83q-85 -32 -179 -32q-89 0 -130.5 40t-41.5 125q0 150 78.5 251t197.5 101q79 0 116 -33.5t37 -83.5zM359 376q0 24 -16 37.5t-44 13.5q-51 0 -87.5 -40t-52.5 -101q200 7 200 90z M407 622l-47 -56l-153 114l58 68z" />
<glyph unicode="&#xe9;" horiz-adv-x="480" d="M464 390q0 -167 -318 -178q-4 -26 -4 -50q0 -50 21.5 -68t78.5 -18q70 0 141 29l3 -83q-85 -32 -179 -32q-89 0 -130.5 40t-41.5 125q0 150 78.5 251t197.5 101q79 0 116 -33.5t37 -83.5zM359 376q0 24 -16 37.5t-44 13.5q-51 0 -87.5 -40t-52.5 -101q200 7 200 90z M475 675l-174 -109l-38 58l166 124z" />
<glyph unicode="&#xea;" horiz-adv-x="480" d="M464 390q0 -167 -318 -178q-4 -26 -4 -50q0 -50 21.5 -68t78.5 -18q70 0 141 29l3 -83q-85 -32 -179 -32q-89 0 -130.5 40t-41.5 125q0 150 78.5 251t197.5 101q79 0 116 -33.5t37 -83.5zM359 376q0 24 -16 37.5t-44 13.5q-51 0 -87.5 -40t-52.5 -101q200 7 200 90z M468 616l-49 -50l-85 83l-113 -83l-38 49l166 133z" />
<glyph unicode="&#xeb;" horiz-adv-x="480" d="M464 390q0 -167 -318 -178q-4 -26 -4 -50q0 -50 21.5 -68t78.5 -18q70 0 141 29l3 -83q-85 -32 -179 -32q-89 0 -130.5 40t-41.5 125q0 150 78.5 251t197.5 101q79 0 116 -33.5t37 -83.5zM359 376q0 24 -16 37.5t-44 13.5q-51 0 -87.5 -40t-52.5 -101q200 7 200 90z M498 654q0 -27 -18.5 -45t-43.5 -18t-42 17.5t-17 41.5q0 26 18.5 44t44.5 18q24 0 41 -17t17 -41zM302 654q0 -27 -18.5 -45t-44.5 -18q-25 0 -42 17.5t-17 41.5q0 26 19 44t44 18t42 -17t17 -41z" />
<glyph unicode="&#xec;" horiz-adv-x="258" d="M232 497l-95 -497h-105l95 497h105zM290 622l-47 -56l-153 114l58 68z" />
<glyph unicode="&#xed;" horiz-adv-x="258" d="M232 497l-95 -497h-105l95 497h105zM314 675l-174 -109l-38 58l166 124z" />
<glyph unicode="&#xee;" horiz-adv-x="258" d="M232 497l-95 -497h-105l95 497h105zM341 616l-49 -50l-85 83l-113 -83l-38 49l166 133z" />
<glyph unicode="&#xef;" horiz-adv-x="258" d="M232 497l-95 -497h-105l95 497h105zM367 654q0 -27 -18.5 -45t-43.5 -18t-42 17.5t-17 41.5q0 26 18.5 44t44.5 18q24 0 41 -17t17 -41zM171 654q0 -27 -18.5 -45t-44.5 -18q-25 0 -42 17.5t-17 41.5q0 26 19 44t44 18t42 -17t17 -41z" />
<glyph unicode="&#xf0;" horiz-adv-x="539" d="M541 672l-98 -41q74 -118 74 -258q0 -169 -83 -276t-208 -107q-92 0 -142.5 45t-50.5 137q0 139 81 236t202 97q72 0 91 -39q-9 30 -18 47q-21 46 -42 78l-107 -45l-33 55l97 41q-22 24 -62 59l103 46q35 -33 59 -63l105 43zM403 316q0 46 -24 73.5t-69 27.5 q-75 0 -121 -67.5t-46 -155.5q0 -54 24.5 -83t69.5 -29t79.5 26t52 65t26 75.5t8.5 67.5z" />
<glyph unicode="&#xf1;" horiz-adv-x="561" d="M506 340l-65 -340h-105l61 315q5 27 5 47q0 18 -4 30q-10 24 -39 24q-38 0 -81.5 -50t-75.5 -118.5t-43 -129.5l-22 -118h-105l50 259q24 117 43 238h104q-13 -66 -51 -177l2 -1q91 189 221 189q68 0 94 -44q16 -29 16 -71q0 -24 -5 -53zM525 670q-43 -82 -117 -82 q-35 0 -69.5 26t-50.5 26q-33 0 -60 -46l-51 41q45 83 117 83q35 0 70 -26.5t51 -26.5q32 0 60 46z" />
<glyph unicode="&#xf2;" horiz-adv-x="542" d="M517 326q0 -148 -88 -242t-207 -94q-188 0 -188 178q0 149 85 244t208 95q98 0 144 -48.5t46 -132.5zM406 314q0 102 -95 102q-73 0 -120 -70.5t-47 -160.5q0 -103 93 -103q71 0 120 67.5t49 164.5zM418 622l-47 -56l-153 114l58 68z" />
<glyph unicode="&#xf3;" horiz-adv-x="542" d="M517 326q0 -148 -88 -242t-207 -94q-188 0 -188 178q0 149 85 244t208 95q98 0 144 -48.5t46 -132.5zM406 314q0 102 -95 102q-73 0 -120 -70.5t-47 -160.5q0 -103 93 -103q71 0 120 67.5t49 164.5zM498 675l-174 -109l-38 58l166 124z" />
<glyph unicode="&#xf4;" horiz-adv-x="542" d="M517 326q0 -148 -88 -242t-207 -94q-188 0 -188 178q0 149 85 244t208 95q98 0 144 -48.5t46 -132.5zM406 314q0 102 -95 102q-73 0 -120 -70.5t-47 -160.5q0 -103 93 -103q71 0 120 67.5t49 164.5zM500 616l-49 -50l-85 83l-113 -83l-38 49l166 133z" />
<glyph unicode="&#xf5;" horiz-adv-x="542" d="M517 326q0 -148 -88 -242t-207 -94q-188 0 -188 178q0 149 85 244t208 95q98 0 144 -48.5t46 -132.5zM406 314q0 102 -95 102q-73 0 -120 -70.5t-47 -160.5q0 -103 93 -103q71 0 120 67.5t49 164.5zM530 670q-43 -82 -117 -82q-35 0 -69.5 26t-50.5 26q-33 0 -60 -46 l-51 41q45 83 117 83q35 0 70 -26.5t51 -26.5q32 0 60 46z" />
<glyph unicode="&#xf6;" horiz-adv-x="542" d="M517 326q0 -148 -88 -242t-207 -94q-188 0 -188 178q0 149 85 244t208 95q98 0 144 -48.5t46 -132.5zM406 314q0 102 -95 102q-73 0 -120 -70.5t-47 -160.5q0 -103 93 -103q71 0 120 67.5t49 164.5zM517 654q0 -27 -18.5 -45t-43.5 -18t-42 17.5t-17 41.5q0 26 18.5 44 t44.5 18q24 0 41 -17t17 -41zM321 654q0 -27 -18.5 -45t-44.5 -18q-25 0 -42 17.5t-17 41.5q0 26 19 44t44 18t42 -17t17 -41z" />
<glyph unicode="&#xf7;" d="M392 501q0 -30 -20.5 -50.5t-49.5 -20.5q-27 0 -46.5 20t-19.5 47q0 29 20.5 49.5t49.5 20.5q28 0 47 -19.5t19 -46.5zM530 342l-18 -89h-468l17 89h469zM314 98q0 -29 -20.5 -49.5t-48.5 -20.5t-47 19.5t-19 46.5q0 30 20 50.5t49 20.5q28 0 47 -20t19 -47z" />
<glyph unicode="&#xf8;" horiz-adv-x="542" d="M517 326q0 -148 -88 -242t-207 -94q-28 0 -58 7l-57 -101l-60 30l53 94q-66 43 -66 148q0 146 82 242.5t211 96.5q24 0 47 -5l58 102l59 -29l-53 -93q79 -43 79 -156zM413 314q0 50 -29 76l-174 -308q13 -4 29 -4h12q69 6 115.5 75t46.5 161zM328 419q-10 1 -31 1 q-68 -4 -114.5 -72t-46.5 -158q0 -48 21 -73z" />
<glyph unicode="&#xf9;" horiz-adv-x="561" d="M536 497l-50 -259q-28 -137 -44 -238h-103q12 64 50 177l-2 1q-39 -83 -94.5 -136t-125.5 -53q-68 0 -94 45q-16 28 -16 70q0 24 5 53l65 340h104l-60 -315q-5 -27 -5 -47q0 -18 4 -30q10 -24 39 -24q56 0 118.5 100t81.5 198l22 118h105zM397 622l-47 -56l-153 114 l58 68z" />
<glyph unicode="&#xfa;" horiz-adv-x="561" d="M536 497l-50 -259q-28 -137 -44 -238h-103q12 64 50 177l-2 1q-39 -83 -94.5 -136t-125.5 -53q-68 0 -94 45q-16 28 -16 70q0 24 5 53l65 340h104l-60 -315q-5 -27 -5 -47q0 -18 4 -30q10 -24 39 -24q56 0 118.5 100t81.5 198l22 118h105zM506 675l-174 -109l-38 58 l166 124z" />
<glyph unicode="&#xfb;" horiz-adv-x="561" d="M536 497l-50 -259q-28 -137 -44 -238h-103q12 64 50 177l-2 1q-39 -83 -94.5 -136t-125.5 -53q-68 0 -94 45q-16 28 -16 70q0 24 5 53l65 340h104l-60 -315q-5 -27 -5 -47q0 -18 4 -30q10 -24 39 -24q56 0 118.5 100t81.5 198l22 118h105zM491 616l-49 -50l-85 83 l-113 -83l-38 49l166 133z" />
<glyph unicode="&#xfc;" horiz-adv-x="561" d="M536 497l-50 -259q-28 -137 -44 -238h-103q12 64 50 177l-2 1q-39 -83 -94.5 -136t-125.5 -53q-68 0 -94 45q-16 28 -16 70q0 24 5 53l65 340h104l-60 -315q-5 -27 -5 -47q0 -18 4 -30q10 -24 39 -24q56 0 118.5 100t81.5 198l22 118h105zM510 654q0 -27 -18.5 -45 t-43.5 -18t-42 17.5t-17 41.5q0 26 18.5 44t44.5 18q24 0 41 -17t17 -41zM314 654q0 -27 -18.5 -45t-44.5 -18q-25 0 -42 17.5t-17 41.5q0 26 19 44t44 18t42 -17t17 -41z" />
<glyph unicode="&#xfd;" horiz-adv-x="497" d="M524 489q-204 -478 -377 -650q-92 -91 -184 -91q-40 0 -72 8l18 94q27 -10 61 -10q55 0 103 50q51 52 51 145q0 190 -74 462h117q54 -209 54 -375q0 -18 -6 -52h1q103 185 210 447zM460 675l-174 -109l-38 58l166 124z" />
<glyph unicode="&#xfe;" horiz-adv-x="540" d="M514 354q0 -57 -11.5 -109t-36.5 -98.5t-61.5 -80.5t-89 -54t-116.5 -20q-26 0 -63 5l-45 -241h-105l186 974h106l-36 -184q-21 -107 -62 -226l2 -1q89 189 220 189q112 0 112 -154zM406 335q0 81 -45 81q-58 0 -120 -100t-81 -194l-6 -35q28 -11 64 -11q62 0 106.5 42 t63 98.5t18.5 118.5z" />
<glyph unicode="&#xff;" horiz-adv-x="497" d="M524 489q-204 -478 -377 -650q-92 -91 -184 -91q-40 0 -72 8l18 94q27 -10 61 -10q55 0 103 50q51 52 51 145q0 190 -74 462h117q54 -209 54 -375q0 -18 -6 -52h1q103 185 210 447zM465 654q0 -27 -18.5 -45t-43.5 -18t-42 17.5t-17 41.5q0 26 18.5 44t44.5 18 q24 0 41 -17t17 -41zM269 654q0 -27 -18.5 -45t-44.5 -18q-25 0 -42 17.5t-17 41.5q0 26 19 44t44 18t42 -17t17 -41z" />
<glyph unicode="&#x131;" horiz-adv-x="258" d="M232 497l-95 -497h-105l95 497h105z" />
<glyph unicode="&#x152;" horiz-adv-x="845" d="M867 675l-17 -91h-242l-37 -192h230l-16 -89h-231l-39 -210h242l-19 -93h-339q-60 -10 -107 -10q-122 0 -183.5 64t-61.5 182q0 185 113 317t277 132q57 0 100 -10h330zM499 575q-39 14 -79 14q-112 0 -184.5 -99.5t-72.5 -236.5q0 -78 37 -122t107 -44q51 0 103 15z" />
<glyph unicode="&#x153;" horiz-adv-x="833" d="M817 390q0 -167 -318 -178q0 -4 -1.5 -14.5t-2 -19.5t-0.5 -16q0 -50 21.5 -68t78.5 -18q72 0 141 29l3 -83q-85 -32 -179 -32q-125 0 -149 87q-77 -87 -189 -87q-188 0 -188 178q0 149 85 244t208 95q120 0 160 -87q71 87 178 87q79 0 115.5 -33.5t36.5 -83.5zM713 376 q0 24 -16 37.5t-44 13.5q-51 0 -87.5 -39.5t-53.5 -101.5q201 7 201 90zM406 314q0 102 -95 102q-73 0 -120 -70.5t-47 -160.5q0 -103 93 -103q71 0 120 67.5t49 164.5z" />
<glyph unicode="&#x178;" horiz-adv-x="536" d="M614 675l-293 -434l-46 -241h-106l45 241l-124 434h112l57 -213q13 -48 26 -114h2q24 43 79 127l129 200h119zM523 786q0 -24 -16.5 -41t-40.5 -17q-22 0 -37.5 15.5t-15.5 37.5q0 25 16.5 41.5t40.5 16.5q22 0 37.5 -15.5t15.5 -37.5zM312 786q0 -24 -16.5 -41 t-39.5 -17t-38 15.5t-15 37.5q0 24 16.5 41t39.5 17t38 -15.5t15 -37.5z" />
<glyph unicode="&#x2c6;" horiz-adv-x="421" d="M407 616l-49 -50l-85 83l-113 -83l-38 49l166 133z" />
<glyph unicode="&#x2da;" horiz-adv-x="367" d="M387 655q0 -52 -37.5 -87t-87.5 -35q-48 0 -80.5 31t-32.5 78q0 52 37.5 86.5t87.5 34.5q49 0 81 -30.5t32 -77.5zM322 652q0 21 -14.5 36.5t-36.5 15.5q-23 0 -40 -17t-17 -42q0 -22 14.5 -37t36.5 -15q23 0 40 17t17 42z" />
<glyph unicode="&#x2dc;" horiz-adv-x="474" d="M466 670q-43 -82 -117 -82q-35 0 -69.5 26t-50.5 26q-33 0 -60 -46l-51 41q45 83 117 83q35 0 70 -26.5t51 -26.5q32 0 60 46z" />
<glyph unicode="&#x3bc;" horiz-adv-x="618" d="M572 63q-50 -73 -125 -73q-78 0 -78 73q0 23 13 68h-1q-24 -53 -78 -96t-107 -43q-38 0 -61 26l-34 -262h-111l142 741h104l-60 -315q-4 -21 -4 -38q0 -23 7 -38q12 -25 38 -25q51 0 110.5 76t79.5 185l30 155h104l-66 -344q-5 -32 -5 -49q0 -9 1 -14q4 -15 19 -15 q24 0 46 32z" />
<glyph unicode="&#x2000;" horiz-adv-x="430" />
<glyph unicode="&#x2001;" horiz-adv-x="860" />
<glyph unicode="&#x2002;" horiz-adv-x="430" />
<glyph unicode="&#x2003;" horiz-adv-x="860" />
<glyph unicode="&#x2004;" horiz-adv-x="286" />
<glyph unicode="&#x2005;" horiz-adv-x="215" />
<glyph unicode="&#x2006;" horiz-adv-x="143" />
<glyph unicode="&#x2007;" horiz-adv-x="143" />
<glyph unicode="&#x2008;" horiz-adv-x="107" />
<glyph unicode="&#x2009;" horiz-adv-x="172" />
<glyph unicode="&#x200a;" horiz-adv-x="47" />
<glyph unicode="&#x2010;" horiz-adv-x="329" d="M301 326l-16 -86h-238l16 86h238z" />
<glyph unicode="&#x2011;" horiz-adv-x="329" d="M301 326l-16 -86h-238l16 86h238z" />
<glyph unicode="&#x2013;" d="M571 344l-18 -93h-550l18 93h550z" />
<glyph unicode="&#x2014;" horiz-adv-x="1000" d="M906 344l-17 -93h-771l18 93h770z" />
<glyph unicode="&#x2018;" horiz-adv-x="249" d="M300 705q-56 -48 -72 -84q-6 -16 -6 -30q0 -18 11 -33q10 -16 10 -32t-9 -32q-18 -35 -58 -35q-45 0 -62 43q-7 18 -7 37q0 47 42 105q40 55 113 106z" />
<glyph unicode="&#x2019;" horiz-adv-x="249" d="M211 741q44 0 61 -43q7 -18 7 -38q0 -47 -42 -104q-40 -55 -112 -106l-39 46q77 64 77 113q0 18 -9 33q-10 15 -10 32q0 16 9 32q18 35 58 35z" />
<glyph unicode="&#x201a;" horiz-adv-x="249" d="M92 129q44 0 61 -43q7 -18 7 -38q0 -47 -42 -104q-40 -55 -112 -106l-39 45q57 48 73 84q6 16 6 30q0 18 -11 33q-10 16 -10 32t9 32q18 35 58 35z" />
<glyph unicode="&#x201c;" horiz-adv-x="447" d="M504 707q-77 -65 -77 -115q0 -17 9 -32q11 -16 11 -33q0 -15 -9 -31q-18 -35 -58 -35q-45 0 -62 43q-7 18 -7 38q0 47 42 104q40 55 112 106zM300 707q-56 -48 -72 -84q-6 -16 -6 -30q0 -18 11 -33q10 -15 10 -32q0 -15 -9 -32q-19 -35 -58 -35q-45 0 -62 43q-7 18 -7 37 q0 47 42 105q40 55 113 106z" />
<glyph unicode="&#x201d;" horiz-adv-x="447" d="M414 745q45 0 62 -43q7 -17 7 -36q0 -48 -43 -106q-40 -55 -112 -106l-39 45q78 64 78 113q0 17 -10 33t-10 33q0 16 9 32q18 35 58 35zM211 745q44 0 61 -43q7 -18 7 -38q0 -47 -42 -104q-40 -55 -112 -106l-39 45q78 64 78 113q0 17 -10 33t-10 33q0 16 8 32 q19 35 59 35z" />
<glyph unicode="&#x201e;" horiz-adv-x="447" d="M295 129q45 0 62 -43q7 -18 7 -38q0 -47 -42 -104q-40 -55 -112 -106l-39 45q57 47 72 84q7 16 7 31q0 17 -11 32q-11 16 -11 33q0 15 9 31q18 35 58 35zM92 129q44 0 61 -43q7 -18 7 -38q0 -47 -42 -104q-40 -55 -112 -106l-39 45q57 48 73 84q6 16 6 30q0 18 -11 33 q-10 16 -10 32t9 32q18 35 58 35z" />
<glyph unicode="&#x2022;" horiz-adv-x="421" d="M355 301q0 -57 -39.5 -97t-95.5 -40q-54 0 -91.5 38t-37.5 91q0 57 39.5 97t95.5 40q54 0 91.5 -38t37.5 -91z" />
<glyph unicode="&#x2026;" horiz-adv-x="677" d="M593 61q0 -30 -20.5 -50.5t-48.5 -20.5t-46.5 19.5t-18.5 45.5q0 30 20.5 51t49.5 21q27 0 45.5 -19.5t18.5 -46.5zM374 61q0 -30 -20.5 -50.5t-48.5 -20.5t-46.5 19.5t-18.5 45.5q0 30 21 51t49 21q27 0 45.5 -19.5t18.5 -46.5zM156 61q0 -30 -21 -50.5t-49 -20.5 q-27 0 -45.5 19.5t-18.5 45.5q0 30 20.5 51t48.5 21q27 0 46 -19.5t19 -46.5z" />
<glyph unicode="&#x202f;" horiz-adv-x="172" />
<glyph unicode="&#x2039;" horiz-adv-x="307" d="M281 436l-119 -143l69 -144l-86 -41l-86 191l147 181z" />
<glyph unicode="&#x203a;" horiz-adv-x="307" d="M274 289l-147 -181l-75 44l119 143l-68 144l85 41z" />
<glyph unicode="&#x205f;" horiz-adv-x="215" />
<glyph unicode="&#x20ac;" d="M583 634l-35 -87q-49 28 -113 28q-124 0 -184 -139h177l-13 -68h-191q-11 -38 -16 -83h192l-13 -68h-183q-1 -70 28.5 -105t102.5 -35q61 0 129 28l15 -82q-79 -33 -169 -33q-118 0 -169 58q-48 55 -48 157v12h-85l12 68h79q6 47 16 83h-79l13 68h89q40 100 117.5 162 t197.5 62q68 0 130 -26z" />
<glyph unicode="&#x2122;" horiz-adv-x="681" d="M677 675l-9 -281h-79l6 136l3 50l-18 -45l-66 -141h-74l-12 144l-1 42l-10 -36l-49 -150h-72l95 281h96l12 -140l1 -44l15 41l68 143h94zM336 675l-12 -65h-68l-41 -216h-78l42 216h-71l13 65h215z" />
</font>
</defs>
</svg>
