<?xml version="1.0" standalone="no"?>
<!DOCTYPE svg PUBLIC "-//W3C//DTD SVG 1.1//EN" "http://www.w3.org/Graphics/SVG/1.1/DTD/svg11.dtd" >
<svg xmlns="http://www.w3.org/2000/svg">
<metadata>
This is a custom SVG webfont generated by Font Squirrel.
</metadata>
<defs>
<font id="webfontvgvmoGwq" horiz-adv-x="550" >
<font-face units-per-em="1000" ascent="800" descent="-200" />
<missing-glyph horiz-adv-x="218" />
<glyph unicode=" "  horiz-adv-x="218" />
<glyph unicode="&#x09;" horiz-adv-x="218" />
<glyph unicode="&#xa0;" horiz-adv-x="218" />
<glyph unicode="!" horiz-adv-x="320" d="M232 705l-17 -528h-91l-18 528h126zM237 57q0 -28 -19.5 -47.5t-48.5 -19.5t-49 19.5t-20 47.5t20 47t49 19t48.5 -19t19.5 -47z" />
<glyph unicode="&#x22;" horiz-adv-x="383" d="M335 701l-15 -241h-80l-15 241h110zM158 701l-15 -241h-79l-16 241h110z" />
<glyph unicode="#" d="M521 405h-90l-15 -154h81v-74h-89l-19 -177h-79l19 177h-138l-18 -177h-80l19 177h-83v74h91l15 154h-82v73h90l18 172h80l-19 -172h138l18 172h79l-18 -172h82v-73zM352 405h-137l-16 -154h138z" />
<glyph unicode="$" d="M466 204q0 -67 -45 -117.5t-122 -65.5v-106h-78v101q-61 0 -123 13l9 97q61 -21 127 -21q54 0 87 22t33 65q0 33 -28.5 54.5t-69 36t-81 32.5t-69 55t-28.5 92q0 65 43.5 112.5t115.5 59.5v96h78v-91q59 -2 105 -12l-10 -92q-54 17 -111 17q-58 0 -85 -22.5t-27 -55.5 q0 -26 20.5 -46t51.5 -31.5t67.5 -27.5t67.5 -34t51.5 -52t20.5 -79z" />
<glyph unicode="%" horiz-adv-x="755" d="M713 153q0 -72 -43 -117.5t-110 -45.5q-71 0 -107.5 40.5t-36.5 113.5q0 71 43 116t110 45q70 0 107 -39t37 -113zM659 621l-498 -642l-69 48l499 642zM338 509q0 -73 -42.5 -118.5t-110.5 -45.5q-71 0 -107 40.5t-36 113.5q0 71 42.5 116t109.5 45q70 0 107 -38.5 t37 -112.5zM629 147q0 47 -15.5 68t-49.5 21q-28 0 -46 -23.5t-18 -63.5q0 -90 66 -90q27 0 45 24t18 64zM255 502q0 47 -16 68t-49 21q-28 0 -46 -23.5t-18 -62.5q0 -91 66 -91q27 0 45 24t18 64z" />
<glyph unicode="&#x26;" horiz-adv-x="796" d="M746 61l-70 -82q-84 59 -139 103q-113 -92 -262 -92q-108 0 -165.5 55.5t-57.5 140.5q0 63 34 112.5t100 100.5q-50 58 -70 98t-20 82q0 67 50 112.5t137 45.5q80 0 124 -38.5t44 -102.5q0 -99 -122 -195q109 -109 204 -183v-1q64 94 64 214v21h106v-17q0 -157 -91 -276 q72 -57 134 -98zM346 587q0 30 -18 49.5t-53 19.5q-32 0 -52.5 -20t-20.5 -51q0 -48 66 -123q40 34 59 62.5t19 62.5zM460 141q-115 92 -212 195q-86 -70 -86 -136q0 -50 36 -84.5t95 -34.5q94 0 167 60z" />
<glyph unicode="'" horiz-adv-x="207" d="M158 701l-15 -241h-79l-16 241h110z" />
<glyph unicode="(" horiz-adv-x="304" d="M290 -174l-81 -37q-147 231 -147 495q0 267 148 500l77 -37q-120 -209 -120 -458q0 -256 123 -463z" />
<glyph unicode=")" horiz-adv-x="304" d="M246 288q0 -266 -148 -499l-77 36q121 210 121 458q0 254 -122 463l81 38q145 -231 145 -496z" />
<glyph unicode="*" horiz-adv-x="378" d="M339 534l-39 -68l-88 67l14 -110h-78l13 110l-88 -67l-38 67l102 43l-102 43l39 67l88 -66l-14 110h78l-13 -110l88 66l38 -66l-102 -43z" />
<glyph unicode="+" d="M509 253h-184v-195h-101v195h-183v89h183v194h101v-194h184v-89z" />
<glyph unicode="," horiz-adv-x="242" d="M119 129q46 0 64 -46q8 -20 8 -42q0 -51 -40 -113q-30 -47 -80 -91l-45 40q58 62 58 107q0 23 -15 41q-16 18 -16 39q0 14 7 28q16 37 59 37z" />
<glyph unicode="-" horiz-adv-x="332" d="M286 240h-240v86h240v-86z" />
<glyph unicode="." horiz-adv-x="242" d="M192 61q0 -29 -21 -50t-50 -21t-50 21t-21 50t21 50t50 21t50 -21t21 -50z" />
<glyph unicode="/" horiz-adv-x="449" d="M451 757l-350 -918h-105l351 918h104z" />
<glyph unicode="0" d="M507 331q0 -172 -68 -256.5t-170 -84.5q-113 0 -170 77t-57 261q0 165 65 248.5t174 83.5q110 0 168 -75.5t58 -253.5zM392 326q0 137 -28 190.5t-90 53.5q-117 0 -117 -237q0 -138 26.5 -195t90.5 -57q118 0 118 245z" />
<glyph unicode="1" d="M499 0h-428v96h169v444l-153 -60l-18 101l198 69h84v-554h148v-96z" />
<glyph unicode="2" d="M488 0h-433v87l123 120q104 103 136.5 151.5t32.5 93.5q0 49 -32 80t-88 31q-80 0 -143 -48l-24 94q88 51 188 51q105 0 160.5 -54.5t55.5 -134.5q0 -67 -33.5 -125.5t-127.5 -147.5l-102 -96v-2q66 3 196 3h91v-103z" />
<glyph unicode="3" d="M478 202q0 -98 -76 -155t-204 -57q-75 0 -126 16l11 93q59 -19 124 -19q76 0 116 30t40 80q0 49 -39 77t-115 28q-42 0 -99 -5v84h25q215 0 215 110q0 41 -31 64.5t-85 23.5q-72 0 -142 -35l-10 91q81 32 172 32q101 0 154.5 -43.5t53.5 -113.5q0 -115 -119 -150l-1 -2 q59 -6 97.5 -48.5t38.5 -100.5z" />
<glyph unicode="4" d="M529 146h-100v-146h-106v146h-293l-9 88l263 416h145v-408h100v-96zM325 242v301h-1l-195 -303q53 2 196 2z" />
<glyph unicode="5" d="M481 215q0 -102 -76 -163.5t-201 -61.5q-66 0 -122 13v98q60 -19 130 -19q73 0 112.5 32.5t39.5 88.5q0 54 -42.5 82.5t-116.5 28.5q-68 0 -111 -8v344h361v-101h-260v-151q14 1 47 1q114 0 176.5 -51t62.5 -133z" />
<glyph unicode="6" d="M509 221q0 -105 -63 -168t-167 -63q-109 0 -170.5 71.5t-61.5 206.5q0 196 90 293.5t246 97.5q39 0 66 -3v-93q-35 6 -73 6q-172 0 -215 -188q-5 -25 -8 -45h1q50 75 153 75q95 0 148.5 -54t53.5 -136zM401 204q0 55 -30.5 87t-88.5 32q-54 0 -87 -35t-33 -77 q0 -58 32.5 -96t91.5 -38q54 0 84.5 35t30.5 92z" />
<glyph unicode="7" d="M497 558q-143 -269 -238 -558h-123q107 308 237 548q-78 -3 -233 -3h-87v105h444v-92z" />
<glyph unicode="8" d="M502 172q0 -84 -66.5 -133t-166.5 -49q-101 0 -161 45t-60 121q0 55 34.5 95t95.5 75q-56 31 -85 68t-29 90q0 77 60.5 126.5t156.5 49.5q95 0 150 -44.5t55 -115.5q0 -50 -30.5 -87t-85.5 -71q62 -33 97 -71.5t35 -98.5zM377 491q0 39 -27.5 62t-76.5 23q-46 0 -73 -24 t-27 -59q0 -36 24.5 -59.5t82.5 -51.5q47 27 72 51.5t25 57.5zM390 162q0 43 -31.5 69.5t-92.5 53.5q-52 -30 -79.5 -56.5t-27.5 -64.5q0 -39 31.5 -63.5t87.5 -24.5q49 0 80.5 23t31.5 63z" />
<glyph unicode="9" d="M500 382q0 -198 -90 -294.5t-246 -96.5q-52 0 -85 7v95q47 -11 94 -11q173 0 208 177l5 23q3 14 4 21h-1q-50 -66 -148 -66q-95 0 -148 54.5t-53 140.5q0 104 64 166t166 62q109 0 169.5 -69t60.5 -209zM384 440q0 59 -32 96t-90 37q-53 0 -83.5 -35.5t-30.5 -89.5 q0 -57 30.5 -89.5t84.5 -32.5q56 0 88.5 33t32.5 81z" />
<glyph unicode=":" horiz-adv-x="292" d="M230 349q0 -29 -21 -50t-50 -21t-50 21t-21 50t21 50t50 21t50 -21t21 -50zM230 61q0 -29 -21 -50t-50 -21t-50 21t-21 50t21 50t50 21t50 -21t21 -50z" />
<glyph unicode=";" horiz-adv-x="292" d="M230 349q0 -29 -21 -50t-50 -21t-50 21t-21 50t21 50t50 21t50 -21t21 -50zM159 129q45 0 63 -46q8 -20 8 -42q0 -51 -40 -113q-29 -47 -79 -91l-45 40q57 62 57 107q0 23 -15 41t-15 39q0 13 7 28q16 37 59 37z" />
<glyph unicode="&#x3c;" d="M455 86l-69 -73l-318 289l317 288l69 -70l-249 -217z" />
<glyph unicode="=" d="M495 343h-440v87h440v-87zM495 164h-440v87h440v-87z" />
<glyph unicode="&#x3e;" d="M482 302l-317 -289l-69 70l249 218l-250 216l69 73z" />
<glyph unicode="?" horiz-adv-x="448" d="M394 515q0 -34 -11 -62.5t-28 -47.5l-37 -39q-19 -20 -37 -36t-30.5 -39.5t-14.5 -48.5q-1 -6 -1 -11q0 -23 8 -54h-104q-12 43 -12 74q0 13 2 24q7 37 30.5 68.5t49.5 52.5t46.5 49t20.5 58q0 48 -54 78.5t-146 34.5l14 97q144 -4 224 -61t80 -137zM260 57 q0 -29 -19.5 -48t-48.5 -19t-48.5 19.5t-19.5 47.5t19.5 47t48.5 19t48.5 -19t19.5 -47z" />
<glyph unicode="@" horiz-adv-x="975" d="M882 409q0 -133 -65 -206.5t-168 -73.5q-56 0 -83 30q-23 26 -23 63q0 5 1 11h-3q-16 -37 -57.5 -70.5t-88.5 -33.5q-99 0 -99 139q0 117 59 192.5t170 75.5q64 0 123 -17l-37 -206q-4 -20 -4 -36q0 -62 56 -62q54 0 88.5 48.5t34.5 140.5q0 103 -66 174t-203 71 q-142 0 -239 -100t-97 -256q0 -136 76 -212.5t222 -76.5q82 0 171 27l16 -84q-93 -31 -200 -31q-182 0 -282.5 98t-100.5 267q0 129 59.5 233.5t160 162.5t221.5 58q172 0 265 -93t93 -233zM553 456q-20 7 -52 7q-56 0 -87.5 -57t-31.5 -120q0 -71 38 -71q36 0 71 50t53 143 z" />
<glyph unicode="A" horiz-adv-x="620" d="M614 0h-121l-52 149h-273l-52 -149h-110l242 675h121zM413 236l-80 223q-21 63 -28 92h-2q-10 -42 -27 -91l-80 -224h217z" />
<glyph unicode="B" horiz-adv-x="574" d="M528 204q0 -36 -13 -70t-41.5 -66t-82.5 -51.5t-128 -19.5q-23 0 -88.5 1.5t-96.5 1.5v675q159 3 210 3q107 0 163.5 -42.5t56.5 -121.5q0 -52 -29 -93.5t-81 -60.5v-2q63 -12 96.5 -55t33.5 -99zM393 497q0 94 -124 94q-30 0 -82 -2v-200q18 -1 58 -1q148 0 148 109z M412 202q0 105 -164 105q-46 0 -61 -1v-215q28 -5 80 -5q72 0 108.5 31.5t36.5 84.5z" />
<glyph unicode="C" horiz-adv-x="575" d="M533 26q-83 -34 -181 -34q-160 0 -234.5 90t-74.5 237q0 164 84.5 263t248.5 99q81 0 150 -21l-16 -100q-70 25 -143 25q-101 0 -153 -68.5t-52 -179.5q0 -247 214 -247q75 0 139 32z" />
<glyph unicode="D" horiz-adv-x="673" d="M631 347q0 -169 -102 -260t-272 -91q-41 0 -105.5 2t-73.5 2v674q16 0 56.5 1.5t79 2t73.5 0.5q344 0 344 -331zM515 339q0 249 -236 249q-56 0 -92 -3v-491q37 -5 81 -5q114 0 180.5 62.5t66.5 187.5z" />
<glyph unicode="E" horiz-adv-x="498" d="M434 0h-356v675h356v-91h-247v-192h235v-89h-235v-210h247v-93z" />
<glyph unicode="F" horiz-adv-x="467" d="M430 583h-243v-198h230v-89h-230v-296h-109v675h352v-92z" />
<glyph unicode="G" horiz-adv-x="679" d="M604 31q-106 -41 -226 -41q-157 0 -247.5 88.5t-90.5 244.5q0 159 100 260t268 101q97 0 189 -28l-23 -100q-83 33 -174 33q-106 0 -174.5 -67t-68.5 -188q0 -116 62.5 -181.5t171.5 -65.5q54 0 104 16v245h109v-317z" />
<glyph unicode="H" horiz-adv-x="693" d="M614 0h-108v303h-319v-303h-109v675h109v-279h319v279h108v-675z" />
<glyph unicode="I" horiz-adv-x="266" d="M187 0h-109v675h109v-675z" />
<glyph unicode="J" horiz-adv-x="332" d="M254 182q0 -190 -175 -190q-36 0 -78 8v95q31 -11 65 -11q41 0 60 22t19 81v488h109v-493z" />
<glyph unicode="K" horiz-adv-x="590" d="M577 0h-145l-245 330v-330h-109v675h109v-313l246 313h134l-268 -326z" />
<glyph unicode="L" horiz-adv-x="427" d="M419 0h-341v675h109v-580h232v-95z" />
<glyph unicode="M" horiz-adv-x="886" d="M845 0h-115l-53 359q-10 67 -21 165h-2q-15 -73 -35 -132l-127 -392h-113l-121 365q-28 83 -43 159h-2q-2 -28 -18 -175l-43 -349h-111l101 675h130l130 -390q22 -69 38 -138h1q19 80 38 134l132 394h131z" />
<glyph unicode="N" horiz-adv-x="704" d="M625 0h-141l-231 384q-37 60 -75 142q6 -99 6 -299v-227h-106v675h143l223 -368q26 -44 82 -153q-7 135 -7 321v200h106v-675z" />
<glyph unicode="O" horiz-adv-x="704" d="M666 346q0 -163 -92.5 -259.5t-231.5 -96.5q-150 0 -227 90.5t-77 249.5q0 163 93 259t231 96q140 0 222 -87t82 -252zM550 335q0 122 -51.5 188t-146.5 66q-83 0 -140.5 -65t-57.5 -181q0 -119 49.5 -187.5t146.5 -68.5q82 0 141 64.5t59 183.5z" />
<glyph unicode="P" horiz-adv-x="527" d="M499 476q0 -99 -72.5 -164t-189.5 -65q-33 0 -50 2v-249h-109v675q104 4 173 4q119 0 183.5 -54t64.5 -149zM386 467q0 123 -143 123q-38 0 -56 -2v-247q30 -4 48 -4q69 1 110 36t41 94z" />
<glyph unicode="Q" horiz-adv-x="703" d="M666 346q0 -163 -92.5 -259.5t-231.5 -96.5q-150 0 -227 90.5t-77 249.5q0 163 93 259t231 96q140 0 222 -87t82 -252zM702 -193q-39 -6 -75 -6q-21 0 -41 2q-55 5 -91 16t-85 17q-25 3 -49.5 3t-48.5 -3v97q24 3 50 3q66 0 146 -18q79 -18 142 -18q28 0 52 3v-96z M550 335q0 122 -51.5 188t-146.5 66q-83 0 -140.5 -65t-57.5 -181q0 -119 49.5 -187.5t146.5 -68.5q82 0 141 64.5t59 183.5z" />
<glyph unicode="R" horiz-adv-x="559" d="M539 0h-137l-203 292h-12v-292h-109v675q65 4 181 4q236 0 236 -183q0 -78 -52.5 -129t-131.5 -60q49 -62 56 -72zM381 484q0 106 -137 106q-25 0 -57 -2v-214q20 -2 53 -2q65 0 103 30.5t38 81.5z" />
<glyph unicode="S" horiz-adv-x="503" d="M460 202q0 -93 -70 -152.5t-184 -59.5q-84 0 -152 19l12 104q72 -28 144 -28q58 0 95 25.5t37 77.5q0 39 -30.5 64t-74 41t-87 35.5t-74 59.5t-30.5 100q0 89 64.5 143t179.5 54q62 0 122 -13l-11 -96q-57 19 -116 19q-62 0 -93 -25t-31 -69q0 -37 31 -62t74.5 -41.5 t87.5 -36.5t75 -60t31 -99z" />
<glyph unicode="T" horiz-adv-x="514" d="M497 583h-186v-583h-109v583h-185v92h480v-92z" />
<glyph unicode="U" horiz-adv-x="687" d="M609 260q0 -134 -70 -202t-204 -68q-76 0 -129 19.5t-79.5 55t-37.5 75t-11 90.5v445h109v-437q0 -75 34 -116.5t121 -41.5q84 0 122 39.5t38 132.5v423h107v-415z" />
<glyph unicode="V" horiz-adv-x="622" d="M614 675l-243 -675h-124l-240 675h120l142 -416q22 -60 42 -135h1q18 67 45 142l145 409h112z" />
<glyph unicode="W" horiz-adv-x="952" d="M922 675l-175 -675h-134l-115 417q-12 41 -26 127h-1q-7 -61 -24 -125l-114 -419h-128l-175 675h116l104 -410q17 -62 26 -133h1q12 78 27 128l115 415h119l118 -416q16 -59 27 -124h1q13 76 24 118l105 422h109z" />
<glyph unicode="X" horiz-adv-x="612" d="M598 0h-137l-160 265l-159 -265h-128l219 347l-206 328h126l150 -247l148 247h123l-202 -326z" />
<glyph unicode="Y" horiz-adv-x="548" d="M541 675l-215 -434v-241h-109v241l-211 434h119l100 -213q27 -60 48 -114h2q18 49 56 126l95 201h115z" />
<glyph unicode="Z" horiz-adv-x="538" d="M494 0h-449v83l266 423q22 35 50 73q-29 -1 -137 -1h-169v97h435v-86l-280 -437q-11 -18 -35 -54q18 2 158 2h161v-100z" />
<glyph unicode="[" horiz-adv-x="324" d="M287 -201h-208v975h208v-84h-108v-806h108v-85z" />
<glyph unicode="\" horiz-adv-x="459" d="M464 -161h-105l-350 918h104z" />
<glyph unicode="]" horiz-adv-x="324" d="M245 -201h-208v85h108v806h-108v84h208v-975z" />
<glyph unicode="^" d="M481 380l-78 -40l-139 257l-132 -257l-72 38l165 297h84z" />
<glyph unicode="_" d="M550 -248h-550v86h550v-86z" />
<glyph unicode="`" horiz-adv-x="371" d="M296 623l-43 -57l-164 111l54 71z" />
<glyph unicode="a" horiz-adv-x="523" d="M446 0h-103q0 58 5 92l-1 1q-19 -46 -63 -74.5t-102 -28.5q-63 0 -101 38.5t-38 99.5q0 83 77.5 128t215.5 45v29q0 48 -23.5 71t-80.5 23q-73 0 -142 -36l-21 86q87 33 181 33q107 0 150 -42.5t43 -122.5v-206q0 -73 3 -136zM336 215v14q-190 0 -190 -88q0 -29 18.5 -48 t49.5 -19q53 0 87.5 42.5t34.5 98.5z" />
<glyph unicode="b" horiz-adv-x="558" d="M519 273q0 -130 -70.5 -205.5t-193.5 -75.5q-96 0 -177 21v717h107v-229q0 -56 -9 -95h2q20 47 62 74t96 27q88 0 135.5 -60.5t47.5 -173.5zM406 263q0 155 -98 155q-56 0 -89.5 -54t-33.5 -123v-154q31 -10 78 -10q143 0 143 186z" />
<glyph unicode="c" horiz-adv-x="431" d="M403 17q-60 -25 -144 -25q-221 0 -221 240q0 123 63.5 198t183.5 75q68 0 116 -19l-18 -91q-53 21 -104 21q-62 0 -95.5 -47t-33.5 -125q0 -160 130 -160q62 0 107 22z" />
<glyph unicode="d" horiz-adv-x="557" d="M479 0h-101q0 54 7 93h-2q-21 -47 -63.5 -75t-98.5 -28q-90 0 -136.5 62t-46.5 172q0 129 70 205t190 76q21 0 75 -4v229h106v-730zM373 257v154q-41 9 -79 9q-143 0 -143 -186q0 -156 99 -156q56 0 89.5 55t33.5 124z" />
<glyph unicode="e" horiz-adv-x="511" d="M468 292q0 -20 -3 -52h-317v-8q0 -156 147 -156q75 0 143 30l14 -84q-79 -32 -176 -32q-238 0 -238 255q0 116 60.5 189t166.5 73q101 0 152 -60t51 -155zM361 314q1 53 -26 83.5t-74 30.5q-45 0 -74.5 -30.5t-36.5 -83.5h211z" />
<glyph unicode="f" horiz-adv-x="352" d="M378 728l-8 -88q-31 10 -68 10q-48 0 -70.5 -27.5t-22.5 -85.5v-40h129v-83h-129v-414h-106v414h-95v83h95v38q0 202 194 202q42 0 81 -9z" />
<glyph unicode="g" horiz-adv-x="543" d="M515 -60q0 -82 -74.5 -138t-192.5 -56q-99 0 -155 38.5t-56 110.5q0 39 23.5 74t57.5 54q-49 21 -49 75q0 27 15.5 50.5t41.5 35.5q-74 42 -74 136q0 79 57 133t158 54q32 0 75 -10h169v-84h-76q33 -28 33 -79q0 -81 -54.5 -130.5t-156.5 -49.5q-23 0 -47 6 q-29 -14 -29 -37q0 -19 18 -26.5t64 -9.5l84 -3q168 -6 168 -144zM365 328q0 46 -27 73t-76 27t-77.5 -28t-28.5 -72q0 -47 27 -73t77 -26q49 0 77 26.5t28 72.5zM409 -75q0 70 -92 74l-91 3h-27q-56 -40 -56 -88q0 -39 33.5 -62t88.5 -23q68 0 106 27t38 69z" />
<glyph unicode="h" horiz-adv-x="573" d="M495 0h-106v319q0 49 -16.5 74t-57.5 25q-56 0 -93 -51.5t-37 -127.5v-239h-107v730h107v-226q0 -64 -9 -100l2 -1q22 48 66 76t103 28q148 0 148 -159v-348z" />
<glyph unicode="i" horiz-adv-x="263" d="M200 652q0 -28 -20 -47.5t-48 -19.5q-29 0 -49 19.5t-20 47.5t20 47.5t49 19.5q28 0 48 -19.5t20 -47.5zM185 0h-107v497h107v-497z" />
<glyph unicode="j" horiz-adv-x="268" d="M205 652q0 -28 -20 -47.5t-48 -19.5q-29 0 -49 19.5t-20 47.5t20 47.5t49 19.5q28 0 48 -19.5t20 -47.5zM190 -47q0 -104 -41 -154t-140 -50q-39 0 -69 9l7 92q30 -11 62 -11q43 0 59 22t16 82v554h106v-544z" />
<glyph unicode="k" horiz-adv-x="507" d="M491 0h-136l-170 252v-252h-107v730h107v-446l161 213h131l-184 -227z" />
<glyph unicode="l" horiz-adv-x="263" d="M185 0h-107v730h107v-730z" />
<glyph unicode="m" horiz-adv-x="873" d="M795 0h-106v317q0 50 -16 75.5t-56 25.5q-50 0 -89 -51t-39 -130v-237h-105v317q0 49 -15 75t-57 26q-52 0 -89.5 -52t-37.5 -129v-237h-107v497h102q0 -56 -7 -98l2 -1q22 50 66.5 79.5t101.5 29.5q66 0 98 -32.5t40 -74.5q19 42 62 74.5t104 32.5q148 0 148 -164v-343z " />
<glyph unicode="n" horiz-adv-x="573" d="M495 0h-106v319q0 49 -16.5 74t-57.5 25q-56 0 -93 -51.5t-37 -127.5v-239h-107v497h102q0 -59 -7 -98h1q23 50 67.5 79t105.5 29q148 0 148 -159v-348z" />
<glyph unicode="o" horiz-adv-x="549" d="M511 258q0 -116 -69 -192t-178 -76q-107 0 -167.5 62.5t-60.5 189.5q0 115 68.5 190t179.5 75q105 0 166 -61.5t61 -187.5zM401 251q0 166 -126 166q-53 0 -90.5 -42t-37.5 -122q0 -171 127 -171q55 0 91 43.5t36 125.5z" />
<glyph unicode="p" horiz-adv-x="558" d="M519 273q0 -132 -67.5 -206t-191.5 -74q-44 0 -75 6v-243h-107v741h101q0 -61 -6 -93h2q21 48 63 75.5t98 27.5q88 0 135.5 -60.5t47.5 -173.5zM406 263q0 156 -98 156q-56 0 -89.5 -54.5t-33.5 -124.5v-153q33 -10 78 -10q143 0 143 186z" />
<glyph unicode="q" horiz-adv-x="558" d="M480 -244h-106v243q0 56 7 92l-2 1q-20 -47 -61.5 -74.5t-93.5 -27.5q-89 0 -136.5 59t-47.5 174q0 130 70 206t196 76q93 0 174 -14v-735zM374 259v153q-39 9 -79 9q-143 0 -143 -187q0 -156 98 -156q57 0 90.5 55t33.5 126z" />
<glyph unicode="r" horiz-adv-x="355" d="M337 506l-5 -105q-16 3 -31 3q-51 0 -79 -39q-37 -50 -37 -163v-202h-107v497h102q0 -56 -10 -110h2q19 57 60 91q33 29 84 29q10 0 21 -1z" />
<glyph unicode="s" horiz-adv-x="421" d="M376 152q0 -72 -58 -117t-156 -45q-62 0 -110 14l8 91q49 -19 109 -19q42 0 68.5 17.5t26.5 47.5q0 28 -22.5 44t-54.5 25.5t-64 22t-54.5 42.5t-22.5 78q0 68 52 111t151 43q46 0 94 -10l-6 -86q-45 14 -94 14q-87 0 -87 -62q0 -27 22.5 -43t55 -26t65 -23t55 -43 t22.5 -76z" />
<glyph unicode="t" horiz-adv-x="373" d="M341 3q-51 -12 -104 -12q-78 0 -108 34t-30 118v271h-95v83h95v158l107 29v-187h130v-83h-130v-238q0 -55 13.5 -74.5t51.5 -19.5q29 0 61 7z" />
<glyph unicode="u" horiz-adv-x="573" d="M495 0h-102q0 59 7 98h-1q-23 -50 -67.5 -79t-105.5 -29q-148 0 -148 159v348h106v-319q0 -49 16.5 -74t57.5 -25q56 0 93 51.5t37 127.5v239h107v-497z" />
<glyph unicode="v" horiz-adv-x="495" d="M489 497l-188 -497h-109l-186 497h118l93 -263q18 -52 32 -102h1q14 55 29 98l95 267h115z" />
<glyph unicode="w" horiz-adv-x="794" d="M781 497l-159 -497h-118l-86 260q-14 43 -29 105h-1q-13 -57 -34 -125l-75 -240h-113l-153 497h117l66 -231q31 -112 37 -139h1q13 62 35 136l74 234h108l75 -230q24 -77 39 -140h1q16 71 35 135l69 235h111z" />
<glyph unicode="x" horiz-adv-x="523" d="M506 0h-136l-112 180l-113 -180h-129l178 250l-168 247h129l111 -177l113 177h119l-164 -245z" />
<glyph unicode="y" horiz-adv-x="490" d="M484 497l-201 -532q-46 -122 -100 -169.5t-141 -47.5q-29 0 -63 6l12 93q27 -8 61 -8q82 0 124 112l18 49l-186 497h120l81 -227q18 -49 39 -130h1q15 62 49 155l71 202h115z" />
<glyph unicode="z" horiz-adv-x="449" d="M399 0h-352v76l221 327q-50 -2 -120 -2h-96v96h343v-75l-218 -326q50 2 125 2h97v-98z" />
<glyph unicode="{" horiz-adv-x="350" d="M318 -201h-19q-90 0 -129 50t-39 157v157q0 60 -23.5 84t-79.5 27v82q57 3 80 25.5t23 82.5v104q0 101 39 153.5t129 52.5h19v-84q-51 0 -69.5 -24.5t-18.5 -95.5v-103q0 -134 -92 -151v-1q92 -14 92 -155v-156q0 -71 18.5 -95.5t69.5 -24.5v-85z" />
<glyph unicode="|" horiz-adv-x="286" d="M184 -244h-85v1000h85v-1000z" />
<glyph unicode="}" horiz-adv-x="348" d="M327 274q-55 -3 -79 -27.5t-24 -83.5v-157q0 -107 -39 -157t-129 -50h-19v85q51 0 69.5 24.5t18.5 95.5v156q0 141 92 155v1q-92 12 -92 148v106q0 71 -18.5 95.5t-69.5 24.5v84h19q90 0 129 -52.5t39 -153.5v-101q0 -63 22.5 -85.5t80.5 -25.5v-82z" />
<glyph unicode="~" d="M502 565q0 -69 -38 -111t-103 -42q-38 0 -66 17t-41 37t-31.5 37t-39.5 17q-53 0 -55 -85h-79v13q0 69 38 111t103 42q38 0 66 -17t41 -37t31.5 -37t39.5 -17q53 0 55 86h79v-14z" />
<glyph unicode="&#xa1;" horiz-adv-x="320" d="M220 440q0 -28 -19.5 -47t-48.5 -19t-48.5 19t-19.5 47q0 29 19.5 48t48.5 19t48.5 -19.5t19.5 -47.5zM214 -208h-126l17 528h91z" />
<glyph unicode="&#xa2;" d="M472 132q-58 -27 -117 -31v-101h-82v101q-95 7 -145.5 66.5t-50.5 160.5q0 94 51.5 155t144.5 79v88h82v-85q56 -3 109 -22l-21 -88q-53 24 -109 24q-68 0 -107 -38t-39 -109q0 -66 36.5 -104t108.5 -38q63 0 113 28z" />
<glyph unicode="&#xa3;" d="M485 0h-414v73q87 73 87 146q0 31 -6 62h-101v83h90q-10 68 -10 99q0 197 208 197q60 0 121 -16l-23 -90q-57 19 -105 19q-93 0 -93 -100q0 -30 11 -109h155v-83h-145q5 -24 5 -58q0 -41 -16 -71.5t-51 -61.5q44 2 77 2h210v-92z" />
<glyph unicode="&#xa4;" d="M507 113l-80 -59l-79 106q-37 -20 -82 -20q-34 0 -62 11l-70 -96l-82 58l71 88q-37 47 -37 127q0 74 42 124l-75 94l80 58l73 -100q33 16 77 16t72 -14l73 98l79 -59l-74 -93q31 -44 31 -116q0 -73 -39 -121zM369 334q0 107 -96 107q-39 0 -65.5 -29.5t-26.5 -80.5 t23 -82t72 -31q38 0 65.5 31t27.5 85z" />
<glyph unicode="&#xa5;" d="M523 650l-169 -343h134v-70h-160v-66h160v-70h-160v-101h-108v101h-160v70h160v66h-160v70h134l-167 343h119l85 -186q19 -39 43 -108h2q20 53 48 113l84 181h115z" />
<glyph unicode="&#xa6;" horiz-adv-x="286" d="M184 388h-85v368h85v-368zM184 -244h-85v378h85v-378z" />
<glyph unicode="&#xa7;" horiz-adv-x="524" d="M444 240q0 -85 -77 -143q38 -50 38 -104q0 -66 -52 -112.5t-154 -46.5q-37 0 -80 10l7 90q42 -12 76 -12q43 0 66 19.5t23 50.5q0 27 -23 56t-56 57.5t-66 60.5t-56 75.5t-23 91.5q0 85 77 143q-38 49 -38 104q0 69 48.5 113t145.5 44q40 0 78 -8l-7 -90q-34 11 -70 11 q-81 0 -81 -65q0 -26 23 -56t56 -59t66 -61.5t56 -77t23 -91.5zM346 226q0 25 -14.5 52.5t-28 42.5t-49.5 51l-50 48q-38 -28 -38 -73q0 -11 2 -21.5t7.5 -21.5t9 -19.5t14.5 -21t16 -19t20.5 -22t21.5 -20.5l25 -24q20 -18 26 -24q38 27 38 72z" />
<glyph unicode="&#xa8;" horiz-adv-x="546" d="M423 652q0 -25 -17.5 -43t-42.5 -18t-43 17.5t-18 43.5q0 25 18 42.5t43 17.5t42.5 -17.5t17.5 -42.5zM227 652q0 -26 -17.5 -43.5t-43.5 -17.5q-25 0 -42.5 17.5t-17.5 43.5q0 25 17.5 42.5t42.5 17.5t43 -17.5t18 -42.5z" />
<glyph unicode="&#xa9;" horiz-adv-x="758" d="M716 335q0 -140 -99 -239t-239 -99q-143 0 -241 98t-98 239q0 140 99 239t240 99t239.5 -98.5t98.5 -238.5zM634 334q0 106 -75 182t-181 76t-181 -75t-75 -182t75 -182.5t181 -75.5t181 75t75 182zM477 176q-47 -19 -100 -19q-78 0 -118.5 47t-40.5 126t43.5 131 t130.5 52q42 0 81 -14l-11 -74q-31 17 -68 17q-86 0 -86 -109q0 -101 82 -101q40 0 74 15z" />
<glyph unicode="&#xaa;" horiz-adv-x="395" d="M329 335h-84q0 31 5 51l-2 1q-10 -25 -39 -42.5t-62 -17.5q-51 0 -76.5 24.5t-25.5 66.5q0 60 53 93q52 32 139 32h5v17q0 54 -62 54q-55 0 -107 -27l-8 75q55 22 129 22q134 0 134 -114v-149q0 -66 1 -86zM352 195h-298v84h298v-84zM242 476v10q-114 0 -114 -55 q0 -16 10.5 -25.5t29.5 -9.5q35 0 54.5 27t19.5 53z" />
<glyph unicode="&#xab;" horiz-adv-x="520" d="M455 151l-83 -41l-120 183l122 185l80 -40l-97 -145zM244 147l-85 -40l-110 186l112 188l81 -39l-89 -149z" />
<glyph unicode="&#xac;" d="M485 100h-94v153h-350v89h444v-242z" />
<glyph unicode="&#xad;" horiz-adv-x="332" d="M286 240h-240v86h240v-86z" />
<glyph unicode="&#xae;" horiz-adv-x="563" d="M508 529q0 -92 -67 -158t-160 -66q-95 0 -160.5 65t-65.5 159t66 159.5t160 65.5q95 0 161 -65t66 -160zM440 528q0 66 -46.5 114t-112.5 48q-65 0 -111.5 -47t-46.5 -112q0 -66 46.5 -114t111.5 -48q66 0 112.5 47t46.5 112zM375 418h-65l-47 90h-5v-90h-54v225h85 q79 0 79 -61q0 -52 -50 -64q8 -8 18 -28zM309 576q0 26 -32 26h-19v-58h12q20 0 29.5 9.5t9.5 22.5z" />
<glyph unicode="&#xaf;" horiz-adv-x="395" d="M327 609h-259v78h259v-78z" />
<glyph unicode="&#xb0;" horiz-adv-x="381" d="M328 605q0 -61 -43 -97.5t-101 -36.5q-63 0 -99.5 35t-36.5 96t43 97.5t99 36.5q69 0 103.5 -37t34.5 -94zM247 605q0 25 -14 44t-44 19q-26 0 -42.5 -18t-16.5 -46q0 -30 15.5 -47.5t42.5 -17.5q26 0 42.5 18.5t16.5 47.5z" />
<glyph unicode="&#xb1;" d="M509 340h-183v-190h-102v190h-183v89h183v189h102v-189h183v-89zM507 0h-464v89h464v-89z" />
<glyph unicode="&#xb2;" horiz-adv-x="319" d="M271 355h-227v60l67 58q55 48 55 78q0 18 -11.5 28.5t-32.5 10.5q-30 0 -56 -18l-19 65q51 22 98 22q59 0 88 -26t29 -65q0 -51 -65 -108l-41 -35h115v-70z" />
<glyph unicode="&#xb3;" horiz-adv-x="308" d="M259 443q0 -47 -38 -72t-108 -25q-39 0 -69 8l10 59q28 -8 52 -8q58 0 58 37q0 24 -22 32q-13 5 -37 5q-17 0 -39 -2v52h18q74 0 74 40q0 32 -44 32q-29 0 -53 -12l-14 54q39 16 90 16q57 0 84 -22.5t27 -56.5q0 -49 -46 -71q27 -3 42 -22t15 -44z" />
<glyph unicode="&#xb4;" horiz-adv-x="391" d="M300 677l-164 -111l-43 57l153 125z" />
<glyph unicode="&#xb5;" horiz-adv-x="631" d="M613 64q-37 -74 -123 -74q-48 0 -66 30q-16 25 -16 57q0 8 1 15h-1q-18 -45 -57.5 -72.5t-90.5 -27.5t-81 25l16 -261h-112v741h106v-314q0 -51 18 -77t62 -26q53 0 88.5 48t35.5 117v252h107v-344q0 -47 6.5 -62.5t22.5 -15.5q26 0 41 34z" />
<glyph unicode="&#xb6;" horiz-adv-x="585" d="M528 591h-68v-687h-165v84h72v687h161v-84zM290 240h-4q-110 0 -167 61q-58 62 -58 158t63.5 156t165.5 60v-435z" />
<glyph unicode="&#xb7;" horiz-adv-x="250" d="M198 297q0 -30 -21.5 -51t-51.5 -21t-51.5 21t-21.5 51q0 31 21.5 52t51.5 21t51.5 -21t21.5 -52z" />
<glyph unicode="&#xb8;" horiz-adv-x="400" d="M257 -40q31 -41 31 -84q0 -55 -52 -111h-83q40 49 44 83v8q0 32 -30 73z" />
<glyph unicode="&#xb9;" horiz-adv-x="312" d="M216 355h-88v224l-68 -31l-18 64l93 38h81v-295z" />
<glyph unicode="&#xba;" horiz-adv-x="422" d="M376 511q0 -82 -49 -132.5t-126 -50.5q-73 0 -115.5 42.5t-42.5 134.5q0 81 48.5 130.5t123.5 49.5q71 0 116 -41t45 -133zM362 195h-304v84h304v-84zM285 510q0 98 -75 98q-32 0 -54 -25t-22 -76q0 -102 73 -102q35 0 56.5 25.5t21.5 79.5z" />
<glyph unicode="&#xbb;" horiz-adv-x="520" d="M472 295l-113 -188l-82 39l90 149l-90 146l85 40zM268 295l-123 -185l-79 40l97 145l-97 142l82 41z" />
<glyph unicode="&#xbc;" horiz-adv-x="715" d="M534 114v127l-75 -127h75zM662 52h-49v-52h-79v52h-143l-5 57l109 186h118v-180h49v-63zM622 621l-499 -642l-68 48l499 642zM216 355h-88v224l-68 -31l-18 64l93 38h81v-295z" />
<glyph unicode="&#xbd;" horiz-adv-x="718" d="M658 0h-227v60l67 58q32 27 43.5 44t11.5 34t-11.5 28t-32.5 11q-30 0 -55 -18l-19 65q49 22 98 22q58 0 87 -26.5t29 -65.5q0 -53 -65 -107l-41 -36h115v-69zM621 621l-499 -642l-68 48l499 642zM216 355h-88v224l-68 -31l-18 64l93 38h81v-295z" />
<glyph unicode="&#xbe;" horiz-adv-x="718" d="M537 114v127l-75 -127h75zM665 52h-49v-52h-79v52h-143l-5 57l109 186h118v-180h49v-63zM625 621l-499 -642l-68 48l499 642zM262 443q0 -47 -38 -72t-107 -25q-35 0 -70 7l10 59q28 -8 53 -8q57 0 57 38q0 24 -22 32q-13 5 -37 5q-17 0 -39 -2v52h18q74 0 74 40 q0 32 -44 32q-27 0 -53 -12l-14 54q39 16 91 16q56 0 83 -22.5t27 -56.5q0 -49 -46 -71q27 -3 42 -22t15 -44z" />
<glyph unicode="&#xbf;" horiz-adv-x="448" d="M324 440q0 -28 -19.5 -47t-48.5 -19t-49 19t-20 47t20 47.5t49 19.5t48.5 -19.5t19.5 -47.5zM372 -119l-14 -97q-144 4 -224 61t-80 137q0 34 11 62.5t28 47.5l37 39q19 20 37 36t30.5 39.5t14.5 49.5q1 5 1 10q0 23 -8 54h104q12 -43 12 -74q0 -13 -2 -24 q-7 -37 -31 -68.5t-50 -52.5t-46.5 -49t-20.5 -58q0 -48 54.5 -78.5t146.5 -34.5z" />
<glyph unicode="&#xc0;" horiz-adv-x="620" d="M614 0h-121l-52 149h-273l-52 -149h-110l242 675h121zM413 236l-80 223q-21 63 -28 92h-2q-10 -42 -27 -91l-80 -224h217zM366 781l-19 -60l-201 55l27 79z" />
<glyph unicode="&#xc1;" horiz-adv-x="620" d="M614 0h-121l-52 149h-273l-52 -149h-110l242 675h121zM413 236l-80 223q-21 63 -28 92h-2q-10 -42 -27 -91l-80 -224h217zM453 776l-201 -55l-19 60l193 74z" />
<glyph unicode="&#xc2;" horiz-adv-x="620" d="M614 0h-121l-52 149h-273l-52 -149h-110l242 675h121zM413 236l-80 223q-21 63 -28 92h-2q-10 -42 -27 -91l-80 -224h217zM469 776l-28 -56l-137 61l-133 -61l-26 54l161 86z" />
<glyph unicode="&#xc3;" horiz-adv-x="620" d="M614 0h-121l-52 149h-273l-52 -149h-110l242 675h121zM413 236l-80 223q-21 63 -28 92h-2q-10 -42 -27 -91l-80 -224h217zM486 809q-45 -77 -118 -77q-37 0 -75 25t-56 25q-34 0 -60 -44l-54 37q44 78 118 78q37 0 75 -25t55 -25q34 0 61 44z" />
<glyph unicode="&#xc4;" horiz-adv-x="620" d="M614 0h-121l-52 149h-273l-52 -149h-110l242 675h121zM413 236l-80 223q-21 63 -28 92h-2q-10 -42 -27 -91l-80 -224h217zM468 783q0 -23 -16 -39t-39 -16t-39 16t-16 39t16 39.5t39 16.5t39 -16.5t16 -39.5zM253 783q0 -23 -16 -39t-39 -16q-22 0 -38.5 16t-16.5 39 t16 39.5t39 16.5t39 -16.5t16 -39.5z" />
<glyph unicode="&#xc5;" horiz-adv-x="620" d="M614 0h-121l-52 149h-273l-52 -149h-110l230 642q-46 28 -46 85q0 49 35 82t85 33t84.5 -33t34.5 -82q0 -58 -48 -86zM363 727q0 23 -15.5 39t-37.5 16q-23 0 -38.5 -16t-15.5 -39t15.5 -39t38.5 -16q22 0 37.5 16t15.5 39zM412 236l-76 213q-14 33 -31 101h-2 q-10 -46 -31 -104l-76 -210h216z" />
<glyph unicode="&#xc6;" horiz-adv-x="783" d="M719 0h-356v157h-212l-79 -157h-113l348 675h404v-91h-242v-192h233v-89h-233v-210h250v-93zM363 243v340h-2q-40 -92 -65 -138l-107 -202h174z" />
<glyph unicode="&#xc7;" horiz-adv-x="575" d="M533 26q-83 -34 -181 -34q-160 0 -234.5 90t-74.5 237q0 164 84.5 263t248.5 99q81 0 150 -21l-16 -100q-70 25 -143 25q-101 0 -153 -68.5t-52 -179.5q0 -247 214 -247q75 0 139 32zM360 -40q31 -41 31 -84q0 -55 -52 -111h-83q40 49 44 83v8q0 32 -30 73z" />
<glyph unicode="&#xc8;" horiz-adv-x="498" d="M434 0h-356v675h356v-91h-247v-192h235v-89h-235v-210h247v-93zM325 781l-19 -60l-201 55l27 79z" />
<glyph unicode="&#xc9;" horiz-adv-x="498" d="M434 0h-356v675h356v-91h-247v-192h235v-89h-235v-210h247v-93zM410 776l-201 -55l-19 60l193 74z" />
<glyph unicode="&#xca;" horiz-adv-x="498" d="M434 0h-356v675h356v-91h-247v-192h235v-89h-235v-210h247v-93zM416 776l-28 -56l-137 61l-133 -61l-26 54l161 86z" />
<glyph unicode="&#xcb;" horiz-adv-x="498" d="M434 0h-356v675h356v-91h-247v-192h235v-89h-235v-210h247v-93zM414 783q0 -23 -16 -39t-39 -16t-39 16t-16 39t16 39.5t39 16.5t39 -16.5t16 -39.5zM199 783q0 -23 -16 -39t-39 -16q-22 0 -38.5 16t-16.5 39t16 39.5t39 16.5t39 -16.5t16 -39.5z" />
<glyph unicode="&#xcc;" horiz-adv-x="266" d="M187 0h-109v675h109v-675zM208 781l-19 -60l-201 55l27 79z" />
<glyph unicode="&#xcd;" horiz-adv-x="266" d="M187 0h-109v675h109v-675zM273 776l-201 -55l-19 60l193 74z" />
<glyph unicode="&#xce;" horiz-adv-x="266" d="M187 0h-109v675h109v-675zM295 776l-28 -56l-137 61l-133 -61l-26 54l161 86z" />
<glyph unicode="&#xcf;" horiz-adv-x="266" d="M187 0h-109v675h109v-675zM294 783q0 -23 -16 -39t-39 -16t-39 16t-16 39t16 39.5t39 16.5t39 -16.5t16 -39.5zM79 783q0 -23 -16 -39t-39 -16q-22 0 -38.5 16t-16.5 39t16 39.5t39 16.5t39 -16.5t16 -39.5z" />
<glyph unicode="&#xd0;" horiz-adv-x="682" d="M639 346q0 -169 -101.5 -259.5t-272.5 -90.5q-40 0 -103.5 2t-73.5 2v304h-86v82h86v288q16 0 56.5 1.5t78.5 2t73 0.5q343 0 343 -332zM524 338q0 250 -236 250q-56 0 -92 -3v-199h131v-82h-131v-211q32 -4 81 -4q114 0 180.5 62.5t66.5 186.5z" />
<glyph unicode="&#xd1;" horiz-adv-x="704" d="M625 0h-141l-231 384q-37 60 -75 142q6 -99 6 -299v-227h-106v675h143l223 -368q26 -44 82 -153q-7 135 -7 321v200h106v-675zM525 809q-45 -77 -118 -77q-37 0 -75 25t-56 25q-34 0 -60 -44l-54 37q44 78 118 78q37 0 75 -25t55 -25q34 0 61 44z" />
<glyph unicode="&#xd2;" horiz-adv-x="704" d="M666 346q0 -163 -92.5 -259.5t-231.5 -96.5q-150 0 -227 90.5t-77 249.5q0 163 93 259t231 96q140 0 222 -87t82 -252zM550 335q0 122 -51.5 188t-146.5 66q-83 0 -140.5 -65t-57.5 -181q0 -119 49.5 -187.5t146.5 -68.5q82 0 141 64.5t59 183.5zM427 781l-19 -60 l-201 55l27 79z" />
<glyph unicode="&#xd3;" horiz-adv-x="704" d="M666 346q0 -163 -92.5 -259.5t-231.5 -96.5q-150 0 -227 90.5t-77 249.5q0 163 93 259t231 96q140 0 222 -87t82 -252zM550 335q0 122 -51.5 188t-146.5 66q-83 0 -140.5 -65t-57.5 -181q0 -119 49.5 -187.5t146.5 -68.5q82 0 141 64.5t59 183.5zM506 776l-201 -55 l-19 60l193 74z" />
<glyph unicode="&#xd4;" horiz-adv-x="704" d="M666 346q0 -163 -92.5 -259.5t-231.5 -96.5q-150 0 -227 90.5t-77 249.5q0 163 93 259t231 96q140 0 222 -87t82 -252zM550 335q0 122 -51.5 188t-146.5 66q-83 0 -140.5 -65t-57.5 -181q0 -119 49.5 -187.5t146.5 -68.5q82 0 141 64.5t59 183.5zM525 776l-28 -56 l-137 61l-133 -61l-26 54l161 86z" />
<glyph unicode="&#xd5;" horiz-adv-x="704" d="M666 346q0 -163 -92.5 -259.5t-231.5 -96.5q-150 0 -227 90.5t-77 249.5q0 163 93 259t231 96q140 0 222 -87t82 -252zM550 335q0 122 -51.5 188t-146.5 66q-83 0 -140.5 -65t-57.5 -181q0 -119 49.5 -187.5t146.5 -68.5q82 0 141 64.5t59 183.5zM530 809 q-45 -77 -118 -77q-37 0 -75 25t-56 25q-34 0 -60 -44l-54 37q44 78 118 78q37 0 75 -25t55 -25q34 0 61 44z" />
<glyph unicode="&#xd6;" horiz-adv-x="704" d="M666 346q0 -163 -92.5 -259.5t-231.5 -96.5q-150 0 -227 90.5t-77 249.5q0 163 93 259t231 96q140 0 222 -87t82 -252zM550 335q0 122 -51.5 188t-146.5 66q-83 0 -140.5 -65t-57.5 -181q0 -119 49.5 -187.5t146.5 -68.5q82 0 141 64.5t59 183.5zM516 783q0 -23 -16 -39 t-39 -16t-39 16t-16 39t16 39.5t39 16.5t39 -16.5t16 -39.5zM301 783q0 -23 -16 -39t-39 -16q-22 0 -38.5 16t-16.5 39t16 39.5t39 16.5t39 -16.5t16 -39.5z" />
<glyph unicode="&#xd7;" d="M499 139l-66 -66l-161 162l-162 -162l-59 59l162 162l-162 161l66 66l161 -162l162 162l59 -59l-162 -162z" />
<glyph unicode="&#xd8;" horiz-adv-x="704" d="M666 344q0 -164 -92 -259t-235 -95q-40 0 -69 7l-36 -101l-81 26l36 99q-151 77 -151 310q0 163 92.5 258.5t231.5 95.5q32 0 62 -6l34 96l81 -26l-34 -92q161 -75 161 -313zM554 334q0 161 -86 218l-166 -460q18 -6 44 -6h14q84 4 139 68t55 180zM392 585q-19 3 -39 3 q-12 0 -24 -1q-77 -8 -128 -72.5t-51 -173.5q0 -154 77 -211z" />
<glyph unicode="&#xd9;" horiz-adv-x="687" d="M609 260q0 -134 -70 -202t-204 -68q-76 0 -129 19.5t-79.5 55t-37.5 75t-11 90.5v445h109v-437q0 -75 34 -116.5t121 -41.5q84 0 122 39.5t38 132.5v423h107v-415zM411 781l-19 -60l-201 55l27 79z" />
<glyph unicode="&#xda;" horiz-adv-x="687" d="M609 260q0 -134 -70 -202t-204 -68q-76 0 -129 19.5t-79.5 55t-37.5 75t-11 90.5v445h109v-437q0 -75 34 -116.5t121 -41.5q84 0 122 39.5t38 132.5v423h107v-415zM496 776l-201 -55l-19 60l193 74z" />
<glyph unicode="&#xdb;" horiz-adv-x="687" d="M609 260q0 -134 -70 -202t-204 -68q-76 0 -129 19.5t-79.5 55t-37.5 75t-11 90.5v445h109v-437q0 -75 34 -116.5t121 -41.5q84 0 122 39.5t38 132.5v423h107v-415zM506 776l-28 -56l-137 61l-133 -61l-26 54l161 86z" />
<glyph unicode="&#xdc;" horiz-adv-x="687" d="M609 260q0 -134 -70 -202t-204 -68q-76 0 -129 19.5t-79.5 55t-37.5 75t-11 90.5v445h109v-437q0 -75 34 -116.5t121 -41.5q84 0 122 39.5t38 132.5v423h107v-415zM507 783q0 -23 -16.5 -39t-38.5 -16q-23 0 -39 16t-16 39t16 39.5t39 16.5t39 -16.5t16 -39.5zM292 783 q0 -23 -16 -39t-39 -16t-39 16t-16 39t16 39.5t39 16.5t39 -16.5t16 -39.5z" />
<glyph unicode="&#xdd;" horiz-adv-x="548" d="M541 675l-215 -434v-241h-109v241l-211 434h119l100 -213q27 -60 48 -114h2q18 49 56 126l95 201h115zM430 776l-201 -55l-19 60l193 74z" />
<glyph unicode="&#xde;" horiz-adv-x="537" d="M519 366q0 -105 -76.5 -170.5t-199.5 -65.5q-38 0 -56 2v-132h-109v675h109v-99q37 3 79 3q119 0 186 -54.5t67 -158.5zM407 359q0 61 -39 96t-120 35q-26 0 -61 -5v-262q25 -4 64 -4q73 0 114.5 36t41.5 104z" />
<glyph unicode="&#xdf;" horiz-adv-x="599" d="M563 153q0 -73 -55.5 -118t-147.5 -45q-59 0 -102 12l7 91q43 -19 91 -19q49 0 73 19t24 48q0 27 -19.5 47t-47.5 35t-55.5 32.5t-47 49t-19.5 74.5q0 33 13 58t31 41t36.5 30.5t31.5 34.5t13 44q0 32 -23 49t-63 17q-118 0 -118 -150v-503h-107v497q0 124 63.5 181.5 t166.5 57.5q89 0 140.5 -38.5t51.5 -102.5q0 -37 -13 -63.5t-32 -42t-37.5 -28.5t-31.5 -30t-13 -40q0 -26 19.5 -46t47.5 -35.5t56 -33.5t47.5 -49.5t19.5 -73.5z" />
<glyph unicode="&#xe0;" horiz-adv-x="523" d="M446 0h-103q0 58 5 92l-1 1q-19 -46 -63 -74.5t-102 -28.5q-63 0 -101 38.5t-38 99.5q0 83 77.5 128t215.5 45v29q0 48 -23.5 71t-80.5 23q-73 0 -142 -36l-21 86q87 33 181 33q107 0 150 -42.5t43 -122.5v-206q0 -73 3 -136zM336 215v14q-190 0 -190 -88q0 -29 18.5 -48 t49.5 -19q53 0 87.5 42.5t34.5 98.5zM338 623l-43 -57l-164 111l54 71z" />
<glyph unicode="&#xe1;" horiz-adv-x="523" d="M446 0h-103q0 58 5 92l-1 1q-19 -46 -63 -74.5t-102 -28.5q-63 0 -101 38.5t-38 99.5q0 83 77.5 128t215.5 45v29q0 48 -23.5 71t-80.5 23q-73 0 -142 -36l-21 86q87 33 181 33q107 0 150 -42.5t43 -122.5v-206q0 -73 3 -136zM336 215v14q-190 0 -190 -88q0 -29 18.5 -48 t49.5 -19q53 0 87.5 42.5t34.5 98.5zM392 677l-164 -111l-43 57l153 125z" />
<glyph unicode="&#xe2;" horiz-adv-x="523" d="M446 0h-103q0 58 5 92l-1 1q-19 -46 -63 -74.5t-102 -28.5q-63 0 -101 38.5t-38 99.5q0 83 77.5 128t215.5 45v29q0 48 -23.5 71t-80.5 23q-73 0 -142 -36l-21 86q87 33 181 33q107 0 150 -42.5t43 -122.5v-206q0 -73 3 -136zM336 215v14q-190 0 -190 -88q0 -29 18.5 -48 t49.5 -19q53 0 87.5 42.5t34.5 98.5zM405 616l-45 -50l-101 83l-102 -83l-43 49l146 133z" />
<glyph unicode="&#xe3;" horiz-adv-x="523" d="M446 0h-103q0 58 5 92l-1 1q-19 -46 -63 -74.5t-102 -28.5q-63 0 -101 38.5t-38 99.5q0 83 77.5 128t215.5 45v29q0 48 -23.5 71t-80.5 23q-73 0 -142 -36l-21 86q87 33 181 33q107 0 150 -42.5t43 -122.5v-206q0 -73 3 -136zM336 215v14q-190 0 -190 -88q0 -29 18.5 -48 t49.5 -19q53 0 87.5 42.5t34.5 98.5zM430 670q-43 -82 -115 -82q-36 0 -72 26t-53 26q-33 0 -58 -46l-52 41q42 83 115 83q36 0 72 -26.5t53 -26.5q32 0 58 46z" />
<glyph unicode="&#xe4;" horiz-adv-x="523" d="M446 0h-103q0 58 5 92l-1 1q-19 -46 -63 -74.5t-102 -28.5q-63 0 -101 38.5t-38 99.5q0 83 77.5 128t215.5 45v29q0 48 -23.5 71t-80.5 23q-73 0 -142 -36l-21 86q87 33 181 33q107 0 150 -42.5t43 -122.5v-206q0 -73 3 -136zM336 215v14q-190 0 -190 -88q0 -29 18.5 -48 t49.5 -19q53 0 87.5 42.5t34.5 98.5zM416 652q0 -25 -17.5 -43t-42.5 -18t-43 17.5t-18 43.5q0 25 18 42.5t43 17.5t42.5 -17.5t17.5 -42.5zM220 652q0 -26 -17.5 -43.5t-43.5 -17.5q-25 0 -42.5 17.5t-17.5 43.5q0 25 17.5 42.5t42.5 17.5t43 -17.5t18 -42.5z" />
<glyph unicode="&#xe5;" horiz-adv-x="523" d="M446 0h-103q0 58 5 92l-1 1q-19 -46 -63 -74.5t-102 -28.5q-63 0 -101 38.5t-38 99.5q0 83 77.5 128t215.5 45v29q0 48 -23.5 71t-80.5 23q-73 0 -142 -36l-21 86q87 33 181 33q107 0 150 -42.5t43 -122.5v-206q0 -73 3 -136zM336 215v14q-190 0 -190 -88q0 -29 18.5 -48 t49.5 -19q53 0 87.5 42.5t34.5 98.5zM378 664q0 -48 -35 -81.5t-84 -33.5q-51 0 -85.5 32.5t-34.5 82.5q0 49 35 82t85 33t84.5 -33t34.5 -82zM312 664q0 23 -15.5 39t-37.5 16q-23 0 -38.5 -16t-15.5 -39t15.5 -39t38.5 -16q22 0 37.5 16t15.5 39z" />
<glyph unicode="&#xe6;" horiz-adv-x="804" d="M761 292q0 -20 -3 -52h-317v-8q0 -156 147 -156q77 0 143 30l14 -84q-79 -32 -176 -32q-78 0 -128.5 29.5t-70.5 79.5h-1q-23 -48 -71.5 -78.5t-113.5 -30.5q-64 0 -102.5 38t-38.5 100q0 83 77.5 128t215.5 45v29q0 48 -23.5 71t-80.5 23q-73 0 -142 -36l-21 86 q87 33 181 33q116 0 155 -70h1q24 31 64 50.5t88 19.5q102 0 152.5 -60t50.5 -155zM654 314q1 53 -26 83.5t-74 30.5q-44 0 -73.5 -30.5t-37.5 -83.5h211zM336 215v14q-190 0 -190 -88q0 -29 18.5 -48t49.5 -19q53 0 87.5 42.5t34.5 98.5z" />
<glyph unicode="&#xe7;" horiz-adv-x="431" d="M403 17q-60 -25 -144 -25q-221 0 -221 240q0 123 63.5 198t183.5 75q68 0 116 -19l-18 -91q-53 21 -104 21q-62 0 -95.5 -47t-33.5 -125q0 -160 130 -160q62 0 107 22zM270 -40q31 -41 31 -84q0 -55 -52 -111h-83q40 49 44 83v8q0 32 -30 73z" />
<glyph unicode="&#xe8;" horiz-adv-x="511" d="M468 292q0 -20 -3 -52h-317v-8q0 -156 147 -156q75 0 143 30l14 -84q-79 -32 -176 -32q-238 0 -238 255q0 116 60.5 189t166.5 73q101 0 152 -60t51 -155zM361 314q1 53 -26 83.5t-74 30.5q-45 0 -74.5 -30.5t-36.5 -83.5h211zM343 623l-43 -57l-164 111l54 71z" />
<glyph unicode="&#xe9;" horiz-adv-x="511" d="M468 292q0 -20 -3 -52h-317v-8q0 -156 147 -156q75 0 143 30l14 -84q-79 -32 -176 -32q-238 0 -238 255q0 116 60.5 189t166.5 73q101 0 152 -60t51 -155zM361 314q1 53 -26 83.5t-74 30.5q-45 0 -74.5 -30.5t-36.5 -83.5h211zM397 677l-164 -111l-43 57l153 125z" />
<glyph unicode="&#xea;" horiz-adv-x="511" d="M468 292q0 -20 -3 -52h-317v-8q0 -156 147 -156q75 0 143 30l14 -84q-79 -32 -176 -32q-238 0 -238 255q0 116 60.5 189t166.5 73q101 0 152 -60t51 -155zM361 314q1 53 -26 83.5t-74 30.5q-45 0 -74.5 -30.5t-36.5 -83.5h211zM407 616l-45 -50l-101 83l-102 -83l-43 49 l146 133z" />
<glyph unicode="&#xeb;" horiz-adv-x="511" d="M468 292q0 -20 -3 -52h-317v-8q0 -156 147 -156q75 0 143 30l14 -84q-79 -32 -176 -32q-238 0 -238 255q0 116 60.5 189t166.5 73q101 0 152 -60t51 -155zM361 314q1 53 -26 83.5t-74 30.5q-45 0 -74.5 -30.5t-36.5 -83.5h211zM423 652q0 -25 -17.5 -43t-42.5 -18 t-43 17.5t-18 43.5q0 25 18 42.5t43 17.5t42.5 -17.5t17.5 -42.5zM227 652q0 -26 -17.5 -43.5t-43.5 -17.5q-25 0 -42.5 17.5t-17.5 43.5q0 25 17.5 42.5t42.5 17.5t43 -17.5t18 -42.5z" />
<glyph unicode="&#xec;" horiz-adv-x="263" d="M185 0h-107v497h107v-497zM229 623l-43 -57l-164 111l54 71z" />
<glyph unicode="&#xed;" horiz-adv-x="263" d="M185 0h-107v497h107v-497zM233 677l-164 -111l-43 57l153 125z" />
<glyph unicode="&#xee;" horiz-adv-x="263" d="M185 0h-107v497h107v-497zM278 616l-45 -50l-101 83l-102 -83l-43 49l146 133z" />
<glyph unicode="&#xef;" horiz-adv-x="263" d="M185 0h-107v497h107v-497zM290 652q0 -25 -17.5 -43t-42.5 -18t-43 17.5t-18 43.5q0 25 18 42.5t43 17.5t42.5 -17.5t17.5 -42.5zM94 652q0 -26 -17.5 -43.5t-43.5 -17.5q-25 0 -42.5 17.5t-17.5 43.5q0 25 17.5 42.5t42.5 17.5t43 -17.5t18 -42.5z" />
<glyph unicode="&#xf0;" d="M510 275q0 -139 -68 -212t-175 -73q-106 0 -168 63.5t-62 188.5q0 115 66 189t171 74q69 0 94 -39q-1 3 -28 47t-59 78l-98 -43l-44 52l90 40q-30 26 -79 62l106 45q40 -32 72 -64l95 41l44 -53l-92 -40q135 -162 135 -356zM399 261q0 73 -31.5 114.5t-93.5 41.5 q-53 0 -89.5 -42.5t-36.5 -123.5t34.5 -125t95.5 -44q54 0 87.5 44t33.5 135z" />
<glyph unicode="&#xf1;" horiz-adv-x="573" d="M495 0h-106v319q0 49 -16.5 74t-57.5 25q-56 0 -93 -51.5t-37 -127.5v-239h-107v497h102q0 -59 -7 -98h1q23 50 67.5 79t105.5 29q148 0 148 -159v-348zM465 670q-43 -82 -115 -82q-36 0 -72 26t-53 26q-33 0 -58 -46l-52 41q42 83 115 83q36 0 72 -26.5t53 -26.5 q32 0 58 46z" />
<glyph unicode="&#xf2;" horiz-adv-x="549" d="M511 258q0 -116 -69 -192t-178 -76q-107 0 -167.5 62.5t-60.5 189.5q0 115 68.5 190t179.5 75q105 0 166 -61.5t61 -187.5zM401 251q0 166 -126 166q-53 0 -90.5 -42t-37.5 -122q0 -171 127 -171q55 0 91 43.5t36 125.5zM359 623l-43 -57l-164 111l54 71z" />
<glyph unicode="&#xf3;" horiz-adv-x="549" d="M511 258q0 -116 -69 -192t-178 -76q-107 0 -167.5 62.5t-60.5 189.5q0 115 68.5 190t179.5 75q105 0 166 -61.5t61 -187.5zM401 251q0 166 -126 166q-53 0 -90.5 -42t-37.5 -122q0 -171 127 -171q55 0 91 43.5t36 125.5zM411 677l-164 -111l-43 57l153 125z" />
<glyph unicode="&#xf4;" horiz-adv-x="549" d="M511 258q0 -116 -69 -192t-178 -76q-107 0 -167.5 62.5t-60.5 189.5q0 115 68.5 190t179.5 75q105 0 166 -61.5t61 -187.5zM401 251q0 166 -126 166q-53 0 -90.5 -42t-37.5 -122q0 -171 127 -171q55 0 91 43.5t36 125.5zM421 616l-45 -50l-101 83l-102 -83l-43 49 l146 133z" />
<glyph unicode="&#xf5;" horiz-adv-x="549" d="M511 258q0 -116 -69 -192t-178 -76q-107 0 -167.5 62.5t-60.5 189.5q0 115 68.5 190t179.5 75q105 0 166 -61.5t61 -187.5zM401 251q0 166 -126 166q-53 0 -90.5 -42t-37.5 -122q0 -171 127 -171q55 0 91 43.5t36 125.5zM444 670q-43 -82 -115 -82q-36 0 -72 26t-53 26 q-33 0 -58 -46l-52 41q42 83 115 83q36 0 72 -26.5t53 -26.5q32 0 58 46z" />
<glyph unicode="&#xf6;" horiz-adv-x="549" d="M511 258q0 -116 -69 -192t-178 -76q-107 0 -167.5 62.5t-60.5 189.5q0 115 68.5 190t179.5 75q105 0 166 -61.5t61 -187.5zM401 251q0 166 -126 166q-53 0 -90.5 -42t-37.5 -122q0 -171 127 -171q55 0 91 43.5t36 125.5zM434 652q0 -25 -17.5 -43t-42.5 -18t-43 17.5 t-18 43.5q0 25 18 42.5t43 17.5t42.5 -17.5t17.5 -42.5zM238 652q0 -26 -17.5 -43.5t-43.5 -17.5q-25 0 -42.5 17.5t-17.5 43.5q0 25 17.5 42.5t42.5 17.5t43 -17.5t18 -42.5z" />
<glyph unicode="&#xf7;" d="M342 498q0 -28 -20 -48t-48 -20q-29 0 -49 20t-20 48t20 48t49 20q28 0 48 -20t20 -48zM509 253h-468v89h468v-89zM342 96q0 -28 -20 -48t-48 -20t-48.5 20t-20.5 48t20.5 48.5t48.5 20.5t48 -20t20 -49z" />
<glyph unicode="&#xf8;" horiz-adv-x="549" d="M511 258q0 -116 -69 -192t-178 -76q-31 0 -58 8l-40 -103l-65 20l40 103q-105 61 -105 224q0 116 68.5 190.5t179.5 74.5q14 0 44 -4l36 94l65 -21l-36 -91q118 -56 118 -227zM409 251q0 100 -53 141l-118 -308q17 -6 37 -6h10q53 2 88.5 46t35.5 127zM295 419 q-15 1 -25 1h-9q-51 -4 -86.5 -44.5t-35.5 -122.5q0 -94 41 -135z" />
<glyph unicode="&#xf9;" horiz-adv-x="573" d="M495 0h-102q0 59 7 98h-1q-23 -50 -67.5 -79t-105.5 -29q-148 0 -148 159v348h106v-319q0 -49 16.5 -74t57.5 -25q56 0 93 51.5t37 127.5v239h107v-497zM341 623l-43 -57l-164 111l54 71z" />
<glyph unicode="&#xfa;" horiz-adv-x="573" d="M495 0h-102q0 59 7 98h-1q-23 -50 -67.5 -79t-105.5 -29q-148 0 -148 159v348h106v-319q0 -49 16.5 -74t57.5 -25q56 0 93 51.5t37 127.5v239h107v-497zM448 677l-164 -111l-43 57l153 125z" />
<glyph unicode="&#xfb;" horiz-adv-x="573" d="M495 0h-102q0 59 7 98h-1q-23 -50 -67.5 -79t-105.5 -29q-148 0 -148 159v348h106v-319q0 -49 16.5 -74t57.5 -25q56 0 93 51.5t37 127.5v239h107v-497zM429 616l-45 -50l-101 83l-102 -83l-43 49l146 133z" />
<glyph unicode="&#xfc;" horiz-adv-x="573" d="M495 0h-102q0 59 7 98h-1q-23 -50 -67.5 -79t-105.5 -29q-148 0 -148 159v348h106v-319q0 -49 16.5 -74t57.5 -25q56 0 93 51.5t37 127.5v239h107v-497zM440 652q0 -25 -17.5 -43t-42.5 -18t-43 17.5t-18 43.5q0 25 18 42.5t43 17.5t42.5 -17.5t17.5 -42.5zM244 652 q0 -26 -17.5 -43.5t-43.5 -17.5q-25 0 -42.5 17.5t-17.5 43.5q0 25 17.5 42.5t42.5 17.5t43 -17.5t18 -42.5z" />
<glyph unicode="&#xfd;" horiz-adv-x="490" d="M484 497l-201 -532q-46 -122 -100 -169.5t-141 -47.5q-29 0 -63 6l12 93q27 -8 61 -8q82 0 124 112l18 49l-186 497h120l81 -227q18 -49 39 -130h1q15 62 49 155l71 202h115zM400 677l-164 -111l-43 57l153 125z" />
<glyph unicode="&#xfe;" horiz-adv-x="558" d="M519 273q0 -132 -67.5 -206t-191.5 -74q-44 0 -75 6v-243h-107v974h107v-212q0 -65 -6 -107h2q20 44 60 70t95 26q88 0 135.5 -60.5t47.5 -173.5zM406 263q0 156 -98 156q-56 0 -89.5 -54.5t-33.5 -124.5v-153q33 -10 78 -10q143 0 143 186z" />
<glyph unicode="&#xff;" horiz-adv-x="490" d="M484 497l-201 -532q-46 -122 -100 -169.5t-141 -47.5q-29 0 -63 6l12 93q27 -8 61 -8q82 0 124 112l18 49l-186 497h120l81 -227q18 -49 39 -130h1q15 62 49 155l71 202h115zM404 652q0 -25 -17.5 -43t-42.5 -18t-43 17.5t-18 43.5q0 25 18 42.5t43 17.5t42.5 -17.5 t17.5 -42.5zM208 652q0 -26 -17.5 -43.5t-43.5 -17.5q-25 0 -42.5 17.5t-17.5 43.5q0 25 17.5 42.5t42.5 17.5t43 -17.5t18 -42.5z" />
<glyph unicode="&#x131;" horiz-adv-x="263" d="M185 0h-107v497h107v-497z" />
<glyph unicode="&#x152;" horiz-adv-x="862" d="M799 0h-348q-58 -10 -109 -10q-150 0 -227 90.5t-77 249.5q0 163 92.5 259t228.5 96q57 0 103 -10h337v-91h-247v-192h234v-89h-234v-210h247v-93zM443 102v473q-44 14 -90 14q-84 0 -141.5 -65t-57.5 -181q0 -119 49.5 -187.5t146.5 -68.5q45 0 93 15z" />
<glyph unicode="&#x153;" horiz-adv-x="867" d="M824 292q0 -20 -3 -52h-317v-8q0 -156 147 -156q75 0 143 30l14 -84q-79 -32 -176 -32q-133 0 -188 93q-62 -93 -180 -93q-108 0 -168 62t-60 190q0 115 68 190t180 75q53 0 99 -21.5t73 -63.5q58 85 165 85q101 0 152 -60t51 -155zM717 314q1 53 -26 83.5t-74 30.5 q-44 0 -74 -31t-37 -83h211zM401 251q0 166 -126 166q-53 0 -90.5 -42t-37.5 -122q0 -171 127 -171q55 0 91 43.5t36 125.5z" />
<glyph unicode="&#x178;" horiz-adv-x="548" d="M541 675l-215 -434v-241h-109v241l-211 434h119l100 -213q27 -60 48 -114h2q18 49 56 126l95 201h115zM432 783q0 -23 -16 -39t-39 -16t-39 16t-16 39t16 39.5t39 16.5t39 -16.5t16 -39.5zM217 783q0 -23 -16 -39t-39 -16q-22 0 -38.5 16t-16.5 39t16 39.5t39 16.5 t39 -16.5t16 -39.5z" />
<glyph unicode="&#x2c6;" horiz-adv-x="430" d="M359 616l-45 -50l-101 83l-102 -83l-43 49l146 133z" />
<glyph unicode="&#x2da;" horiz-adv-x="375" d="M307 648q0 -48 -35 -81.5t-84 -33.5q-51 0 -85.5 32.5t-34.5 82.5q0 49 35 82t85 33t84.5 -33t34.5 -82zM241 648q0 23 -15.5 39t-37.5 16q-23 0 -38.5 -16t-15.5 -39t15.5 -39t38.5 -16q22 0 37.5 16t15.5 39z" />
<glyph unicode="&#x2dc;" horiz-adv-x="483" d="M415 670q-43 -82 -115 -82q-36 0 -72 26t-53 26q-33 0 -58 -46l-52 41q42 83 115 83q36 0 72 -26.5t53 -26.5q32 0 58 46z" />
<glyph unicode="&#x3bc;" horiz-adv-x="631" d="M613 64q-37 -74 -123 -74q-48 0 -66 30q-16 25 -16 57q0 8 1 15h-1q-18 -45 -57.5 -72.5t-90.5 -27.5t-81 25l16 -261h-112v741h106v-314q0 -51 18 -77t62 -26q53 0 88.5 48t35.5 117v252h107v-344q0 -47 6.5 -62.5t22.5 -15.5q26 0 41 34z" />
<glyph unicode="&#x2000;" horiz-adv-x="430" />
<glyph unicode="&#x2001;" horiz-adv-x="860" />
<glyph unicode="&#x2002;" horiz-adv-x="430" />
<glyph unicode="&#x2003;" horiz-adv-x="860" />
<glyph unicode="&#x2004;" horiz-adv-x="286" />
<glyph unicode="&#x2005;" horiz-adv-x="215" />
<glyph unicode="&#x2006;" horiz-adv-x="143" />
<glyph unicode="&#x2007;" horiz-adv-x="143" />
<glyph unicode="&#x2008;" horiz-adv-x="107" />
<glyph unicode="&#x2009;" horiz-adv-x="172" />
<glyph unicode="&#x200a;" horiz-adv-x="47" />
<glyph unicode="&#x2010;" horiz-adv-x="332" d="M286 240h-240v86h240v-86z" />
<glyph unicode="&#x2011;" horiz-adv-x="332" d="M286 240h-240v86h240v-86z" />
<glyph unicode="&#x2013;" d="M550 251h-550v93h550v-93z" />
<glyph unicode="&#x2014;" horiz-adv-x="1000" d="M885 251h-770v93h770v-93z" />
<glyph unicode="&#x2018;" horiz-adv-x="254" d="M215 712q-57 -61 -57 -106q0 -23 15 -42q15 -17 15 -38q0 -14 -6 -28q-17 -38 -59 -38q-46 0 -64 46q-8 20 -8 43q0 51 40 112q29 47 79 91z" />
<glyph unicode="&#x2019;" horiz-adv-x="254" d="M130 745q46 0 64 -47q8 -20 8 -42q0 -51 -41 -114q-30 -46 -78 -89l-45 40q56 62 56 107q0 23 -14 41q-16 18 -16 39q0 13 6 28q17 37 60 37z" />
<glyph unicode="&#x201a;" horiz-adv-x="254" d="M130 129q46 0 64 -47q8 -20 8 -42q0 -51 -41 -114q-30 -46 -78 -89l-45 40q57 62 57 107q0 23 -15 41q-16 18 -16 39q0 14 6 28q17 37 60 37z" />
<glyph unicode="&#x201c;" horiz-adv-x="457" d="M418 712q-57 -61 -57 -106q0 -23 15 -42q15 -17 15 -38q0 -13 -7 -28q-17 -38 -59 -38q-46 0 -64 46q-8 20 -8 42q0 51 40 113q30 47 80 91zM215 712q-57 -61 -57 -106q0 -23 15 -42q15 -17 15 -38q0 -14 -6 -28q-17 -38 -59 -38q-46 0 -64 46q-8 20 -8 43q0 51 40 112 q29 47 79 91z" />
<glyph unicode="&#x201d;" horiz-adv-x="457" d="M333 745q46 0 64 -46q8 -20 8 -42q0 -51 -40 -113q-30 -47 -80 -91l-45 40q57 61 57 106q0 23 -15 42q-15 17 -15 38q0 13 7 29q17 37 59 37zM130 745q46 0 64 -47q8 -20 8 -42q0 -51 -41 -114q-30 -46 -78 -89l-45 40q56 62 56 107q0 23 -14 41q-16 18 -16 39q0 13 6 28 q17 37 60 37z" />
<glyph unicode="&#x201e;" horiz-adv-x="457" d="M333 129q46 0 64 -46q8 -20 8 -42q0 -51 -40 -113q-30 -47 -80 -91l-45 40q57 62 57 107q0 23 -15 41t-15 39q0 13 7 28q16 37 59 37zM130 129q46 0 64 -47q8 -20 8 -42q0 -51 -41 -114q-30 -46 -78 -89l-45 40q57 62 57 107q0 23 -15 41q-16 18 -16 39q0 14 6 28 q17 37 60 37z" />
<glyph unicode="&#x2022;" horiz-adv-x="421" d="M344 297q0 -55 -39 -94t-94 -39t-94 39t-39 94t39 94t94 39t94 -39t39 -94z" />
<glyph unicode="&#x2026;" horiz-adv-x="691" d="M633 58q0 -28 -20 -48t-48 -20t-48.5 20t-20.5 48t20 48.5t49 20.5q28 0 48 -20.5t20 -48.5zM410 58q0 -28 -20.5 -48t-48.5 -20t-48 20t-20 48t20 48.5t48 20.5q29 0 49 -20.5t20 -48.5zM187 58q0 -28 -20.5 -48t-48.5 -20t-48 20t-20 48t20 48.5t48 20.5t48.5 -20.5 t20.5 -48.5z" />
<glyph unicode="&#x202f;" horiz-adv-x="172" />
<glyph unicode="&#x2039;" horiz-adv-x="313" d="M247 150l-83 -42l-116 185l117 187l81 -41l-94 -146z" />
<glyph unicode="&#x203a;" horiz-adv-x="313" d="M265 295l-118 -187l-80 41l94 146l-94 143l83 42z" />
<glyph unicode="&#x205f;" horiz-adv-x="215" />
<glyph unicode="&#x20ac;" d="M517 23q-75 -33 -166 -33q-110 0 -174 54.5t-81 172.5h-85v68h79q-1 9 -1 30q0 17 2 53h-80v68h90q21 104 88 164t183 60q72 0 138 -26l-26 -85q-55 26 -123 26q-117 0 -149 -139h178v-68h-190q-1 -14 -1 -43v-40h191v-68h-181q13 -72 51.5 -106t108.5 -34q60 0 123 28z " />
<glyph unicode="&#x2122;" horiz-adv-x="694" d="M650 394h-81l-20 136l-6 50l-10 -45l-40 -141h-76l-39 144l-10 42l-3 -36l-21 -150h-74l44 281h97l39 -140l10 -44l8 41l41 143h96zM257 610h-70v-216h-78v216h-72v65h220v-65z" />
</font>
</defs>
</svg>
