<?xml version="1.0" standalone="no"?>
<!DOCTYPE svg PUBLIC "-//W3C//DTD SVG 1.1//EN" "http://www.w3.org/Graphics/SVG/1.1/DTD/svg11.dtd" >
<svg xmlns="http://www.w3.org/2000/svg">
<metadata>
This is a custom SVG webfont generated by Font Squirrel.
</metadata>
<defs>
<font id="webfontq6PO0Y56" horiz-adv-x="550" >
<font-face units-per-em="1000" ascent="800" descent="-200" />
<missing-glyph horiz-adv-x="218" />
<glyph unicode=" "  horiz-adv-x="218" />
<glyph unicode="&#x09;" horiz-adv-x="218" />
<glyph unicode="&#xa0;" horiz-adv-x="218" />
<glyph unicode="!" horiz-adv-x="318" d="M207 699l-12 -545h-51l-13 545h76zM217 40q0 -20 -14 -34t-34 -14t-34 14t-14 34t14 33.5t34 13.5t34 -13.5t14 -33.5z" />
<glyph unicode="&#x22;" horiz-adv-x="338" d="M280 697l-12 -213h-46l-12 213h70zM129 697l-13 -213h-46l-12 213h71z" />
<glyph unicode="#" d="M515 425h-99l-19 -192h94v-43h-98l-21 -190h-51l21 190h-161l-20 -190h-51l21 190h-96v43h100l20 192h-96v42h100l20 183h51l-20 -183h161l19 183h51l-20 -183h94v-42zM366 425h-161l-19 -192h161z" />
<glyph unicode="$" d="M450 195q0 -67 -45 -115.5t-124 -60.5v-104h-49v102q-69 0 -128 14l8 62q58 -22 130 -22q64 0 104 28.5t40 85.5q0 34 -22 58.5t-54 37.5l-72 29q-38 17 -70.5 33.5t-54.5 49t-22 77.5q0 63 45 108.5t118 53.5v98h50v-95q59 -1 110 -12l-9 -59q-57 18 -112 18 q-72 0 -106 -30.5t-34 -72.5q0 -39 30.5 -66t74.5 -43.5t87.5 -35t74 -53.5t30.5 -86z" />
<glyph unicode="%" horiz-adv-x="743" d="M694 151q0 -71 -38.5 -115t-106.5 -44q-135 0 -135 150q0 69 39 113.5t106 44.5q135 0 135 -149zM639 638l-494 -657l-43 29l494 657zM328 510q0 -71 -39 -115.5t-106 -44.5q-135 0 -135 151q0 68 39 112.5t106 44.5q135 0 135 -148zM637 145q0 109 -84 109 q-37 0 -59 -29t-22 -76q0 -56 20 -83.5t65 -27.5q35 0 57.5 30t22.5 77zM271 503q0 55 -20 82t-64 27q-37 0 -59 -29t-22 -76q0 -111 85 -111q36 0 58 30t22 77z" />
<glyph unicode="&#x26;" horiz-adv-x="794" d="M728 33l-40 -49q-79 54 -145 110q-112 -102 -268 -102q-99 0 -156 53t-57 139q0 66 37 116.5t111 107.5q-56 65 -77 105t-21 80q0 60 43 101t119 41q70 0 108.5 -36t38.5 -92q0 -51 -29.5 -97.5t-98.5 -100.5q123 -133 249 -234v-1q74 97 74 233q0 16 -1 33h64v-20 q0 -164 -93 -281q91 -71 142 -106zM358 599q0 38 -22.5 62t-68.5 24q-41 0 -67 -24.5t-26 -64.5q0 -54 85 -150q51 41 75 76.5t24 76.5zM501 128q-153 128 -256 244q-64 -49 -91.5 -91t-27.5 -88q0 -62 45 -105t117 -43q122 0 213 83z" />
<glyph unicode="'" horiz-adv-x="187" d="M129 697l-13 -213h-46l-12 213h71z" />
<glyph unicode="(" horiz-adv-x="301" d="M274 -180l-46 -25q-84 134 -114.5 250.5t-30.5 237.5q0 261 146 494l43 -23q-128 -216 -128 -465q0 -259 130 -469z" />
<glyph unicode=")" horiz-adv-x="301" d="M225 290q0 -262 -146 -495l-43 24q128 216 128 465q0 258 -129 469l46 24q84 -133 114 -250t30 -237z" />
<glyph unicode="*" horiz-adv-x="366" d="M315 538l-25 -44l-94 64l8 -114h-50l8 114l-95 -64l-24 43l104 50l-104 49l25 44l95 -64l-8 114h50l-8 -114l94 64l24 -43l-103 -49z" />
<glyph unicode="+" d="M506 271h-202v-211h-60v211h-200v53h200v210h60v-210h202v-53z" />
<glyph unicode="," horiz-adv-x="208" d="M101 88q35 0 45 -38q3 -12 3 -24q0 -54 -55 -123q-18 -22 -41 -44l-29 25q29 31 42 60q13 26 13 43q0 19 -10 34q-9 13 -9 26q0 9 4 19q12 22 37 22z" />
<glyph unicode="-" horiz-adv-x="327" d="M278 268h-229v52h229v-52z" />
<glyph unicode="." horiz-adv-x="208" d="M152 41q0 -20 -14 -34.5t-34 -14.5t-34 14.5t-14 34.5t14 34t34 14t34 -14t14 -34z" />
<glyph unicode="/" horiz-adv-x="420" d="M421 757l-350 -918h-59l350 918h59z" />
<glyph unicode="0" d="M493 333q0 -92 -19.5 -160.5t-52.5 -106.5t-71 -56t-82 -18q-108 0 -160 79t-52 258q0 164 61.5 246.5t163.5 82.5q47 0 83 -15t66.5 -50.5t46.5 -101t16 -158.5zM425 326q0 149 -36.5 214.5t-114.5 65.5q-68 0 -109 -65.5t-41 -205.5q0 -147 34 -218.5t116 -71.5 q71 0 111 73t40 208z" />
<glyph unicode="1" d="M489 0h-408v57h182v531l-170 -67l-13 58l194 71h54v-593h161v-57z" />
<glyph unicode="2" d="M478 0h-415v50l176 173q91 90 119.5 138t28.5 103q0 61 -39 101t-106 40q-43 0 -84 -16.5t-68 -39.5l-21 53q84 56 181 56q96 0 149.5 -53.5t53.5 -131.5q0 -66 -32 -124.5t-126 -146.5l-151 -143v-1q78 2 220 2h114v-60z" />
<glyph unicode="3" d="M466 193q0 -91 -70 -146t-191 -55q-66 0 -120 16l9 59q57 -20 121 -20q87 0 135 37t48 99t-47 97.5t-131 35.5q-49 0 -94 -4v53h18q239 0 239 134q0 50 -36.5 78.5t-96.5 28.5q-71 0 -146 -39l-7 58q78 33 161 33q92 0 142 -42.5t50 -109.5q0 -59 -34 -98.5t-97 -56.5 l-1 -2q62 -4 105 -49t43 -107z" />
<glyph unicode="4" d="M527 157h-119v-157h-63v157h-314l-4 48l295 445h86v-436h119v-57zM345 214v373h-1l-251 -375q70 2 252 2z" />
<glyph unicode="5" d="M466 210q0 -98 -71 -158t-189 -60q-61 0 -116 13v60q57 -19 123 -19q89 0 137.5 41.5t48.5 113.5q0 66 -49.5 101.5t-134.5 35.5q-70 0 -108 -8v320h336v-61h-278v-201q30 3 66 3q112 0 173.5 -51.5t61.5 -129.5z" />
<glyph unicode="6" d="M497 217q0 -100 -59.5 -162.5t-157.5 -62.5q-103 0 -160.5 71.5t-57.5 194.5q0 207 88 303.5t237 96.5q29 0 47 -2v-56q-24 3 -56 3q-208 0 -249 -242q0 -5 -3 -25l-5 -31h1q25 48 71.5 74t103.5 26q94 0 147 -53t53 -135zM433 204q0 67 -38 107.5t-109 40.5 q-67 0 -109.5 -44.5t-42.5 -95.5q0 -72 41 -120t113 -48q68 0 106.5 44t38.5 116z" />
<glyph unicode="7" d="M492 595q-169 -310 -270 -595h-75q130 328 273 590q-40 -2 -271 -2h-89v62h432v-55z" />
<glyph unicode="8" d="M486 158q0 -74 -61 -120t-155 -46q-93 0 -150 43t-57 113q0 59 41 101t113 81q-69 33 -103 71.5t-34 94.5q0 69 55 115.5t144 46.5t139.5 -42.5t50.5 -111.5q0 -52 -36 -90t-101 -75q73 -37 113.5 -76.5t40.5 -104.5zM402 498q0 52 -35.5 80t-93.5 28q-57 0 -91.5 -30 t-34.5 -75q0 -44 29 -72.5t102 -64.5q61 34 92.5 63.5t31.5 70.5zM419 151q0 55 -38 88t-111 66q-33 -18 -53 -31t-42.5 -32.5t-33 -41.5t-10.5 -47q0 -49 38.5 -79t108.5 -30q60 0 100.5 28.5t40.5 78.5z" />
<glyph unicode="9" d="M484 392q0 -211 -89 -305.5t-239 -94.5q-36 0 -72 6v59q45 -9 84 -9q208 0 241 226q5 35 9 53h-1q-54 -86 -168 -86q-92 0 -144 54.5t-52 142.5q0 98 60.5 159t154.5 61q102 0 159 -65t57 -201zM412 439q0 74 -40 120.5t-110 46.5q-66 0 -105 -45t-39 -112 q0 -69 37.5 -110.5t104.5 -41.5q70 0 111 41t41 101z" />
<glyph unicode=":" horiz-adv-x="278" d="M204 340q0 -20 -14 -34t-34 -14t-34 14t-14 34t14 34t34 14t34 -14t14 -34zM204 41q0 -20 -14 -34.5t-34 -14.5t-34 14.5t-14 34.5t14 34t34 14t34 -14t14 -34z" />
<glyph unicode=";" horiz-adv-x="278" d="M204 340q0 -20 -14 -34t-34 -14t-34 14t-14 34t14 34t34 14t34 -14t14 -34zM155 88q35 0 45 -38q3 -12 3 -24q0 -54 -55 -123q-18 -22 -41 -44l-29 25q29 31 42 60q13 27 13 45t-10 32q-9 13 -9 26q0 9 4 19q11 22 37 22z" />
<glyph unicode="&#x3c;" d="M432 72l-40 -43l-314 275l314 275l40 -39l-273 -235z" />
<glyph unicode="=" d="M493 349h-436v53h436v-53zM493 192h-436v54h436v-54z" />
<glyph unicode="&#x3e;" d="M472 304l-314 -275l-40 39l273 235l-273 233l40 43z" />
<glyph unicode="?" horiz-adv-x="441" d="M372 519q0 -38 -15.5 -70t-37 -52.5t-45 -45.5t-40.5 -49t-22 -62q-2 -11 -2 -22q0 -30 11 -64h-62q-12 44 -12 77q0 14 3 26q7 39 32 73.5t51.5 57.5t47.5 56t21 68q0 53 -57.5 92t-148.5 43l8 58q119 -5 193.5 -58.5t74.5 -127.5zM238 40q0 -20 -14 -34t-34 -14 t-33.5 14t-13.5 34t13.5 33.5t33.5 13.5t34 -13.5t14 -33.5z" />
<glyph unicode="@" horiz-adv-x="984" d="M885 401q0 -127 -61.5 -199.5t-154.5 -72.5q-62 0 -89 35q-20 27 -20 60q0 11 2 23h-3q-11 -37 -57.5 -77.5t-98.5 -40.5q-95 0 -95 128q0 116 58 193t163 77q63 0 122 -11l-41 -223q-4 -20 -4 -36q0 -74 75 -74q64 0 104.5 57t40.5 157q0 55 -17.5 104t-52 90 t-95.5 65.5t-140 24.5q-156 0 -263.5 -110.5t-107.5 -278.5q0 -151 86 -239t240 -88q88 0 164 24l9 -54q-82 -25 -181 -25q-175 0 -276.5 101t-101.5 271q0 128 60 231.5t159.5 160.5t216.5 57q88 0 158.5 -27.5t113 -74t65 -105t22.5 -123.5zM586 472q-27 7 -69 7 q-49 0 -85 -36t-50.5 -81.5t-14.5 -90.5q0 -86 51 -86q46 0 90.5 60t65.5 169z" />
<glyph unicode="A" horiz-adv-x="608" d="M592 0h-74l-61 172h-311l-63 -172h-67l254 675h69zM438 224l-106 290q-20 55 -30 90h-1q-15 -47 -30 -89l-107 -291h274z" />
<glyph unicode="B" horiz-adv-x="563" d="M504 198q0 -24 -5.5 -48t-22 -52.5t-43 -50t-73.5 -36t-109 -14.5q-2 0 -155 3v675q17 0 75 1t103 1q105 0 157 -42t52 -116q0 -57 -33.5 -100t-93.5 -62v-1q75 -11 111.5 -55t36.5 -103zM417 508q0 56 -34 87t-120 31q-41 0 -103 -2v-249q22 -1 68 -1q93 0 141 34.5 t48 99.5zM438 195q0 130 -210 130q-50 0 -68 -1v-269q40 -6 97 -6q92 0 136.5 40t44.5 106z" />
<glyph unicode="C" horiz-adv-x="595" d="M548 32q-90 -39 -194 -39q-149 0 -225.5 87t-76.5 244q0 161 80 259.5t245 98.5q84 0 161 -23l-12 -59q-79 28 -163 28q-122 0 -182 -82t-60 -211q0 -138 62.5 -212t189.5 -74q86 0 162 38z" />
<glyph unicode="D" horiz-adv-x="686" d="M634 343q0 -169 -104 -257.5t-276 -88.5q-33 0 -84 2q-35 1 -56 1h-18v675q24 0 89 1.5t100 1.5q169 0 259 -83.5t90 -251.5zM567 339q0 287 -290 287q-30 0 -117 -3v-566q52 -7 103 -7q141 0 222.5 72t81.5 217z" />
<glyph unicode="E" horiz-adv-x="508" d="M429 0h-333v675h333v-52h-269v-249h256v-51h-256v-270h269v-53z" />
<glyph unicode="F" horiz-adv-x="471" d="M428 623h-268v-250h254v-52h-254v-321h-64v675h332v-52z" />
<glyph unicode="G" horiz-adv-x="687" d="M597 29q-101 -37 -217 -37q-151 0 -241.5 88.5t-90.5 244.5t96 257t258 101q91 0 184 -29l-15 -58q-84 34 -177 34q-117 0 -197.5 -76t-80.5 -218q0 -137 75 -213.5t199 -76.5q74 0 143 22v269h64v-308z" />
<glyph unicode="H" horiz-adv-x="706" d="M610 0h-64v324h-386v-324h-64v675h64v-298h386v298h64v-675z" />
<glyph unicode="I" horiz-adv-x="256" d="M160 0h-64v675h64v-675z" />
<glyph unicode="J" horiz-adv-x="325" d="M230 167q0 -87 -38 -130t-122 -43q-31 0 -69 8v59q37 -13 74 -13q47 0 68.5 26.5t21.5 98.5v502h65v-508z" />
<glyph unicode="K" horiz-adv-x="575" d="M555 0h-91l-304 342v-342h-64v675h64v-327l304 327h81l-312 -327z" />
<glyph unicode="L" horiz-adv-x="425" d="M418 0h-322v675h64v-622h258v-53z" />
<glyph unicode="M" horiz-adv-x="895" d="M834 0h-68l-63 437q-17 122 -21 171h-2q-12 -49 -32 -106l-170 -502h-77l-161 471q-21 61 -42 137h-1q-2 -39 -18 -177l-51 -431h-67l94 675h84l164 -480q28 -85 39 -129h1q19 70 37 120l167 489h88z" />
<glyph unicode="N" horiz-adv-x="714" d="M618 0h-87l-299 472q-49 75 -79 136q7 -187 7 -409v-199h-64v675h87l295 -464q41 -65 83 -141q-7 222 -7 425v180h64v-675z" />
<glyph unicode="O" horiz-adv-x="706" d="M658 344q0 -164 -90 -258t-224 -94q-146 0 -221 91t-75 248q0 164 89.5 258t223.5 94q139 0 218 -89t79 -250zM589 333q0 141 -62.5 218.5t-173.5 77.5q-99 0 -167.5 -77t-68.5 -208q0 -136 60 -216.5t175 -80.5q99 0 168 77t69 209z" />
<glyph unicode="P" horiz-adv-x="519" d="M480 489q0 -97 -74 -158t-184 -61q-32 0 -62 3v-273h-64v675q69 3 154 3q109 0 169.5 -52t60.5 -137zM413 478q0 147 -175 147q-55 0 -78 -2v-295q33 -5 67 -5q86 1 136 43t50 112z" />
<glyph unicode="Q" horiz-adv-x="705" d="M658 344q0 -164 -90 -258t-224 -94q-146 0 -221 91t-75 248q0 164 89.5 258t223.5 94q139 0 218 -89t79 -250zM704 -173q-28 -4 -56 -4q-40 0 -78 8q-65 13 -124 27q-36 8 -72 8q-21 0 -41 -3v59q24 3 48 3q39 0 77 -8l123 -26q38 -8 76 -8q23 0 47 3v-59zM589 333 q0 141 -62.5 218.5t-173.5 77.5q-99 0 -167.5 -77t-68.5 -208q0 -136 60 -216.5t175 -80.5q99 0 168 77t69 209z" />
<glyph unicode="R" horiz-adv-x="544" d="M507 0h-85l-249 319h-13v-319h-64v675q62 3 151 3q218 0 218 -166q0 -89 -64 -139t-157 -52q46 -51 61 -70zM398 501q0 68 -42 97t-127 29q-36 0 -69 -3v-254q24 -2 65 -2q81 0 127 36.5t46 96.5z" />
<glyph unicode="S" horiz-adv-x="504" d="M446 191q0 -89 -66 -144t-176 -55q-80 0 -143 19l11 63q68 -26 137 -26q75 0 122.5 33t47.5 102q0 46 -33 76t-80.5 48t-94.5 38t-80 58.5t-33 96.5q0 81 59 132t164 51q63 0 121 -13l-8 -58q-59 18 -117 18q-76 0 -115 -33t-39 -90q0 -45 33.5 -74.5t80.5 -47 t94.5 -37.5t81 -59t33.5 -98z" />
<glyph unicode="T" horiz-adv-x="520" d="M501 622h-209v-622h-64v622h-209v53h482v-53z" />
<glyph unicode="U" horiz-adv-x="701" d="M605 255q0 -129 -66 -196t-197 -67q-60 0 -105 13.5t-71.5 34.5t-42.5 52.5t-21.5 62t-5.5 67.5v453h64v-446q0 -41 8 -72t28 -57.5t58 -41t94 -14.5q100 0 147 47t47 158v426h63v-420z" />
<glyph unicode="V" horiz-adv-x="610" d="M592 675l-257 -675h-69l-250 675h74l164 -462q28 -75 48 -143h1q20 68 51 149l171 456h67z" />
<glyph unicode="W" horiz-adv-x="953" d="M911 675l-181 -675h-81l-149 512q-10 34 -26 101h-1q-5 -34 -24 -102l-144 -511h-81l-183 675h69l129 -487q16 -56 29 -125h1q14 72 28 119l140 493h80l147 -501q17 -57 27 -111h1q8 48 22 96l134 516h63z" />
<glyph unicode="X" horiz-adv-x="578" d="M556 0h-80l-191 301l-189 -301h-74l226 349l-212 326h75l175 -275l173 275h73l-209 -320z" />
<glyph unicode="Y" horiz-adv-x="519" d="M505 675l-216 -429v-246h-64v246l-211 429h71l120 -251q29 -59 54 -122h1q14 37 60 132l117 241h68z" />
<glyph unicode="Z" horiz-adv-x="540" d="M496 0h-449v45l311 481q32 50 64 94q-78 -2 -166 -2h-198v57h434v-46l-328 -505l-45 -68q24 2 184 2h193v-58z" />
<glyph unicode="[" horiz-adv-x="318" d="M278 -195h-182v962h182v-47h-123v-866h123v-49z" />
<glyph unicode="\" horiz-adv-x="415" d="M423 -161h-58l-350 918h58z" />
<glyph unicode="]" horiz-adv-x="318" d="M221 -195h-182v49h124v866h-124v47h182v-962z" />
<glyph unicode="^" d="M465 373l-49 -26l-154 278l-146 -278l-45 25l166 303h54z" />
<glyph unicode="_" d="M550 -251h-550v49h550v-49z" />
<glyph unicode="`" horiz-adv-x="366" d="M263 611l-33 -33l-128 118l42 41z" />
<glyph unicode="a" horiz-adv-x="519" d="M424 0h-64q0 74 6 109l-2 1q-19 -51 -66 -84.5t-110 -33.5q-59 0 -97 35t-38 94q0 76 79.5 122.5t226.5 46.5v38q0 64 -27 95t-91 31q-78 0 -147 -38l-16 53q81 36 173 36q94 0 132.5 -42t38.5 -117v-192q0 -64 2 -154zM359 229v12q-130 0 -186 -31t-56 -79 q0 -38 23.5 -62.5t62.5 -24.5q68 0 112 56.5t44 128.5z" />
<glyph unicode="b" horiz-adv-x="558" d="M510 271q0 -133 -68.5 -205t-184.5 -72q-86 0 -161 18v718h63v-261q0 -53 -9 -90l2 -1q21 60 67.5 93.5t106.5 33.5q89 0 136.5 -59.5t47.5 -174.5zM444 265q0 189 -128 189q-50 0 -87.5 -36t-53.5 -83t-16 -95v-181q42 -15 104 -15q85 0 133 54t48 167z" />
<glyph unicode="c" horiz-adv-x="443" d="M414 23q-67 -29 -155 -29q-213 0 -213 237q0 126 60.5 199t172.5 73q77 0 132 -23l-14 -52q-65 25 -128 25q-73 0 -114.5 -58t-41.5 -151q0 -91 35 -144t124 -53q69 0 129 27z" />
<glyph unicode="d" horiz-adv-x="556" d="M460 0h-64q0 68 9 114l-2 1q-20 -57 -66.5 -90t-106.5 -33q-91 0 -137.5 61.5t-46.5 172.5q0 133 68.5 205t184.5 72q44 0 98 -6v233h63v-730zM397 257v183q-52 13 -104 13q-85 0 -132.5 -54t-47.5 -167q0 -189 127 -189q50 0 87.5 36t53.5 83t16 95z" />
<glyph unicode="e" horiz-adv-x="503" d="M452 305q0 -19 -2 -36h-337v-19q0 -102 39 -150q43 -54 132 -54q76 0 140 29l12 -53q-74 -30 -166 -30q-224 0 -224 255q0 114 58 186t157 72q96 0 143.5 -56.5t47.5 -143.5zM385 317v7q0 58 -33 94q-35 39 -95 39q-55 0 -92.5 -37.5t-47.5 -102.5h268z" />
<glyph unicode="f" horiz-adv-x="346" d="M387 726l-6 -54q-36 11 -81 11q-61 0 -89 -36.5t-28 -113.5v-36h153v-50h-153v-447h-63v447h-114v50h114v34q0 102 48.5 153t136.5 51q41 0 82 -9z" />
<glyph unicode="g" horiz-adv-x="537" d="M506 -76q0 -79 -72 -131t-184 -52q-94 0 -150 39.5t-56 109.5q0 87 89 139q-50 21 -50 73q0 53 53 80q-73 44 -73 139q0 77 55 130.5t150 53.5q25 0 63 -8h169v-50h-94q51 -38 51 -112q0 -79 -53.5 -130.5t-153.5 -51.5q-33 0 -63 9q-39 -17 -39 -49q0 -22 21.5 -32 t70.5 -12l101 -4q79 -3 122 -40t43 -101zM393 328q0 60 -34 94t-95 34q-64 0 -100.5 -36.5t-36.5 -92.5q0 -60 34.5 -92.5t97.5 -32.5q62 0 98 33.5t36 92.5zM441 -85q0 90 -118 94l-104 4h-34q-76 -50 -76 -113q0 -50 43 -78.5t110 -28.5q84 0 131.5 34t47.5 88z" />
<glyph unicode="h" horiz-adv-x="579" d="M483 0h-63v322q0 66 -22.5 99t-78.5 33q-70 0 -115 -61t-45 -156v-237h-63v730h63v-251q0 -66 -8 -99l2 -1q22 59 69 92.5t111 33.5q150 0 150 -159v-346z" />
<glyph unicode="i" horiz-adv-x="255" d="M173 658q0 -18 -13 -31.5t-32 -13.5t-32 13t-13 32t13 32t32 13t32 -13t13 -32zM159 0h-63v497h63v-497z" />
<glyph unicode="j" horiz-adv-x="263" d="M181 658q0 -18 -13 -31.5t-32 -13.5t-32 13t-13 32t13 32t32 13t32 -13t13 -32zM167 -68q0 -102 -34.5 -146t-121.5 -44q-39 0 -67 9l7 57q33 -12 65 -12q53 0 70.5 26.5t17.5 105.5v569h63v-565z" />
<glyph unicode="k" horiz-adv-x="473" d="M448 0h-84l-205 264v-264h-63v730h63v-459l196 226h76l-202 -226z" />
<glyph unicode="l" horiz-adv-x="255" d="M159 0h-63v730h63v-730z" />
<glyph unicode="m" horiz-adv-x="888" d="M792 0h-63v322q0 65 -21 98.5t-75 33.5q-65 0 -111.5 -60t-46.5 -159v-235h-63v323q0 62 -20 96.5t-76 34.5q-66 0 -111.5 -62t-45.5 -157v-235h-63v497h64q0 -68 -9 -116l2 -1q21 58 68.5 91.5t109.5 33.5q41 0 71 -13.5t43.5 -35t19 -39.5t5.5 -35q17 46 61 84.5 t114 38.5q147 0 147 -160v-345z" />
<glyph unicode="n" horiz-adv-x="579" d="M483 0h-63v322q0 66 -22.5 99t-78.5 33q-70 0 -115 -61t-45 -156v-237h-63v497h64q0 -69 -9 -116l2 -1q21 58 68 91.5t112 33.5q150 0 150 -159v-346z" />
<glyph unicode="o" horiz-adv-x="540" d="M494 256q0 -112 -64 -188t-170 -76q-102 0 -159 64t-57 191q0 109 62.5 183.5t170.5 74.5q96 0 156.5 -59.5t60.5 -189.5zM429 253q0 95 -40.5 148t-118.5 53q-67 0 -113.5 -52t-46.5 -150q0 -99 42 -153.5t119 -54.5q67 0 112.5 53t45.5 156z" />
<glyph unicode="p" horiz-adv-x="558" d="M510 271q0 -133 -68 -204.5t-184 -71.5q-56 0 -99 6v-252h-63v748h64q0 -75 -9 -114l2 -1q21 57 67 90t106 33q89 0 136.5 -59.5t47.5 -174.5zM444 265q0 189 -128 189q-50 0 -87.5 -36t-53.5 -83t-16 -95v-181q42 -15 104 -15q85 0 133 54t48 167z" />
<glyph unicode="q" horiz-adv-x="558" d="M462 -251h-63v282q0 49 7 83l-2 1q-20 -56 -66.5 -89.5t-105.5 -33.5q-88 0 -136 59.5t-48 174.5q0 133 68.5 205t187.5 72q77 0 158 -13v-741zM399 257v184q-51 13 -104 13q-85 0 -132.5 -54.5t-47.5 -167.5q0 -189 127 -189q73 0 115 68.5t42 145.5z" />
<glyph unicode="r" horiz-adv-x="354" d="M329 504l-3 -61q-14 2 -27 2q-64 0 -99 -52q-41 -63 -41 -195v-198h-63v497h64q0 -66 -13 -130l2 -1q17 65 61 106q35 34 91 34q13 0 28 -2z" />
<glyph unicode="s" horiz-adv-x="431" d="M374 146q0 -66 -55.5 -110t-148.5 -44q-66 0 -111 13l9 60q51 -19 113 -19q56 0 92 25t36 66q0 35 -26 55t-63 29.5t-74 21t-63 41.5t-26 79q0 64 49 103t139 39q53 0 100 -11l-8 -54q-52 15 -101 15q-57 0 -86 -22.5t-29 -62.5q0 -35 26 -55.5t63.5 -30t74.5 -21 t63 -40.5t26 -77z" />
<glyph unicode="t" horiz-adv-x="369" d="M334 3q-45 -10 -95 -10q-71 0 -98 33.5t-27 110.5v310h-113v50h113v168l63 17v-185h153v-50h-153v-279q0 -71 16 -95t63 -24q39 0 69 8z" />
<glyph unicode="u" horiz-adv-x="579" d="M483 0h-64q0 70 9 116l-2 1q-21 -58 -68 -91.5t-112 -33.5q-150 0 -150 159v346h63v-322q0 -66 22.5 -99t78.5 -33q70 0 115 61t45 156v237h63v-497z" />
<glyph unicode="v" horiz-adv-x="471" d="M460 497l-193 -497h-66l-189 497h72l124 -347q15 -41 27 -83h1q15 49 27 80l127 350h70z" />
<glyph unicode="w" horiz-adv-x="791" d="M770 497l-163 -497h-75l-118 344q-16 47 -27 91h-1q-9 -35 -37 -125l-98 -310h-76l-155 497h72l92 -320q5 -19 17 -59.5t16 -56.5h1q12 50 33 116l103 320h76l104 -319q22 -66 36 -118h1q4 16 34 116l97 321h68z" />
<glyph unicode="x" horiz-adv-x="512" d="M484 0h-85l-146 208l-146 -208h-80l191 248l-181 249h80l141 -203l145 203h73l-183 -245z" />
<glyph unicode="y" horiz-adv-x="464" d="M452 497l-207 -548q-44 -115 -93 -161.5t-131 -46.5q-22 0 -50 6l7 58q24 -8 57 -8q47 0 80.5 31t64.5 111l24 61l-192 497h74l112 -306q17 -45 38 -115h1q9 34 50 151l96 270h69z" />
<glyph unicode="z" horiz-adv-x="445" d="M391 0h-342v44l266 399q-68 -2 -149 -2h-112v56h332v-43l-264 -398q64 2 152 2h117v-58z" />
<glyph unicode="{" horiz-adv-x="326" d="M294 -195h-16q-74 0 -106 44t-32 132v203q0 57 -23.5 81t-86.5 28v52q65 4 87.5 26.5t22.5 81.5v139q0 175 138 175h16v-47q-54 0 -75 -27.5t-21 -96.5v-138q0 -119 -93 -138v-1q93 -15 93 -139v-203q0 -69 21 -96t75 -27v-49z" />
<glyph unicode="|" horiz-adv-x="283" d="M166 -251h-50v1000h50v-1000z" />
<glyph unicode="}" horiz-adv-x="322" d="M303 293q-62 -4 -85.5 -28t-23.5 -81v-203q0 -88 -32 -132t-106 -44h-16v49q54 0 75 27t21 96v203q0 124 93 139v1q-93 13 -93 133v143q0 69 -21 96.5t-75 27.5v47h16q138 0 138 -175v-134q0 -63 22 -86t87 -27v-52z" />
<glyph unicode="~" d="M489 563q0 -61 -33 -99t-88 -38q-30 0 -53.5 11.5t-37.5 28.5l-27 34q-14 17 -31 28.5t-39 11.5q-34 0 -51.5 -26t-18.5 -68h-47v4q0 61 33 99t88 38q30 0 53.5 -11.5t37.5 -28.5l27 -34q14 -17 31 -28.5t39 -11.5q34 0 51.5 26t18.5 69h47v-5z" />
<glyph unicode="&#xa1;" horiz-adv-x="318" d="M197 457q0 -19 -13.5 -33t-33.5 -14t-34 13.5t-14 33.5t14 34t34 14t33.5 -14t13.5 -34zM187 -202h-75l12 545h51z" />
<glyph unicode="&#xa2;" d="M466 141q-62 -29 -129 -35v-106h-52v106q-97 5 -149.5 61.5t-52.5 162.5q0 96 53.5 155t148.5 73v92h52v-90q64 -2 121 -25l-11 -55q-59 28 -124 28q-82 0 -128 -45t-46 -130q0 -173 171 -173q75 0 130 33z" />
<glyph unicode="&#xa3;" d="M474 0h-397v45q53 46 78 84.5t25 80.5q0 27 -8 87h-114v49h106q-14 74 -14 128q0 184 181 184q61 0 117 -17l-15 -54q-60 20 -109 20q-111 0 -111 -124q0 -47 16 -137h165v-49h-158q7 -51 7 -81q0 -48 -21 -85t-67 -77q44 2 85 2h234v-56z" />
<glyph unicode="&#xa4;" d="M492 103l-44 -34l-83 111q-43 -29 -97 -29q-44 0 -78 16l-73 -98l-45 33l76 93q-43 48 -43 135q0 80 48 128l-80 99l43 33l76 -104q38 22 89 22q54 0 90 -22l79 104l42 -34l-83 -102q36 -41 36 -120q0 -75 -42 -122zM386 334q0 125 -115 125q-46 0 -76.5 -35t-30.5 -92 q0 -132 114 -132q44 0 76 37t32 97z" />
<glyph unicode="&#xa5;" d="M508 650l-187 -371h156v-46h-172v-78h172v-47h-172v-108h-64v108h-171v47h171v78h-171v46h156l-183 371h71l108 -226q27 -57 52 -123h1q21 54 59 132l106 217h68z" />
<glyph unicode="&#xa6;" horiz-adv-x="283" d="M166 381h-50v368h50v-368zM166 -251h-50v378h50v-378z" />
<glyph unicode="&#xa7;" horiz-adv-x="513" d="M416 226q0 -79 -79 -139q39 -52 39 -104q0 -61 -43 -103.5t-120 -42.5q-39 0 -76 11l6 54q45 -13 75 -13q43 0 68 24.5t25 63.5q0 32 -23.5 67t-57.5 68l-68 70q-33 35 -56.5 78.5t-23.5 87.5q0 79 79 140q-39 54 -39 104q0 62 41 102.5t117 40.5q38 0 70 -9l-6 -54 q-36 11 -68 11q-43 0 -66 -22.5t-23 -61.5q0 -32 23.5 -67.5t57.5 -69.5l68 -68q33 -36 56.5 -80t23.5 -88zM354 218q0 30 -17 63t-34.5 53t-56 60t-51.5 55q-51 -34 -51 -92q0 -29 17.5 -62.5t33.5 -52.5t57 -61l52 -55q50 35 50 92z" />
<glyph unicode="&#xa8;" horiz-adv-x="546" d="M400 658q0 -18 -12.5 -30.5t-30.5 -12.5t-30.5 12.5t-12.5 30.5q0 19 12.5 31t30.5 12t30.5 -12t12.5 -31zM216 658q0 -18 -12.5 -30.5t-30.5 -12.5q-19 0 -31 12.5t-12 30.5q0 19 12 31t31 12q18 0 30.5 -12t12.5 -31z" />
<glyph unicode="&#xa9;" horiz-adv-x="752" d="M705 337q0 -137 -97 -234t-234 -97q-141 0 -236.5 95t-95.5 234q0 137 97 233.5t235 96.5t234.5 -95.5t96.5 -232.5zM652 335q0 115 -81.5 198t-196.5 83q-116 0 -197 -81.5t-81 -197.5t81.5 -199t196.5 -83t196.5 82t81.5 198zM471 174q-43 -15 -96 -15 q-82 0 -119.5 46.5t-37.5 124.5q0 79 42 131.5t131 52.5q39 0 77 -12l-4 -49q-37 16 -78 16q-110 0 -110 -135q0 -128 106 -128q45 0 84 15z" />
<glyph unicode="&#xaa;" horiz-adv-x="378" d="M305 356h-58q0 34 5 56l-2 1q-9 -24 -38.5 -43.5t-62.5 -19.5q-47 0 -70.5 21t-23.5 58q0 52 51 85q48 31 137 31h6v21q0 69 -70 69q-53 0 -102 -26l-4 52q50 21 114 21q63 0 90 -30.5t27 -77.5v-129q0 -78 1 -89zM334 237h-272v50h272v-50zM249 496v9q-137 0 -137 -67 q0 -19 12.5 -30t34.5 -11q43 0 66.5 34.5t23.5 64.5z" />
<glyph unicode="&#xab;" horiz-adv-x="492" d="M409 154l-47 -28l-125 168l126 171l45 -28l-105 -142zM226 154l-47 -29l-116 169l118 172l45 -28l-97 -143z" />
<glyph unicode="&#xac;" d="M477 109h-54v162h-379v53h433v-215z" />
<glyph unicode="&#xad;" horiz-adv-x="327" d="M278 268h-229v52h229v-52z" />
<glyph unicode="&#xae;" horiz-adv-x="561" d="M491 527q0 -85 -62.5 -147.5t-148.5 -62.5q-89 0 -149.5 61t-60.5 149q0 87 61.5 149t148.5 62q89 0 150 -61t61 -150zM443 526q0 68 -47.5 117.5t-115.5 49.5t-115.5 -48t-47.5 -116t48 -117.5t115 -49.5q68 0 115.5 48t47.5 116zM369 413h-50l-64 102h-3v-102h-40v232 h70q77 0 77 -59q0 -29 -16.5 -46.5t-44.5 -20.5q5 -6 23 -32zM317 581q0 32 -39 32h-26v-71h16q49 0 49 39z" />
<glyph unicode="&#xaf;" horiz-adv-x="395" d="M317 629h-239v48h239v-48z" />
<glyph unicode="&#xb0;" horiz-adv-x="367" d="M304 616q0 -52 -37.5 -85.5t-87.5 -33.5q-54 0 -86 31.5t-32 84.5q0 54 37 87.5t86 33.5q58 0 89 -34t31 -84zM251 615q0 30 -16 52.5t-53 22.5q-29 0 -48.5 -21t-19.5 -54q0 -34 18.5 -54t48.5 -20t50 20.5t20 53.5z" />
<glyph unicode="&#xb1;" d="M506 328h-201v-206h-60v206h-201v53h201v204h60v-204h201v-53zM505 0h-460v53h460v-53z" />
<glyph unicode="&#xb2;" horiz-adv-x="313" d="M258 358h-210v38l85 77q32 29 43 47t11 40t-15.5 36.5t-41.5 14.5q-32 0 -57 -20l-21 42q43 24 89 24q51 0 78 -25.5t27 -61.5q0 -59 -62 -112l-58 -51h132v-49z" />
<glyph unicode="&#xb3;" horiz-adv-x="302" d="M241 444q0 -45 -36 -69t-96 -24q-31 0 -59 7l9 45q30 -8 54 -8q68 0 68 46q0 31 -24 41q-16 6 -46 6q-17 0 -37 -2v40h26q74 0 74 47q0 18 -13 30t-40 12q-25 0 -53 -12l-14 38q32 16 79 16q48 0 72.5 -21.5t24.5 -53.5q0 -48 -46 -70q27 -4 42 -22.5t15 -45.5z" />
<glyph unicode="&#xb4;" horiz-adv-x="385" d="M263 696l-128 -118l-32 33l119 126z" />
<glyph unicode="&#xb5;" horiz-adv-x="624" d="M597 68q-12 -33 -39.5 -54.5t-65.5 -21.5q-43 0 -58 35q-10 20 -10 45q0 18 5 38h-1q-18 -53 -64 -85.5t-104 -32.5q-69 0 -106 35l9 -278h-66v748h63v-314q0 -68 24.5 -103.5t85.5 -35.5q63 0 107 57.5t44 135.5v260h63v-363q0 -50 7 -67.5t25 -17.5q15 0 27 12t18 28z " />
<glyph unicode="&#xb6;" horiz-adv-x="563" d="M495 628h-74v-724h-137v47h76v724h135v-47zM286 260h-3q-100 0 -154 59q-55 60 -55 151q0 88 59 146.5t153 58.5v-415z" />
<glyph unicode="&#xb7;" horiz-adv-x="209" d="M156 297q0 -22 -15 -36.5t-36 -14.5q-22 0 -36.5 14.5t-14.5 36.5t14.5 36.5t36.5 14.5q21 0 36 -14.5t15 -36.5z" />
<glyph unicode="&#xb8;" horiz-adv-x="400" d="M260 -41q30 -43 30 -82v-13q-7 -45 -52 -100h-56q29 37 40 63q9 19 9 38q0 7 -1 13q-4 26 -27 54z" />
<glyph unicode="&#xb9;" horiz-adv-x="302" d="M192 358h-56v241l-73 -35l-15 44l94 42h50v-292z" />
<glyph unicode="&#xba;" horiz-adv-x="415" d="M356 522q0 -76 -44 -123.5t-115 -47.5q-143 0 -143 167q0 71 43 118t111 47q27 0 51 -7t47 -23.5t36.5 -50t13.5 -80.5zM342 237h-273v50h273v-50zM293 522q0 46 -20.5 78t-66.5 32q-38 0 -64 -28.5t-26 -85.5q0 -116 86 -116q42 0 66.5 30t24.5 90z" />
<glyph unicode="&#xbb;" horiz-adv-x="492" d="M429 297l-119 -172l-45 28l98 143l-97 141l47 29zM254 297l-127 -171l-45 27l106 143l-104 140l46 29z" />
<glyph unicode="&#xbc;" horiz-adv-x="695" d="M523 104v147l-92 -147h92zM633 60h-56v-60h-54v60h-146l-2 39l120 193h82v-188h56v-44zM593 638l-494 -657l-43 29l494 657zM192 358h-56v241l-73 -35l-15 44l94 42h50v-292z" />
<glyph unicode="&#xbd;" horiz-adv-x="700" d="M629 0h-210v38l85 77q32 28 43 46.5t11 40.5t-15.5 36.5t-41.5 14.5q-34 0 -57 -21l-21 43q43 24 89 24q51 0 78 -25.5t27 -62.5q0 -58 -62 -112l-58 -50h132v-49zM593 638l-495 -657l-42 29l494 657zM192 358h-56v241l-73 -35l-15 44l94 42h50v-292z" />
<glyph unicode="&#xbe;" horiz-adv-x="694" d="M522 104v147l-92 -147h92zM632 60h-56v-60h-54v60h-146l-2 39l120 193h82v-188h56v-44zM592 638l-495 -657l-42 29l494 657zM242 444q0 -45 -36 -69.5t-96 -24.5q-32 0 -60 7l9 45q32 -8 55 -8q68 0 68 47q0 31 -24 41q-16 6 -46 6q-17 0 -37 -2v40h26q74 0 74 47 q0 18 -13.5 30t-40.5 12q-24 0 -52 -12l-15 38q32 16 80 16q47 0 72 -21.5t25 -53.5q0 -48 -46 -70q27 -4 42 -23t15 -45z" />
<glyph unicode="&#xbf;" horiz-adv-x="441" d="M299 457q0 -20 -14 -33.5t-34 -13.5t-34 13.5t-14 33.5t14 34t34 14t34 -14t14 -34zM346 -150l-8 -58q-119 5 -193.5 58.5t-74.5 127.5q0 38 15.5 70t37 52.5t45 45.5t40 49t22.5 63q1 10 1 21q0 30 -11 64h62q12 -44 12 -77q0 -14 -2 -26q-8 -39 -33 -73.5t-51.5 -57.5 t-47.5 -56t-21 -68q0 -53 57.5 -92t149.5 -43z" />
<glyph unicode="&#xc0;" horiz-adv-x="608" d="M592 0h-74l-61 172h-311l-63 -172h-67l254 675h69zM438 224l-106 290q-20 55 -30 90h-1q-15 -47 -30 -89l-107 -291h274zM353 770l-15 -38l-172 58l23 54z" />
<glyph unicode="&#xc1;" horiz-adv-x="608" d="M592 0h-74l-61 172h-311l-63 -172h-67l254 675h69zM438 224l-106 290q-20 55 -30 90h-1q-15 -47 -30 -89l-107 -291h274zM434 790l-171 -58l-15 38l163 74z" />
<glyph unicode="&#xc2;" horiz-adv-x="608" d="M592 0h-74l-61 172h-311l-63 -172h-67l254 675h69zM438 224l-106 290q-20 55 -30 90h-1q-15 -47 -30 -89l-107 -291h274zM456 771l-23 -41l-135 65l-129 -65l-20 38l152 84z" />
<glyph unicode="&#xc3;" horiz-adv-x="608" d="M592 0h-74l-61 172h-311l-63 -172h-67l254 675h69zM438 224l-106 290q-20 55 -30 90h-1q-15 -47 -30 -89l-107 -291h274zM474 807q-40 -67 -103 -67q-36 0 -76 28t-60 28q-38 0 -65 -47l-35 26q37 67 103 67q36 0 75.5 -27.5t59.5 -27.5q38 0 66 46z" />
<glyph unicode="&#xc4;" horiz-adv-x="608" d="M592 0h-74l-61 172h-311l-63 -172h-67l254 675h69zM438 224l-106 290q-20 55 -30 90h-1q-15 -47 -30 -89l-107 -291h274zM451 777q0 -17 -12.5 -29.5t-29.5 -12.5q-18 0 -30 12.5t-12 29.5q0 18 12 30t30 12q17 0 29.5 -12t12.5 -30zM238 777q0 -17 -12 -29.5t-30 -12.5 q-17 0 -29.5 12.5t-12.5 29.5q0 18 12.5 30t29.5 12q18 0 30 -12t12 -30z" />
<glyph unicode="&#xc5;" horiz-adv-x="608" d="M592 0h-74l-61 172h-311l-63 -172h-67l244 648q-27 11 -42.5 34.5t-15.5 54.5q0 42 31 71.5t73 29.5q44 0 73.5 -29t29.5 -72q0 -29 -16.5 -54t-43.5 -36zM363 737q0 24 -16.5 41.5t-40.5 17.5t-40.5 -17.5t-16.5 -41.5q0 -25 16 -42t41 -17q24 0 40.5 17t16.5 42z M438 224l-105 288q-7 14 -12.5 29t-10.5 35l-8 28h-1q-15 -48 -31 -91l-106 -289h274z" />
<glyph unicode="&#xc6;" horiz-adv-x="777" d="M699 0h-338v173h-243l-95 -173h-69l376 675h357v-52h-262v-249h253v-51h-253v-270h274v-53zM361 225v396h-2l-69 -134l-146 -262h217z" />
<glyph unicode="&#xc7;" horiz-adv-x="595" d="M548 32q-90 -39 -194 -39q-149 0 -225.5 87t-76.5 244q0 161 80 259.5t245 98.5q84 0 161 -23l-12 -59q-79 28 -163 28q-122 0 -182 -82t-60 -211q0 -138 62.5 -212t189.5 -74q86 0 162 38zM354 -41q30 -43 30 -82v-13q-7 -45 -52 -100h-56q29 37 40 63q9 19 9 38 q0 7 -1 13q-4 26 -27 54z" />
<glyph unicode="&#xc8;" horiz-adv-x="508" d="M429 0h-333v675h333v-52h-269v-249h256v-51h-256v-270h269v-53zM316 770l-15 -38l-172 58l23 54z" />
<glyph unicode="&#xc9;" horiz-adv-x="508" d="M429 0h-333v675h333v-52h-269v-249h256v-51h-256v-270h269v-53zM391 790l-171 -58l-15 38l163 74z" />
<glyph unicode="&#xca;" horiz-adv-x="508" d="M429 0h-333v675h333v-52h-269v-249h256v-51h-256v-270h269v-53zM413 771l-23 -41l-135 65l-129 -65l-20 38l152 84z" />
<glyph unicode="&#xcb;" horiz-adv-x="508" d="M429 0h-333v675h333v-52h-269v-249h256v-51h-256v-270h269v-53zM405 777q0 -17 -12.5 -29.5t-29.5 -12.5q-18 0 -30 12.5t-12 29.5q0 18 12 30t30 12q17 0 29.5 -12t12.5 -30zM192 777q0 -17 -12 -29.5t-30 -12.5q-17 0 -29.5 12.5t-12.5 29.5q0 18 12.5 30t29.5 12 q18 0 30 -12t12 -30z" />
<glyph unicode="&#xcc;" horiz-adv-x="256" d="M160 0h-64v675h64v-675zM180 770l-15 -38l-172 58l23 54z" />
<glyph unicode="&#xcd;" horiz-adv-x="256" d="M160 0h-64v675h64v-675zM258 790l-171 -58l-15 38l163 74z" />
<glyph unicode="&#xce;" horiz-adv-x="256" d="M160 0h-64v675h64v-675zM283 771l-23 -41l-135 65l-129 -65l-20 38l152 84z" />
<glyph unicode="&#xcf;" horiz-adv-x="256" d="M160 0h-64v675h64v-675zM277 777q0 -17 -12.5 -29.5t-29.5 -12.5q-18 0 -30 12.5t-12 29.5q0 18 12 30t30 12q17 0 29.5 -12t12.5 -30zM64 777q0 -17 -12 -29.5t-30 -12.5q-17 0 -29.5 12.5t-12.5 29.5q0 18 12.5 30t29.5 12q18 0 30 -12t12 -30z" />
<glyph unicode="&#xd0;" horiz-adv-x="697" d="M645 342q0 -169 -104 -257t-277 -88q-32 0 -83 2q-34 1 -56 1h-18v324h-107v50h107v301q24 0 89 1.5t100 1.5q169 0 259 -84t90 -252zM578 338q0 143 -73.5 215.5t-216.5 72.5q-30 0 -117 -3v-249h154v-50h-154v-269q35 -5 103 -5q141 0 222.5 71.5t81.5 216.5z" />
<glyph unicode="&#xd1;" horiz-adv-x="714" d="M618 0h-87l-299 472q-49 75 -79 136q7 -187 7 -409v-199h-64v675h87l295 -464q41 -65 83 -141q-7 222 -7 425v180h64v-675zM519 807q-40 -67 -103 -67q-36 0 -76 28t-60 28q-38 0 -65 -47l-35 26q37 67 103 67q36 0 75.5 -27.5t59.5 -27.5q38 0 66 46z" />
<glyph unicode="&#xd2;" horiz-adv-x="706" d="M658 344q0 -164 -90 -258t-224 -94q-146 0 -221 91t-75 248q0 164 89.5 258t223.5 94q139 0 218 -89t79 -250zM589 333q0 141 -62.5 218.5t-173.5 77.5q-99 0 -167.5 -77t-68.5 -208q0 -136 60 -216.5t175 -80.5q99 0 168 77t69 209zM406 770l-15 -38l-172 58l23 54z" />
<glyph unicode="&#xd3;" horiz-adv-x="706" d="M658 344q0 -164 -90 -258t-224 -94q-146 0 -221 91t-75 248q0 164 89.5 258t223.5 94q139 0 218 -89t79 -250zM589 333q0 141 -62.5 218.5t-173.5 77.5q-99 0 -167.5 -77t-68.5 -208q0 -136 60 -216.5t175 -80.5q99 0 168 77t69 209zM491 790l-171 -58l-15 38l163 74z " />
<glyph unicode="&#xd4;" horiz-adv-x="706" d="M658 344q0 -164 -90 -258t-224 -94q-146 0 -221 91t-75 248q0 164 89.5 258t223.5 94q139 0 218 -89t79 -250zM589 333q0 141 -62.5 218.5t-173.5 77.5q-99 0 -167.5 -77t-68.5 -208q0 -136 60 -216.5t175 -80.5q99 0 168 77t69 209zM513 771l-23 -41l-135 65l-129 -65 l-20 38l152 84z" />
<glyph unicode="&#xd5;" horiz-adv-x="706" d="M658 344q0 -164 -90 -258t-224 -94q-146 0 -221 91t-75 248q0 164 89.5 258t223.5 94q139 0 218 -89t79 -250zM589 333q0 141 -62.5 218.5t-173.5 77.5q-99 0 -167.5 -77t-68.5 -208q0 -136 60 -216.5t175 -80.5q99 0 168 77t69 209zM521 807q-40 -67 -103 -67 q-36 0 -76 28t-60 28q-38 0 -65 -47l-35 26q37 67 103 67q36 0 75.5 -27.5t59.5 -27.5q38 0 66 46z" />
<glyph unicode="&#xd6;" horiz-adv-x="706" d="M658 344q0 -164 -90 -258t-224 -94q-146 0 -221 91t-75 248q0 164 89.5 258t223.5 94q139 0 218 -89t79 -250zM589 333q0 141 -62.5 218.5t-173.5 77.5q-99 0 -167.5 -77t-68.5 -208q0 -136 60 -216.5t175 -80.5q99 0 168 77t69 209zM497 777q0 -17 -12.5 -29.5 t-29.5 -12.5q-18 0 -30 12.5t-12 29.5q0 18 12 30t30 12q17 0 29.5 -12t12.5 -30zM284 777q0 -17 -12 -29.5t-30 -12.5q-17 0 -29.5 12.5t-12.5 29.5q0 18 12.5 30t29.5 12q18 0 30 -12t12 -30z" />
<glyph unicode="&#xd7;" d="M489 121l-38 -38l-177 177l-178 -177l-35 35l177 178l-177 177l38 38l177 -177l178 177l35 -35l-177 -178z" />
<glyph unicode="&#xd8;" horiz-adv-x="706" d="M658 341q0 -165 -88.5 -257t-228.5 -92q-53 0 -90 11l-39 -105l-50 17l39 105q-78 38 -115.5 119.5t-37.5 193.5q0 163 89 256.5t223 93.5q46 0 84 -9l37 99l50 -18l-37 -97q79 -34 121.5 -115t42.5 -202zM590 331q0 96 -30 165.5t-88 101.5l-201 -540q31 -11 78 -11 q107 1 174 76t67 208zM425 619q-34 10 -76 10q-99 -2 -166 -78.5t-67 -209.5q0 -194 107 -261z" />
<glyph unicode="&#xd9;" horiz-adv-x="701" d="M605 255q0 -129 -66 -196t-197 -67q-60 0 -105 13.5t-71.5 34.5t-42.5 52.5t-21.5 62t-5.5 67.5v453h64v-446q0 -41 8 -72t28 -57.5t58 -41t94 -14.5q100 0 147 47t47 158v426h63v-420zM409 770l-15 -38l-172 58l23 54z" />
<glyph unicode="&#xda;" horiz-adv-x="701" d="M605 255q0 -129 -66 -196t-197 -67q-60 0 -105 13.5t-71.5 34.5t-42.5 52.5t-21.5 62t-5.5 67.5v453h64v-446q0 -41 8 -72t28 -57.5t58 -41t94 -14.5q100 0 147 47t47 158v426h63v-420zM477 790l-171 -58l-15 38l163 74z" />
<glyph unicode="&#xdb;" horiz-adv-x="701" d="M605 255q0 -129 -66 -196t-197 -67q-60 0 -105 13.5t-71.5 34.5t-42.5 52.5t-21.5 62t-5.5 67.5v453h64v-446q0 -41 8 -72t28 -57.5t58 -41t94 -14.5q100 0 147 47t47 158v426h63v-420zM504 771l-23 -41l-135 65l-129 -65l-20 38l152 84z" />
<glyph unicode="&#xdc;" horiz-adv-x="701" d="M605 255q0 -129 -66 -196t-197 -67q-60 0 -105 13.5t-71.5 34.5t-42.5 52.5t-21.5 62t-5.5 67.5v453h64v-446q0 -41 8 -72t28 -57.5t58 -41t94 -14.5q100 0 147 47t47 158v426h63v-420zM493 777q0 -17 -12.5 -29.5t-29.5 -12.5q-18 0 -30 12.5t-12 29.5q0 18 12 30t30 12 q17 0 29.5 -12t12.5 -30zM280 777q0 -17 -12 -29.5t-30 -12.5q-17 0 -29.5 12.5t-12.5 29.5q0 18 12.5 30t29.5 12q18 0 30 -12t12 -30z" />
<glyph unicode="&#xdd;" horiz-adv-x="519" d="M505 675l-216 -429v-246h-64v246l-211 429h71l120 -251q29 -59 54 -122h1q14 37 60 132l117 241h68zM404 790l-171 -58l-15 38l163 74z" />
<glyph unicode="&#xde;" horiz-adv-x="521" d="M499 368q0 -103 -76 -164.5t-195 -61.5q-40 0 -68 4v-146h-64v675h64v-108q46 3 91 3q118 0 183 -52t65 -150zM433 362q0 155 -197 155q-38 0 -76 -6v-311q37 -5 77 -5q93 0 144.5 44t51.5 123z" />
<glyph unicode="&#xdf;" horiz-adv-x="582" d="M535 144q0 -66 -52.5 -109t-141.5 -43q-54 0 -94 8l7 60q42 -14 91 -14q62 0 94 25t32 63q0 33 -21.5 57t-52.5 40t-62 34t-52.5 49.5t-21.5 75.5q0 33 15.5 58t37.5 40l44 30q22 15 37.5 35.5t15.5 47.5q0 41 -29.5 62t-79.5 21q-71 0 -107 -41.5t-36 -133.5v-509h-63 v504q0 121 57.5 175.5t154.5 54.5q80 0 123.5 -35.5t43.5 -90.5q0 -38 -15.5 -65.5t-37.5 -43t-44 -28.5t-37.5 -31.5t-15.5 -44.5q0 -31 21.5 -54.5t52.5 -39.5t62 -34t52.5 -49t21.5 -74z" />
<glyph unicode="&#xe0;" horiz-adv-x="519" d="M424 0h-64q0 74 6 109l-2 1q-19 -51 -66 -84.5t-110 -33.5q-59 0 -97 35t-38 94q0 76 79.5 122.5t226.5 46.5v38q0 64 -27 95t-91 31q-78 0 -147 -38l-16 53q81 36 173 36q94 0 132.5 -42t38.5 -117v-192q0 -64 2 -154zM359 229v12q-130 0 -186 -31t-56 -79 q0 -38 23.5 -62.5t62.5 -24.5q68 0 112 56.5t44 128.5zM308 611l-33 -33l-128 118l42 41z" />
<glyph unicode="&#xe1;" horiz-adv-x="519" d="M424 0h-64q0 74 6 109l-2 1q-19 -51 -66 -84.5t-110 -33.5q-59 0 -97 35t-38 94q0 76 79.5 122.5t226.5 46.5v38q0 64 -27 95t-91 31q-78 0 -147 -38l-16 53q81 36 173 36q94 0 132.5 -42t38.5 -117v-192q0 -64 2 -154zM359 229v12q-130 0 -186 -31t-56 -79 q0 -38 23.5 -62.5t62.5 -24.5q68 0 112 56.5t44 128.5zM365 696l-128 -118l-32 33l119 126z" />
<glyph unicode="&#xe2;" horiz-adv-x="519" d="M424 0h-64q0 74 6 109l-2 1q-19 -51 -66 -84.5t-110 -33.5q-59 0 -97 35t-38 94q0 76 79.5 122.5t226.5 46.5v38q0 64 -27 95t-91 31q-78 0 -147 -38l-16 53q81 36 173 36q94 0 132.5 -42t38.5 -117v-192q0 -64 2 -154zM359 229v12q-130 0 -186 -31t-56 -79 q0 -38 23.5 -62.5t62.5 -24.5q68 0 112 56.5t44 128.5zM381 610l-33 -32l-97 87l-97 -87l-30 30l129 129z" />
<glyph unicode="&#xe3;" horiz-adv-x="519" d="M424 0h-64q0 74 6 109l-2 1q-19 -51 -66 -84.5t-110 -33.5q-59 0 -97 35t-38 94q0 76 79.5 122.5t226.5 46.5v38q0 64 -27 95t-91 31q-78 0 -147 -38l-16 53q81 36 173 36q94 0 132.5 -42t38.5 -117v-192q0 -64 2 -154zM359 229v12q-130 0 -186 -31t-56 -79 q0 -38 23.5 -62.5t62.5 -24.5q68 0 112 56.5t44 128.5zM396 674q-38 -69 -101 -69q-34 0 -72 28.5t-58 28.5q-35 0 -62 -48l-34 28q38 69 101 69q35 0 72 -28.5t57 -28.5q36 0 63 47z" />
<glyph unicode="&#xe4;" horiz-adv-x="519" d="M424 0h-64q0 74 6 109l-2 1q-19 -51 -66 -84.5t-110 -33.5q-59 0 -97 35t-38 94q0 76 79.5 122.5t226.5 46.5v38q0 64 -27 95t-91 31q-78 0 -147 -38l-16 53q81 36 173 36q94 0 132.5 -42t38.5 -117v-192q0 -64 2 -154zM359 229v12q-130 0 -186 -31t-56 -79 q0 -38 23.5 -62.5t62.5 -24.5q68 0 112 56.5t44 128.5zM386 658q0 -18 -12.5 -30.5t-30.5 -12.5t-30.5 12.5t-12.5 30.5q0 19 12.5 31t30.5 12t30.5 -12t12.5 -31zM202 658q0 -18 -12.5 -30.5t-30.5 -12.5q-19 0 -31 12.5t-12 30.5q0 19 12 31t31 12q18 0 30.5 -12t12.5 -31 z" />
<glyph unicode="&#xe5;" horiz-adv-x="519" d="M424 0h-64q0 74 6 109l-2 1q-19 -51 -66 -84.5t-110 -33.5q-59 0 -97 35t-38 94q0 76 79.5 122.5t226.5 46.5v38q0 64 -27 95t-91 31q-78 0 -147 -38l-16 53q81 36 173 36q94 0 132.5 -42t38.5 -117v-192q0 -64 2 -154zM359 229v12q-130 0 -186 -31t-56 -79 q0 -38 23.5 -62.5t62.5 -24.5q68 0 112 56.5t44 128.5zM360 659q0 -41 -30.5 -71t-72.5 -30q-44 0 -74 28.5t-30 72.5q0 42 31 71.5t73 29.5q44 0 73.5 -29t29.5 -72zM314 659q0 25 -16.5 42t-40.5 17q-25 0 -41.5 -17t-16.5 -42q0 -24 17 -41.5t41 -17.5t40.5 17.5 t16.5 41.5z" />
<glyph unicode="&#xe6;" horiz-adv-x="811" d="M760 305q0 -19 -1 -36h-338v-19q0 -102 39 -150q43 -54 132 -54q77 0 141 29l12 -53q-74 -30 -166 -30q-83 0 -132 33.5t-66 88.5h-1q-22 -50 -73 -86t-119 -36q-59 0 -97 35t-38 94q0 76 79.5 122.5t226.5 46.5v38q0 64 -27 95t-91 31q-78 0 -147 -38l-16 53 q81 36 173 36q122 0 152 -88h1q24 39 67 63.5t98 24.5q96 0 143.5 -56.5t47.5 -143.5zM693 317v7q0 58 -33 94q-35 39 -95 39q-55 0 -92 -37.5t-48 -102.5h268zM359 229v12q-130 0 -186 -31t-56 -79q0 -38 23.5 -62.5t62.5 -24.5q68 0 112 56.5t44 128.5z" />
<glyph unicode="&#xe7;" horiz-adv-x="443" d="M414 23q-67 -29 -155 -29q-213 0 -213 237q0 126 60.5 199t172.5 73q77 0 132 -23l-14 -52q-65 25 -128 25q-73 0 -114.5 -58t-41.5 -151q0 -91 35 -144t124 -53q69 0 129 27zM262 -41q30 -43 30 -82v-13q-7 -45 -52 -100h-56q29 37 40 63q9 19 9 38q0 7 -1 13 q-4 26 -27 54z" />
<glyph unicode="&#xe8;" horiz-adv-x="503" d="M452 305q0 -19 -2 -36h-337v-19q0 -102 39 -150q43 -54 132 -54q76 0 140 29l12 -53q-74 -30 -166 -30q-224 0 -224 255q0 114 58 186t157 72q96 0 143.5 -56.5t47.5 -143.5zM385 317v7q0 58 -33 94q-35 39 -95 39q-55 0 -92.5 -37.5t-47.5 -102.5h268zM309 611l-33 -33 l-128 118l42 41z" />
<glyph unicode="&#xe9;" horiz-adv-x="503" d="M452 305q0 -19 -2 -36h-337v-19q0 -102 39 -150q43 -54 132 -54q76 0 140 29l12 -53q-74 -30 -166 -30q-224 0 -224 255q0 114 58 186t157 72q96 0 143.5 -56.5t47.5 -143.5zM385 317v7q0 58 -33 94q-35 39 -95 39q-55 0 -92.5 -37.5t-47.5 -102.5h268zM368 696 l-128 -118l-32 33l119 126z" />
<glyph unicode="&#xea;" horiz-adv-x="503" d="M452 305q0 -19 -2 -36h-337v-19q0 -102 39 -150q43 -54 132 -54q76 0 140 29l12 -53q-74 -30 -166 -30q-224 0 -224 255q0 114 58 186t157 72q96 0 143.5 -56.5t47.5 -143.5zM385 317v7q0 58 -33 94q-35 39 -95 39q-55 0 -92.5 -37.5t-47.5 -102.5h268zM386 610l-33 -32 l-97 87l-97 -87l-30 30l129 129z" />
<glyph unicode="&#xeb;" horiz-adv-x="503" d="M452 305q0 -19 -2 -36h-337v-19q0 -102 39 -150q43 -54 132 -54q76 0 140 29l12 -53q-74 -30 -166 -30q-224 0 -224 255q0 114 58 186t157 72q96 0 143.5 -56.5t47.5 -143.5zM385 317v7q0 58 -33 94q-35 39 -95 39q-55 0 -92.5 -37.5t-47.5 -102.5h268zM395 658 q0 -18 -12.5 -30.5t-30.5 -12.5t-30.5 12.5t-12.5 30.5q0 19 12.5 31t30.5 12t30.5 -12t12.5 -31zM211 658q0 -18 -12.5 -30.5t-30.5 -12.5q-19 0 -31 12.5t-12 30.5q0 19 12 31t31 12q18 0 30.5 -12t12.5 -31z" />
<glyph unicode="&#xec;" horiz-adv-x="255" d="M159 0h-63v497h63v-497zM188 611l-33 -33l-128 118l42 41z" />
<glyph unicode="&#xed;" horiz-adv-x="255" d="M159 0h-63v497h63v-497zM224 696l-128 -118l-32 33l119 126z" />
<glyph unicode="&#xee;" horiz-adv-x="255" d="M159 0h-63v497h63v-497zM256 610l-33 -32l-97 87l-97 -87l-30 30l129 129z" />
<glyph unicode="&#xef;" horiz-adv-x="255" d="M159 0h-63v497h63v-497zM262 658q0 -18 -12.5 -30.5t-30.5 -12.5t-30.5 12.5t-12.5 30.5q0 19 12.5 31t30.5 12t30.5 -12t12.5 -31zM78 658q0 -18 -12.5 -30.5t-30.5 -12.5q-19 0 -31 12.5t-12 30.5q0 19 12 31t31 12q18 0 30.5 -12t12.5 -31z" />
<glyph unicode="&#xf0;" horiz-adv-x="540" d="M493 269q0 -136 -63.5 -206.5t-166.5 -70.5q-102 0 -160.5 64.5t-58.5 190.5q0 110 62.5 184t169.5 74q91 0 123 -56q-8 15 -20.5 36t-13.5 23q-26 48 -72 98l-108 -49l-29 37l102 46q-30 29 -85 72l65 28q47 -38 80 -73l108 47l29 -37l-104 -46q142 -169 142 -362z M427 261q0 90 -40.5 141.5t-116.5 51.5q-67 0 -113.5 -52t-46.5 -150q0 -99 43.5 -153.5t120.5 -54.5q68 0 110.5 53.5t42.5 163.5z" />
<glyph unicode="&#xf1;" horiz-adv-x="579" d="M483 0h-63v322q0 66 -22.5 99t-78.5 33q-70 0 -115 -61t-45 -156v-237h-63v497h64q0 -69 -9 -116l2 -1q21 58 68 91.5t112 33.5q150 0 150 -159v-346zM458 674q-38 -69 -101 -69q-34 0 -72 28.5t-58 28.5q-35 0 -62 -48l-34 28q38 69 101 69q35 0 72 -28.5t57 -28.5 q36 0 63 47z" />
<glyph unicode="&#xf2;" horiz-adv-x="540" d="M494 256q0 -112 -64 -188t-170 -76q-102 0 -159 64t-57 191q0 109 62.5 183.5t170.5 74.5q96 0 156.5 -59.5t60.5 -189.5zM429 253q0 95 -40.5 148t-118.5 53q-67 0 -113.5 -52t-46.5 -150q0 -99 42 -153.5t119 -54.5q67 0 112.5 53t45.5 156zM328 611l-33 -33l-128 118 l42 41z" />
<glyph unicode="&#xf3;" horiz-adv-x="540" d="M494 256q0 -112 -64 -188t-170 -76q-102 0 -159 64t-57 191q0 109 62.5 183.5t170.5 74.5q96 0 156.5 -59.5t60.5 -189.5zM429 253q0 95 -40.5 148t-118.5 53q-67 0 -113.5 -52t-46.5 -150q0 -99 42 -153.5t119 -54.5q67 0 112.5 53t45.5 156zM383 696l-128 -118l-32 33 l119 126z" />
<glyph unicode="&#xf4;" horiz-adv-x="540" d="M494 256q0 -112 -64 -188t-170 -76q-102 0 -159 64t-57 191q0 109 62.5 183.5t170.5 74.5q96 0 156.5 -59.5t60.5 -189.5zM429 253q0 95 -40.5 148t-118.5 53q-67 0 -113.5 -52t-46.5 -150q0 -99 42 -153.5t119 -54.5q67 0 112.5 53t45.5 156zM396 610l-33 -32l-97 87 l-97 -87l-30 30l129 129z" />
<glyph unicode="&#xf5;" horiz-adv-x="540" d="M494 256q0 -112 -64 -188t-170 -76q-102 0 -159 64t-57 191q0 109 62.5 183.5t170.5 74.5q96 0 156.5 -59.5t60.5 -189.5zM429 253q0 95 -40.5 148t-118.5 53q-67 0 -113.5 -52t-46.5 -150q0 -99 42 -153.5t119 -54.5q67 0 112.5 53t45.5 156zM419 674q-38 -69 -101 -69 q-34 0 -72 28.5t-58 28.5q-35 0 -62 -48l-34 28q38 69 101 69q35 0 72 -28.5t57 -28.5q36 0 63 47z" />
<glyph unicode="&#xf6;" horiz-adv-x="540" d="M494 256q0 -112 -64 -188t-170 -76q-102 0 -159 64t-57 191q0 109 62.5 183.5t170.5 74.5q96 0 156.5 -59.5t60.5 -189.5zM429 253q0 95 -40.5 148t-118.5 53q-67 0 -113.5 -52t-46.5 -150q0 -99 42 -153.5t119 -54.5q67 0 112.5 53t45.5 156zM402 658q0 -18 -12.5 -30.5 t-30.5 -12.5t-30.5 12.5t-12.5 30.5q0 19 12.5 31t30.5 12t30.5 -12t12.5 -31zM218 658q0 -18 -12.5 -30.5t-30.5 -12.5q-19 0 -31 12.5t-12 30.5q0 19 12 31t31 12q18 0 30.5 -12t12.5 -31z" />
<glyph unicode="&#xf7;" d="M321 498q0 -20 -14 -34t-34 -14t-34 14t-14 34t14 34t34 14t34 -14t14 -34zM506 271h-462v53h462v-53zM321 95q0 -20 -14 -33.5t-34 -13.5t-34 14t-14 33q0 20 14 34t34 14t34 -14t14 -34z" />
<glyph unicode="&#xf8;" horiz-adv-x="540" d="M494 256q0 -112 -63.5 -188t-168.5 -76q-41 0 -72 10l-39 -105l-48 16l42 107q-101 62 -101 227q0 110 62.5 184t170.5 74q17 0 51 -4l36 94l47 -17l-36 -92q119 -55 119 -230zM431 253q0 134 -77 180l-144 -379q25 -11 64 -11q67 1 112 53.5t45 156.5zM309 451 q-28 4 -43 4q-65 -1 -112 -50.5t-47 -152.5q0 -122 61 -172z" />
<glyph unicode="&#xf9;" horiz-adv-x="579" d="M483 0h-64q0 70 9 116l-2 1q-21 -58 -68 -91.5t-112 -33.5q-150 0 -150 159v346h63v-322q0 -66 22.5 -99t78.5 -33q70 0 115 61t45 156v237h63v-497zM326 611l-33 -33l-128 118l42 41z" />
<glyph unicode="&#xfa;" horiz-adv-x="579" d="M483 0h-64q0 70 9 116l-2 1q-21 -58 -68 -91.5t-112 -33.5q-150 0 -150 159v346h63v-322q0 -66 22.5 -99t78.5 -33q70 0 115 61t45 156v237h63v-497zM417 696l-128 -118l-32 33l119 126z" />
<glyph unicode="&#xfb;" horiz-adv-x="579" d="M483 0h-64q0 70 9 116l-2 1q-21 -58 -68 -91.5t-112 -33.5q-150 0 -150 159v346h63v-322q0 -66 22.5 -99t78.5 -33q70 0 115 61t45 156v237h63v-497zM415 610l-33 -32l-97 87l-97 -87l-30 30l129 129z" />
<glyph unicode="&#xfc;" horiz-adv-x="579" d="M483 0h-64q0 70 9 116l-2 1q-21 -58 -68 -91.5t-112 -33.5q-150 0 -150 159v346h63v-322q0 -66 22.5 -99t78.5 -33q70 0 115 61t45 156v237h63v-497zM421 658q0 -18 -12.5 -30.5t-30.5 -12.5t-30.5 12.5t-12.5 30.5q0 19 12.5 31t30.5 12t30.5 -12t12.5 -31zM237 658 q0 -18 -12.5 -30.5t-30.5 -12.5q-19 0 -31 12.5t-12 30.5q0 19 12 31t31 12q18 0 30.5 -12t12.5 -31z" />
<glyph unicode="&#xfd;" horiz-adv-x="464" d="M452 497l-207 -548q-44 -115 -93 -161.5t-131 -46.5q-22 0 -50 6l7 58q24 -8 57 -8q47 0 80.5 31t64.5 111l24 61l-192 497h74l112 -306q17 -45 38 -115h1q9 34 50 151l96 270h69zM352 696l-128 -118l-32 33l119 126z" />
<glyph unicode="&#xfe;" horiz-adv-x="558" d="M510 271q0 -133 -68 -204.5t-184 -71.5q-56 0 -99 6v-252h-63v981h63v-229q0 -82 -7 -117l2 -1q21 56 67 89t105 33q89 0 136.5 -59.5t47.5 -174.5zM444 265q0 189 -128 189q-50 0 -87.5 -36t-53.5 -83t-16 -95v-181q42 -15 104 -15q85 0 133 54t48 167z" />
<glyph unicode="&#xff;" horiz-adv-x="464" d="M452 497l-207 -548q-44 -115 -93 -161.5t-131 -46.5q-22 0 -50 6l7 58q24 -8 57 -8q47 0 80.5 31t64.5 111l24 61l-192 497h74l112 -306q17 -45 38 -115h1q9 34 50 151l96 270h69zM365 658q0 -18 -12.5 -30.5t-30.5 -12.5t-30.5 12.5t-12.5 30.5q0 19 12.5 31t30.5 12 t30.5 -12t12.5 -31zM181 658q0 -18 -12.5 -30.5t-30.5 -12.5q-19 0 -31 12.5t-12 30.5q0 19 12 31t31 12q18 0 30.5 -12t12.5 -31z" />
<glyph unicode="&#x131;" horiz-adv-x="255" d="M159 0h-63v497h63v-497z" />
<glyph unicode="&#x152;" horiz-adv-x="865" d="M787 0h-332q-59 -8 -111 -8q-146 0 -221 91t-75 248q0 164 89.5 258t223.5 94q48 0 98 -8h328v-52h-269v-249h256v-51h-256v-270h269v-53zM454 60v555q-51 14 -99 14q-100 0 -169 -76.5t-69 -208.5q0 -136 60 -216.5t175 -80.5q56 0 102 13z" />
<glyph unicode="&#x153;" horiz-adv-x="882" d="M831 305q0 -2 -2 -36h-337v-19q0 -102 39 -150q43 -54 131 -54q77 0 141 29l12 -53q-74 -30 -166 -30q-148 0 -196 115q-61 -115 -193 -115q-102 0 -159 64t-57 191q0 109 62.5 183.5t170.5 74.5q61 0 110.5 -27t75.5 -81q56 108 177 108q96 0 143.5 -56.5t47.5 -143.5z M763 317v7q0 59 -33 95q-34 38 -94 38q-56 0 -93.5 -37.5t-47.5 -102.5h268zM429 253q0 95 -40.5 148t-118.5 53q-67 0 -113.5 -52t-46.5 -150q0 -99 42 -153.5t119 -54.5q67 0 112.5 53t45.5 156z" />
<glyph unicode="&#x178;" horiz-adv-x="519" d="M505 675l-216 -429v-246h-64v246l-211 429h71l120 -251q29 -59 54 -122h1q14 37 60 132l117 241h68zM406 777q0 -17 -12.5 -29.5t-29.5 -12.5q-18 0 -30 12.5t-12 29.5q0 18 12 30t30 12q17 0 29.5 -12t12.5 -30zM193 777q0 -17 -12 -29.5t-30 -12.5q-17 0 -29.5 12.5 t-12.5 29.5q0 18 12.5 30t29.5 12q18 0 30 -12t12 -30z" />
<glyph unicode="&#x2c6;" horiz-adv-x="438" d="M345 610l-33 -32l-97 87l-97 -87l-30 30l129 129z" />
<glyph unicode="&#x2da;" horiz-adv-x="395" d="M301 656q0 -41 -30.5 -71t-72.5 -30q-44 0 -74 28.5t-30 72.5q0 42 31 71.5t73 29.5q44 0 73.5 -29t29.5 -72zM255 656q0 25 -16.5 42t-40.5 17q-25 0 -41.5 -17t-16.5 -42q0 -24 17 -41.5t41 -17.5t40.5 17.5t16.5 41.5z" />
<glyph unicode="&#x2dc;" horiz-adv-x="516" d="M417 674q-38 -69 -101 -69q-34 0 -72 28.5t-58 28.5q-35 0 -62 -48l-34 28q38 69 101 69q35 0 72 -28.5t57 -28.5q36 0 63 47z" />
<glyph unicode="&#x3bc;" horiz-adv-x="624" d="M597 68q-12 -33 -39.5 -54.5t-65.5 -21.5q-43 0 -58 35q-10 20 -10 45q0 18 5 38h-1q-18 -53 -64 -85.5t-104 -32.5q-69 0 -106 35l9 -278h-66v748h63v-314q0 -68 24.5 -103.5t85.5 -35.5q63 0 107 57.5t44 135.5v260h63v-363q0 -50 7 -67.5t25 -17.5q15 0 27 12t18 28z " />
<glyph unicode="&#x2000;" horiz-adv-x="426" />
<glyph unicode="&#x2001;" horiz-adv-x="852" />
<glyph unicode="&#x2002;" horiz-adv-x="426" />
<glyph unicode="&#x2003;" horiz-adv-x="852" />
<glyph unicode="&#x2004;" horiz-adv-x="284" />
<glyph unicode="&#x2005;" horiz-adv-x="213" />
<glyph unicode="&#x2006;" horiz-adv-x="142" />
<glyph unicode="&#x2007;" horiz-adv-x="142" />
<glyph unicode="&#x2008;" horiz-adv-x="106" />
<glyph unicode="&#x2009;" horiz-adv-x="170" />
<glyph unicode="&#x200a;" horiz-adv-x="47" />
<glyph unicode="&#x2010;" horiz-adv-x="327" d="M278 268h-229v52h229v-52z" />
<glyph unicode="&#x2011;" horiz-adv-x="327" d="M278 268h-229v52h229v-52z" />
<glyph unicode="&#x2013;" d="M550 271h-550v53h550v-53z" />
<glyph unicode="&#x2014;" horiz-adv-x="1000" d="M877 271h-754v53h754v-53z" />
<glyph unicode="&#x2018;" horiz-adv-x="227" d="M183 720q-29 -31 -42 -59q-12 -26 -12 -43q0 -19 10 -34q9 -13 9 -26q0 -9 -5 -19q-11 -23 -36 -23q-35 0 -46 38q-3 12 -3 24q0 53 54 122q19 23 43 46z" />
<glyph unicode="&#x2019;" horiz-adv-x="227" d="M119 740q34 0 45 -38q3 -12 3 -24q0 -52 -53 -120q-18 -23 -43 -47l-29 25q29 31 42 60q13 27 13 45q0 19 -11 32q-9 13 -9 26q0 9 5 19q11 22 37 22z" />
<glyph unicode="&#x201a;" horiz-adv-x="227" d="M119 88q35 0 45 -38q3 -12 3 -24q0 -54 -55 -123q-18 -22 -41 -44l-29 25q29 31 42 60q13 27 13 45q0 19 -11 32q-9 13 -9 26q0 9 5 19q11 22 37 22z" />
<glyph unicode="&#x201c;" horiz-adv-x="397" d="M353 720q-29 -31 -42 -59q-13 -27 -13 -45t10 -32q9 -13 9 -26q0 -10 -4 -19q-11 -23 -37 -23q-35 0 -45 38q-3 12 -3 24q0 53 54 122q18 23 42 46zM183 720q-29 -31 -42 -59q-12 -26 -12 -43q0 -19 10 -34q9 -13 9 -26q0 -9 -5 -19q-11 -23 -36 -23q-35 0 -46 38 q-3 12 -3 24q0 53 54 122q19 23 43 46z" />
<glyph unicode="&#x201d;" horiz-adv-x="397" d="M288 740q36 0 46 -38q3 -12 3 -24q0 -54 -55 -122q-18 -23 -42 -45l-28 25q29 31 42 60q12 26 12 43q0 19 -10 34q-9 13 -9 26q0 9 5 19q11 22 36 22zM119 740q34 0 45 -38q3 -12 3 -24q0 -52 -53 -120q-18 -23 -43 -47l-29 25q29 31 42 60q13 27 13 45q0 19 -11 32 q-9 13 -9 26q0 9 5 19q11 22 37 22z" />
<glyph unicode="&#x201e;" horiz-adv-x="397" d="M288 88q36 0 46 -38q3 -12 3 -24q0 -53 -55 -122q-18 -22 -42 -45l-28 25q29 31 42 60q12 26 12 43q0 19 -10 34q-9 13 -9 26q0 9 5 19q11 22 36 22zM119 88q35 0 45 -38q3 -12 3 -24q0 -54 -55 -123q-18 -22 -41 -44l-29 25q29 31 42 60q13 27 13 45q0 19 -11 32 q-9 13 -9 26q0 9 5 19q11 22 37 22z" />
<glyph unicode="&#x2022;" horiz-adv-x="419" d="M311 297q0 -42 -30 -71.5t-72 -29.5t-71.5 29.5t-29.5 71.5t29.5 71.5t71.5 29.5t72 -29.5t30 -71.5z" />
<glyph unicode="&#x2026;" horiz-adv-x="623" d="M555 40q0 -20 -14 -34t-34 -14q-19 0 -33.5 14t-14.5 34t14 34t34 14t34 -14t14 -34zM353 40q0 -20 -14 -34t-34 -14q-19 0 -33 14t-14 34t13.5 34t33.5 14t34 -14t14 -34zM151 40q0 -20 -14 -34t-34 -14q-19 0 -33 14t-14 34t13.5 34t33.5 14t34 -14t14 -34z" />
<glyph unicode="&#x202f;" horiz-adv-x="170" />
<glyph unicode="&#x2039;" horiz-adv-x="314" d="M230 156l-46 -31l-121 169l122 171l45 -29l-102 -141z" />
<glyph unicode="&#x203a;" horiz-adv-x="314" d="M251 297l-124 -172l-44 30l103 141l-101 139l45 30z" />
<glyph unicode="&#x205f;" horiz-adv-x="213" />
<glyph unicode="&#x20ac;" d="M510 26q-77 -34 -162 -34q-110 0 -170.5 59t-73.5 180h-93v46h90q-1 11 -1 36q0 23 2 65h-91v46h97q17 109 80.5 171.5t175.5 62.5q76 0 135 -26l-17 -52q-61 27 -132 27q-145 0 -176 -183h207v-46h-214q-1 -18 -1 -56v-45h215v-46h-210q12 -93 58 -138.5t134 -45.5 q59 0 131 29z" />
<glyph unicode="&#x2122;" horiz-adv-x="705" d="M643 394h-52l-25 166l-7 58l-14 -49l-54 -175h-58l-53 177l-12 47l-3 -37l-28 -187h-48l42 281h71l52 -176l12 -50l9 45l57 181h69zM264 635h-78v-241h-53v241h-78v40h209v-40z" />
</font>
</defs>
</svg>
