<?xml version="1.0" standalone="no"?>
<!DOCTYPE svg PUBLIC "-//W3C//DTD SVG 1.1//EN" "http://www.w3.org/Graphics/SVG/1.1/DTD/svg11.dtd" >
<svg xmlns="http://www.w3.org/2000/svg">
<metadata>
This is a custom SVG webfont generated by Font Squirrel.
</metadata>
<defs>
<font id="webfontruRlS6fP" horiz-adv-x="550" >
<font-face units-per-em="1000" ascent="800" descent="-200" />
<missing-glyph horiz-adv-x="218" />
<glyph unicode=" "  horiz-adv-x="218" />
<glyph unicode="&#x09;" horiz-adv-x="218" />
<glyph unicode="&#xa0;" horiz-adv-x="218" />
<glyph unicode="!" horiz-adv-x="318" d="M201 698l-11 -549h-42l-11 549h64zM212 36q0 -18 -12.5 -30.5t-30.5 -12.5t-30.5 12.5t-12.5 30.5t12.5 30.5t30.5 12.5t30.5 -12.5t12.5 -30.5z" />
<glyph unicode="&#x22;" horiz-adv-x="328" d="M268 696l-12 -206h-38l-12 206h62zM122 696l-12 -206h-38l-12 206h62z" />
<glyph unicode="#" d="M514 429h-101l-20 -200h97v-36h-101l-21 -193h-44l21 193h-166l-21 -193h-44l21 193h-99v36h103l20 200h-99v36h103l20 185h44l-20 -185h166l20 185h44l-20 -185h97v-36zM369 429h-166l-20 -200h166z" />
<glyph unicode="$" d="M447 193q0 -67 -45 -115.5t-125 -58.5v-104h-43v102q-72 0 -129 15l8 54q58 -23 131 -23q66 0 107.5 30t41.5 90q0 42 -31 69.5t-74.5 44t-87.5 35t-75 53.5t-31 87q0 62 45.5 107.5t118.5 52.5v98h43v-96q62 -1 111 -12l-8 -51q-57 18 -113 18q-76 0 -111 -32.5 t-35 -76.5q0 -41 31 -69t75.5 -44.5t89 -35.5t75.5 -53.5t31 -84.5z" />
<glyph unicode="%" horiz-adv-x="740" d="M690 151q0 -70 -38 -114.5t-105 -44.5q-133 0 -133 150q0 68 38 112.5t105 44.5q133 0 133 -148zM634 642l-493 -661l-37 25l493 661zM326 510q0 -70 -38 -114.5t-105 -44.5q-133 0 -133 150q0 68 38 112.5t105 44.5q133 0 133 -148zM639 144q0 114 -89 114 q-38 0 -61.5 -30.5t-23.5 -78.5q0 -116 90 -116q37 0 60.5 31t23.5 80zM275 503q0 114 -89 114q-38 0 -61.5 -30.5t-23.5 -78.5q0 -116 90 -116q37 0 60.5 31t23.5 80z" />
<glyph unicode="&#x26;" horiz-adv-x="793" d="M724 27l-33 -42q-82 56 -147 112q-112 -105 -269 -105q-98 0 -154.5 53t-56.5 139q0 66 38 117t114 109q-59 67 -80 106.5t-21 79.5q0 58 42 98t115 40q67 0 104.5 -35t37.5 -89q0 -51 -29.5 -98t-99.5 -101q122 -135 259 -246v-1q76 100 76 237q0 18 -1 36h55v-20 q0 -165 -94 -282q90 -71 144 -108zM361 602q0 40 -24 65t-72 25q-43 0 -70 -26t-27 -68q0 -55 89 -156q54 43 79 80t25 80zM510 125q-155 130 -266 255q-67 -52 -96.5 -96t-29.5 -92q0 -66 46.5 -110.5t122.5 -44.5q129 0 223 88z" />
<glyph unicode="'" horiz-adv-x="182" d="M122 696l-12 -206h-38l-12 206h62z" />
<glyph unicode="(" horiz-adv-x="300" d="M270 -182l-38 -21q-85 135 -114.5 250.5t-29.5 235.5q0 261 145 493l36 -21q-130 -216 -130 -466q0 -258 131 -471z" />
<glyph unicode=")" horiz-adv-x="300" d="M220 290q0 -261 -145 -493l-36 21q130 216 130 466q0 258 -131 471l38 21q85 -135 114.5 -250.5t29.5 -235.5z" />
<glyph unicode="*" horiz-adv-x="363" d="M310 539l-22 -39l-96 64l7 -115h-44l7 115l-96 -64l-21 38l104 51l-104 51l22 38l96 -63l-7 115h44l-7 -115l96 63l21 -37l-104 -51z" />
<glyph unicode="+" d="M505 275h-206v-215h-50v215h-204v45h204v214h50v-214h206v-45z" />
<glyph unicode="," horiz-adv-x="200" d="M97 79q32 0 41 -36q2 -10 2 -20q0 -53 -58 -123q-15 -18 -33 -36l-25 22q28 30 41 58t13 45q0 18 -9 31q-8 12 -8 23q0 8 4 17q10 19 32 19z" />
<glyph unicode="-" horiz-adv-x="326" d="M276 274h-226v45h226v-45z" />
<glyph unicode="." horiz-adv-x="200" d="M143 36q0 -18 -12.5 -30.5t-30.5 -12.5t-30.5 12.5t-12.5 30.5t12.5 30.5t30.5 12.5t30.5 -12.5t12.5 -30.5z" />
<glyph unicode="/" horiz-adv-x="413" d="M414 757l-350 -918h-48l350 918h48z" />
<glyph unicode="0" d="M490 333q0 -177 -65 -259t-157 -82q-107 0 -158 79.5t-51 257.5q0 164 61 246.5t161 82.5q209 0 209 -325zM433 326q0 151 -38.5 219.5t-120.5 68.5q-71 0 -114.5 -68t-43.5 -210q0 -148 36 -223.5t122 -75.5q74 0 116.5 76.5t42.5 212.5z" />
<glyph unicode="1" d="M487 0h-404v48h185v551l-174 -69l-11 49l193 71h47v-602h164v-48z" />
<glyph unicode="2" d="M476 0h-411v42l188 185q87 86 115 134t28 106q0 63 -40.5 105t-109.5 42q-87 0 -155 -57l-20 43q84 58 179 58q94 0 147.5 -53.5t53.5 -130.5q0 -66 -32 -124t-126 -147l-162 -154v-1q76 2 226 2h119v-50z" />
<glyph unicode="3" d="M463 191q0 -90 -68.5 -144.5t-187.5 -54.5q-65 0 -119 16l8 52q60 -21 121 -21q89 0 139 38.5t50 103.5t-49 102.5t-134 37.5q-49 0 -93 -4v46h16q245 0 245 139q0 52 -38 82t-99 30q-72 0 -147 -40l-7 50q81 34 159 34q90 0 139 -42.5t49 -108.5q0 -59 -35 -99.5 t-99 -57.5v-1q63 -4 106.5 -50t43.5 -108z" />
<glyph unicode="4" d="M527 159h-124v-159h-53v159h-319l-3 40l303 451h72v-442h124v-49zM350 208v389h-1l-264 -392q74 3 265 3z" />
<glyph unicode="5" d="M462 209q0 -98 -70 -157.5t-186 -59.5q-59 0 -114 13v52q55 -19 121 -19q93 0 143.5 43.5t50.5 118.5q0 70 -51.5 107t-138.5 37q-61 0 -107 -8v314h330v-52h-282v-212q33 3 70 3q112 0 173 -51t61 -129z" />
<glyph unicode="6" d="M494 216q0 -99 -58.5 -161.5t-155.5 -62.5q-101 0 -158 72t-57 192q0 108 24.5 187t69 125t101.5 68t128 22q27 0 43 -2v-48q-23 3 -52 3q-217 0 -257 -255q-3 -17 -8 -58h1q25 50 73 78t107 28q93 0 146 -53t53 -135zM440 204q0 70 -39.5 112.5t-113.5 42.5 q-70 0 -114.5 -47t-44.5 -100q0 -75 42.5 -125.5t117.5 -50.5q71 0 111.5 46t40.5 122z" />
<glyph unicode="7" d="M491 604q-172 -312 -278 -604h-63q133 331 281 600q-38 -2 -280 -2h-90v52h430v-46z" />
<glyph unicode="8" d="M482 155q0 -71 -59.5 -117t-152.5 -46q-90 0 -146.5 42.5t-56.5 111.5q0 60 42 102.5t117 82.5q-72 33 -107 72t-35 96q0 68 54 113.5t141 45.5q86 0 136 -42t50 -111q0 -53 -37 -91t-105 -76q76 -37 117.5 -77t41.5 -106zM408 500q0 54 -37.5 83.5t-97.5 29.5 q-59 0 -95.5 -31.5t-36.5 -78.5q0 -46 30 -75.5t107 -67.5q63 34 96.5 65.5t33.5 74.5zM425 149q0 58 -39 92t-115 69q-35 -19 -56 -33t-45 -34t-35 -42.5t-11 -49.5q0 -51 40.5 -82.5t113.5 -31.5q63 0 105 29.5t42 82.5z" />
<glyph unicode="9" d="M480 394q0 -110 -25 -190t-70.5 -125.5t-102.5 -66t-128 -20.5q-34 0 -69 6v51q43 -9 82 -9q217 0 248 237q5 35 9 56h-1q-25 -43 -70 -67t-102 -24q-92 0 -143.5 54.5t-51.5 142.5q0 97 59.5 158t152.5 61q100 0 156 -64.5t56 -199.5zM418 439q0 77 -41.5 126t-114.5 49 q-69 0 -110 -47t-41 -118q0 -72 39.5 -115.5t108.5 -43.5q74 0 116.5 43t42.5 106z" />
<glyph unicode=":" horiz-adv-x="275" d="M198 338q0 -18 -12.5 -30.5t-30.5 -12.5t-30.5 12.5t-12.5 30.5t12.5 30.5t30.5 12.5t30.5 -12.5t12.5 -30.5zM198 36q0 -18 -12.5 -30.5t-30.5 -12.5t-30.5 12.5t-12.5 30.5t12.5 30.5t30.5 12.5t30.5 -12.5t12.5 -30.5z" />
<glyph unicode=";" horiz-adv-x="275" d="M198 338q0 -18 -12.5 -30.5t-30.5 -12.5t-30.5 12.5t-12.5 30.5t12.5 30.5t30.5 12.5t30.5 -12.5t12.5 -30.5zM154 79q32 0 41 -36q2 -10 2 -20q0 -53 -58 -123q-15 -18 -33 -36l-25 22q28 30 41 58t13 45q0 18 -9 31q-8 12 -8 23q0 8 4 17q10 19 32 19z" />
<glyph unicode="&#x3c;" d="M427 69l-33 -37l-314 272l314 273l33 -33l-279 -239z" />
<glyph unicode="=" d="M492 350h-434v46h434v-46zM492 199h-434v46h434v-46z" />
<glyph unicode="&#x3e;" d="M470 305l-314 -273l-33 33l279 239l-279 236l33 37z" />
<glyph unicode="?" horiz-adv-x="440" d="M367 520q0 -38 -15.5 -70t-37.5 -53t-45.5 -46t-40.5 -49.5t-22 -63.5q-1 -10 -1 -21q0 -31 11 -68h-52q-12 38 -12 71v18q5 41 21 67.5t39 52.5t44.5 46.5t36.5 49.5t15 60q0 55 -58 95.5t-150 44.5l7 49q113 -5 186.5 -58t73.5 -125zM233 36q0 -18 -12.5 -30.5 t-30.5 -12.5t-30.5 12.5t-12.5 30.5t12.5 30.5t30.5 12.5t30.5 -12.5t12.5 -30.5z" />
<glyph unicode="@" horiz-adv-x="986" d="M886 399q0 -125 -60.5 -197.5t-152.5 -72.5q-64 0 -91 37q-19 26 -19 59q0 12 3 25h-3q-10 -36 -57.5 -78.5t-100.5 -42.5q-94 0 -94 126q0 115 57.5 192.5t161.5 77.5q67 0 122 -10l-42 -227q-3 -19 -3 -36q0 -76 78 -76q66 0 108 58.5t42 161.5q0 56 -18 106.5 t-53.5 93t-98 67.5t-143.5 25q-160 0 -269.5 -113t-109.5 -283q0 -155 88 -245.5t244 -90.5q85 0 163 23l7 -47q-78 -23 -176 -23q-174 0 -276 101t-102 272q0 128 60 231.5t159.5 160t215.5 56.5q173 0 266.5 -97t93.5 -234zM593 476q-27 7 -72 7q-52 0 -89.5 -37.5 t-52.5 -84.5t-15 -94q0 -89 54 -89q48 0 94.5 62.5t68.5 174.5z" />
<glyph unicode="A" horiz-adv-x="605" d="M587 0h-63l-64 177h-319l-65 -177h-58l257 675h57zM444 221l-112 305q-18 49 -31 90h-1q-12 -37 -30 -88l-113 -307h287z" />
<glyph unicode="B" horiz-adv-x="560" d="M499 196q0 -23 -5 -46t-21 -51.5t-42 -50t-73.5 -36.5t-109.5 -15q-10 0 -148 3v675q16 0 71 1t100 1q104 0 155 -41.5t51 -115.5q0 -57 -34.5 -101t-95.5 -63v-1q77 -10 114.5 -54.5t37.5 -104.5zM422 511q0 58 -35.5 90.5t-125.5 32.5q-43 0 -107 -2v-260q23 -1 70 -1 q98 0 148 36t50 104zM444 193q0 136 -221 136q-51 0 -69 -1v-281q40 -6 101 -6q96 0 142.5 41.5t46.5 110.5z" />
<glyph unicode="C" horiz-adv-x="600" d="M551 33q-92 -40 -196 -40q-147 0 -224 86t-77 246t79 258.5t244 98.5q86 0 164 -23l-11 -50q-85 29 -168 29q-127 0 -188.5 -85.5t-61.5 -218.5q0 -142 65 -218t195 -76q91 0 167 39z" />
<glyph unicode="D" horiz-adv-x="689" d="M635 342q0 -168 -104.5 -256.5t-277.5 -88.5q-32 0 -82 2q-33 1 -54 1h-17v675q24 0 88 1.5t97 1.5q170 0 260 -84t90 -252zM579 339q0 148 -77 222t-225 74q-33 0 -123 -3v-584q56 -7 108 -7q147 0 232 74.5t85 223.5z" />
<glyph unicode="E" horiz-adv-x="510" d="M428 0h-328v675h328v-43h-274v-262h261v-43h-261v-283h274v-44z" />
<glyph unicode="F" horiz-adv-x="472" d="M428 632h-274v-262h259v-43h-259v-327h-54v675h328v-43z" />
<glyph unicode="G" horiz-adv-x="689" d="M595 28q-102 -36 -215 -36q-149 0 -239.5 89t-90.5 245q0 155 95 256t256 101q88 0 183 -29l-14 -49q-86 34 -177 34q-119 0 -202.5 -78t-83.5 -225q0 -142 77.5 -220.5t205.5 -78.5q80 0 151 23v274h54v-306z" />
<glyph unicode="H" horiz-adv-x="709" d="M609 0h-54v329h-401v-329h-54v675h54v-302h401v302h54v-675z" />
<glyph unicode="I" horiz-adv-x="254" d="M154 0h-54v675h54v-675z" />
<glyph unicode="J" horiz-adv-x="324" d="M224 164q0 -87 -37.5 -128.5t-118.5 -41.5q-29 0 -67 8v51q39 -13 76 -13q48 0 70.5 27.5t22.5 102.5v505h54v-511z" />
<glyph unicode="K" horiz-adv-x="572" d="M550 0h-79l-317 345v-345h-54v675h54v-330l317 330h69l-322 -327z" />
<glyph unicode="L" horiz-adv-x="424" d="M418 0h-318v675h54v-631h264v-44z" />
<glyph unicode="M" horiz-adv-x="897" d="M832 0h-58l-65 455q-14 100 -21 172h-2q-12 -45 -31 -100l-180 -527h-69l-170 495q-21 60 -42 132h-1q-4 -64 -18 -178l-53 -449h-57l93 675h74l171 -501q23 -67 39 -127h1q21 72 37 118l175 510h79z" />
<glyph unicode="N" horiz-adv-x="716" d="M616 0h-74l-315 492q-49 77 -80 135q7 -196 7 -434v-193h-54v675h74l312 -486q41 -63 83 -138q-7 231 -7 449v175h54v-675z" />
<glyph unicode="O" horiz-adv-x="706" d="M656 344q0 -164 -89 -258t-222 -94q-145 0 -220 91t-75 248q0 165 89 258.5t222 93.5q139 0 217 -90t78 -249zM598 332q0 145 -65 225.5t-180 80.5q-103 0 -174 -79.5t-71 -214.5q0 -140 63 -223t182 -83q102 0 173.5 79.5t71.5 214.5z" />
<glyph unicode="P" horiz-adv-x="517" d="M476 492q0 -97 -74 -157t-183 -60q-35 0 -65 3v-278h-54v675q68 3 150 3q107 0 166.5 -51.5t59.5 -134.5zM419 481q0 152 -182 152q-59 0 -83 -2v-306q35 -5 71 -5q91 1 142.5 44.5t51.5 116.5z" />
<glyph unicode="Q" horiz-adv-x="705" d="M656 344q0 -164 -89 -258t-222 -94q-145 0 -220 91t-75 248q0 165 89 258.5t222 93.5q139 0 217 -90t78 -249zM705 -168q-27 -4 -54 -4q-40 0 -79 8q-64 14 -122 28q-37 8 -72 8q-20 0 -40 -3v50q19 3 41 3q62 0 143 -21q83 -21 145 -21q20 0 38 2v-50zM598 332 q0 145 -65 225.5t-180 80.5q-103 0 -174 -79.5t-71 -214.5q0 -140 63 -223t182 -83q102 0 173.5 79.5t71.5 214.5z" />
<glyph unicode="R" horiz-adv-x="540" d="M500 0h-73l-260 325h-13v-325h-54v675q58 3 144 3q97 0 155.5 -38.5t58.5 -123.5q0 -91 -66.5 -141.5t-162.5 -50.5l62 -69zM402 505q0 71 -44 100.5t-132 29.5q-38 0 -72 -3v-263q24 -2 68 -2q84 0 132 38.5t48 99.5z" />
<glyph unicode="S" horiz-adv-x="504" d="M443 189q0 -88 -65 -142.5t-174 -54.5q-76 0 -141 20l10 53q66 -25 136 -25q78 0 128.5 34.5t50.5 107.5q0 35 -18 61t-47 42t-64 30l-69 29q-35 15 -64 34t-47 51t-18 74q0 79 57.5 129.5t160.5 50.5q63 0 121 -13l-8 -50q-59 18 -117 18q-79 0 -119.5 -34.5 t-40.5 -94.5q0 -47 34 -77.5t82 -48.5t96 -38t82 -59t34 -97z" />
<glyph unicode="T" horiz-adv-x="522" d="M502 631h-214v-631h-54v631h-214v44h482v-44z" />
<glyph unicode="U" horiz-adv-x="704" d="M604 254q0 -128 -65.5 -195t-194.5 -67q-74 0 -125 19.5t-75.5 54.5t-34 71.5t-9.5 82.5v455h54v-448q0 -88 42.5 -139.5t152.5 -51.5q103 0 152.5 49t49.5 163v427h53v-421z" />
<glyph unicode="V" horiz-adv-x="607" d="M587 675l-260 -675h-57l-252 675h63l170 -472q28 -77 49 -145h1q18 61 52 150l177 467h57z" />
<glyph unicode="W" horiz-adv-x="953" d="M909 675l-183 -675h-69l-157 534q-19 65 -25 95h-1q-9 -45 -24 -97l-152 -532h-70l-184 675h58l135 -505q20 -76 29 -123h1q14 70 28 117l146 511h71l154 -520q17 -57 27 -108h1q7 35 21 91l141 537h53z" />
<glyph unicode="X" horiz-adv-x="570" d="M546 0h-67l-198 309l-196 -309h-61l228 350l-214 325h63l181 -281l179 281h61l-210 -319z" />
<glyph unicode="Y" horiz-adv-x="513" d="M497 675l-216 -428v-247h-54v247l-211 428h60l125 -260q27 -55 55 -123h1q21 53 61 133l122 250h57z" />
<glyph unicode="Z" horiz-adv-x="541" d="M496 0h-449v37l322 494q40 61 67 98q-82 -2 -173 -2h-204v48h434v-37l-339 -520l-48 -72q25 3 190 3h200v-49z" />
<glyph unicode="[" horiz-adv-x="316" d="M276 -193h-176v959h176v-39h-127v-880h127v-40z" />
<glyph unicode="\" horiz-adv-x="405" d="M414 -161h-48l-350 918h48z" />
<glyph unicode="]" horiz-adv-x="316" d="M216 -193h-176v40h127v880h-127v39h176v-959z" />
<glyph unicode="^" d="M461 371l-42 -22l-157 282l-150 -282l-39 21l167 305h47z" />
<glyph unicode="_" d="M550 -252h-550v41h550v-41z" />
<glyph unicode="`" horiz-adv-x="365" d="M255 608l-30 -27l-120 119l39 34z" />
<glyph unicode="a" horiz-adv-x="518" d="M419 0h-55q0 77 6 113l-2 1q-19 -53 -67 -87.5t-112 -34.5q-58 0 -96 34.5t-38 92.5q0 75 80 121.5t229 46.5v41q0 67 -27.5 100t-93.5 33q-80 0 -148 -39l-15 46q83 37 171 37q91 0 128.5 -42t37.5 -116v-189q0 -66 2 -158zM364 232v12q-136 0 -195 -32.5t-59 -82.5 q0 -40 25 -66t66 -26q71 0 117 59.5t46 135.5z" />
<glyph unicode="b" horiz-adv-x="558" d="M508 270q0 -133 -68 -204t-183 -71q-88 0 -157 17v718h53v-268q0 -52 -9 -89l2 -1q22 63 69.5 98t108.5 35q88 0 136 -59.5t48 -175.5zM452 266q0 93 -33.5 144.5t-100.5 51.5q-53 0 -92 -37.5t-56 -86.5t-17 -98v-188q45 -15 110 -15q90 0 139.5 56t49.5 173z" />
<glyph unicode="c" horiz-adv-x="446" d="M416 24q-69 -30 -157 -30q-211 0 -211 237q0 126 60 199t170 73q77 0 135 -24l-13 -44q-65 26 -133 26q-76 0 -119.5 -60.5t-43.5 -156.5q0 -94 36.5 -149.5t129.5 -55.5q73 0 134 28z" />
<glyph unicode="d" horiz-adv-x="556" d="M456 0h-56q0 73 10 119l-2 1q-21 -59 -68.5 -93.5t-107.5 -34.5q-91 0 -137.5 61.5t-46.5 173.5q0 133 68 204t183 71q45 0 104 -6v234h53v-730zM403 257v190q-55 13 -110 13q-90 0 -139.5 -56t-49.5 -173q0 -93 33.5 -144.5t100.5 -51.5q53 0 92 37.5t56 86.5t17 98z " />
<glyph unicode="e" horiz-adv-x="501" d="M448 308q0 -16 -1 -33h-342q-1 -12 -1 -24q0 -105 40 -155q45 -57 137 -57q77 0 140 29l12 -46q-73 -30 -164 -30q-221 0 -221 255q0 114 57 186t155 72q95 0 141.5 -56t46.5 -141zM390 318v7q0 61 -34 99q-37 40 -100 40q-58 0 -97 -39t-50 -107h281z" />
<glyph unicode="f" horiz-adv-x="345" d="M389 725l-6 -46q-41 12 -84 12q-63 0 -92.5 -38.5t-29.5 -120.5v-35h159v-42h-159v-455h-53v455h-118v42h118v33q0 102 48 153t135 51q41 0 82 -9z" />
<glyph unicode="g" horiz-adv-x="536" d="M504 -80q0 -78 -71.5 -129t-181.5 -51q-93 0 -149 39.5t-56 109.5q0 89 90 142q-23 9 -36.5 28.5t-13.5 43.5q0 51 52 79q-73 44 -73 139q0 77 55 130.5t148 53.5q23 0 60 -8h169v-42h-97q55 -42 55 -120q0 -79 -53 -130.5t-153 -51.5q-37 0 -67 10q-41 -18 -41 -52 q0 -23 22.5 -33.5t71.5 -12.5l104 -4q80 -3 122.5 -40.5t42.5 -100.5zM399 328q0 63 -35.5 98.5t-99.5 35.5q-66 0 -104.5 -38t-38.5 -97q0 -63 36 -97t102 -34q65 0 102.5 35t37.5 97zM448 -87q0 94 -124 98l-107 4q-25 0 -35 1q-81 -53 -81 -119q0 -52 45 -82t115 -30 q88 0 137.5 35.5t49.5 92.5z" />
<glyph unicode="h" horiz-adv-x="580" d="M480 0h-53v323q0 70 -24 104.5t-83 34.5q-74 0 -120.5 -63t-46.5 -162v-237h-53v730h53v-257q0 -66 -8 -98l2 -1q22 61 69.5 96t113.5 35q150 0 150 -160v-345z" />
<glyph unicode="i" horiz-adv-x="253" d="M167 660q0 -16 -11.5 -28t-28.5 -12t-28.5 11.5t-11.5 28.5q0 16 11.5 28t28.5 12t28.5 -11.5t11.5 -28.5zM153 0h-53v497h53v-497z" />
<glyph unicode="j" horiz-adv-x="262" d="M176 660q0 -16 -12 -28t-28 -12q-17 0 -28.5 11.5t-11.5 28.5q0 16 12 28t28 12q17 0 28.5 -11.5t11.5 -28.5zM162 -73q0 -101 -33 -144t-118 -43q-37 0 -66 9l7 49q33 -12 66 -12q55 0 73 28t18 111v572h53v-570z" />
<glyph unicode="k" horiz-adv-x="465" d="M438 0h-72l-213 267v-267h-53v730h53v-462l204 229h64l-207 -226z" />
<glyph unicode="l" horiz-adv-x="253" d="M153 0h-53v730h53v-730z" />
<glyph unicode="m" horiz-adv-x="891" d="M100 0v497h55q0 -72 -9 -120l2 -1q21 59 69 94t111 35q35 0 61.5 -10t41 -24.5t23.5 -33t11.5 -33t1.5 -26.5q17 47 61.5 87t116.5 40q146 0 146 -160v-345h-53v323q0 69 -22 104t-80 35q-67 0 -115.5 -62t-48.5 -165v-235h-53v324q0 66 -21 102t-81 36q-70 0 -117 -64 t-47 -163v-235h-53z" />
<glyph unicode="n" horiz-adv-x="580" d="M480 0h-53v323q0 70 -24 104.5t-83 34.5q-74 0 -120.5 -63t-46.5 -162v-237h-53v497h55q0 -72 -9 -120l2 -1q21 60 68.5 94.5t113.5 34.5q150 0 150 -160v-345z" />
<glyph unicode="o" horiz-adv-x="538" d="M490 256q0 -112 -62.5 -188t-168.5 -76q-100 0 -156.5 64.5t-56.5 191.5q0 108 61.5 182.5t168.5 74.5q94 0 154 -59t60 -190zM435 253q0 99 -42.5 154t-123.5 55q-70 0 -119 -54t-49 -156q0 -103 44.5 -159.5t124.5 -56.5q70 0 117.5 54.5t47.5 162.5z" />
<glyph unicode="p" horiz-adv-x="558" d="M508 270q0 -133 -68 -204t-183 -71q-60 0 -104 7v-254h-53v749h56q0 -75 -10 -119l2 -1q21 59 68.5 93.5t107.5 34.5q88 0 136 -59.5t48 -175.5zM452 266q0 93 -33.5 144.5t-100.5 51.5q-53 0 -92 -37.5t-56 -86.5t-17 -98v-188q45 -15 110 -15q90 0 139.5 56t49.5 173z " />
<glyph unicode="q" horiz-adv-x="558" d="M458 -252h-53v290q0 48 7 81l-2 1q-21 -59 -68.5 -93.5t-107.5 -34.5q-88 0 -136 59.5t-48 175.5q0 133 68 204.5t186 71.5q74 0 154 -13v-742zM405 257v191q-55 13 -110 13q-90 0 -139.5 -56.5t-49.5 -173.5q0 -93 33.5 -144.5t100.5 -51.5q52 0 91.5 37.5t56.5 86.5 t17 98z" />
<glyph unicode="r" horiz-adv-x="354" d="M327 504l-2 -52q-14 2 -27 2q-66 0 -102 -54q-43 -66 -43 -203v-197h-53v497h55q0 -69 -13 -135l2 -1q16 67 61 110q37 35 94 35q13 0 28 -2z" />
<glyph unicode="s" horiz-adv-x="433" d="M373 145q0 -65 -54.5 -109t-146.5 -44q-68 0 -111 13l9 53q51 -19 114 -19q59 0 97 26.5t38 70.5q0 37 -27 57.5t-65 30t-76 21t-65 41t-27 79.5q0 63 48.5 101.5t136.5 38.5q50 0 101 -12l-8 -47q-50 16 -102 16q-60 0 -91 -24t-31 -66q0 -37 27 -58t65 -31l76 -21 q38 -11 65 -40t27 -77z" />
<glyph unicode="t" horiz-adv-x="368" d="M332 3q-43 -10 -92 -10q-69 0 -95.5 33.5t-26.5 109.5v319h-118v42h118v170l53 15v-185h157v-42h-157v-289q0 -75 16.5 -100t65.5 -25q35 0 71 9z" />
<glyph unicode="u" horiz-adv-x="580" d="M480 0h-55q0 72 9 120l-2 1q-21 -60 -68.5 -94.5t-113.5 -34.5q-150 0 -150 160v345h53v-323q0 -70 24 -104.5t83 -34.5q74 0 120.5 63t46.5 162v237h53v-497z" />
<glyph unicode="v" horiz-adv-x="466" d="M453 497l-194 -497h-56l-190 497h62l131 -366q18 -53 26 -79h1q11 34 26 76l135 369h59z" />
<glyph unicode="w" horiz-adv-x="790" d="M768 497l-165 -497h-65l-125 363q-14 39 -27 88h-1q-9 -35 -37 -125l-103 -326h-68l-155 497h61l98 -340q5 -20 17 -59l15 -52h1q12 46 33 112l109 339h69l111 -339q27 -85 35 -113h1q5 18 16 53l18 59l103 340h59z" />
<glyph unicode="x" horiz-adv-x="509" d="M479 0h-73l-154 214l-154 -214h-68l194 248l-185 249h69l148 -209l152 209h63l-187 -245z" />
<glyph unicode="y" horiz-adv-x="458" d="M445 497l-209 -552q-43 -113 -91 -159t-129 -46q-24 0 -47 5l6 50q25 -7 56 -7q49 0 83 31.5t67 116.5l25 64l-193 497h63l119 -324q20 -55 38 -111h1q9 32 51 149l101 286h59z" />
<glyph unicode="z" horiz-adv-x="444" d="M389 0h-339v37l276 415q-74 -2 -156 -2h-115v47h329v-36l-274 -414q66 2 157 2h122v-49z" />
<glyph unicode="{" horiz-adv-x="321" d="M288 -193h-15q-71 0 -101 42.5t-30 125.5v214q0 57 -23.5 80.5t-87.5 27.5v46q66 4 88.5 26.5t22.5 81.5v147q0 168 131 168h15v-39q-54 0 -75.5 -28t-21.5 -97v-146q0 -116 -94 -135v-1q47 -7 70.5 -43.5t23.5 -92.5v-213q0 -69 21.5 -96.5t75.5 -27.5v-40z" />
<glyph unicode="|" horiz-adv-x="282" d="M162 -252h-42v1000h42v-1000z" />
<glyph unicode="}" horiz-adv-x="316" d="M298 297q-64 -4 -87.5 -27.5t-23.5 -80.5v-214q0 -83 -30 -125.5t-101 -42.5h-15v40q54 0 75.5 27.5t21.5 96.5v213q0 56 23.5 92.5t70.5 43.5v1q-94 13 -94 130v151q0 69 -21.5 97t-75.5 28v39h15q131 0 131 -168v-142q0 -63 22 -86t89 -27v-46z" />
<glyph unicode="~" d="M486 563q0 -59 -32 -96.5t-85 -37.5q-30 0 -53 12t-37.5 29t-27.5 34t-31 29t-41 12q-36 0 -54 -27t-19 -70h-40v2q0 59 32 96.5t85 37.5q30 0 53 -12t37.5 -29t27.5 -34t31 -29t41 -12q36 0 54 27t19 70h40v-2z" />
<glyph unicode="&#xa1;" horiz-adv-x="318" d="M192 461q0 -18 -12.5 -30.5t-30.5 -12.5t-30.5 12.5t-12.5 30.5t12.5 30.5t30.5 12.5t30.5 -12.5t12.5 -30.5zM181 -201h-64l11 549h42z" />
<glyph unicode="&#xa2;" d="M465 143q-62 -30 -132 -36v-107h-45v107q-97 4 -150 60t-53 164q0 96 54 155t149 71v93h45v-91q65 -2 124 -26l-9 -47q-63 29 -127 29q-86 0 -133.5 -46.5t-47.5 -135.5q0 -180 177 -180q76 0 134 34z" />
<glyph unicode="&#xa3;" d="M471 0h-393v38q55 50 81 88.5t26 81.5q0 34 -9 92h-116v42h109q-15 82 -15 134q0 182 175 182q63 0 116 -18l-13 -46q-60 21 -110 21q-115 0 -115 -130q0 -43 17 -143h167v-42h-161q8 -48 8 -86q0 -50 -22 -88t-71 -80q44 2 87 2h239v-48z" />
<glyph unicode="&#xa4;" d="M488 101l-35 -29l-84 113q-43 -31 -101 -31q-47 0 -81 17l-74 -99l-36 28l77 94q-45 48 -45 137q0 80 50 128l-82 100l35 28l77 -105q37 23 91 23q57 0 95 -23l80 105l33 -28l-84 -104q37 -42 37 -121q0 -75 -43 -123zM390 334q0 58 -28.5 93.5t-90.5 35.5q-49 0 -80 -36 t-31 -95q0 -136 118 -136q46 0 79 38.5t33 99.5z" />
<glyph unicode="&#xa5;" d="M504 650l-191 -377h161v-41h-174v-81h174v-41h-174v-110h-54v110h-174v41h174v81h-174v41h161l-186 377h60l113 -235q25 -52 54 -127h1q25 64 61 137l111 225h57z" />
<glyph unicode="&#xa6;" horiz-adv-x="282" d="M162 380h-42v368h42v-368zM162 -252h-42v378h42v-378z" />
<glyph unicode="&#xa7;" horiz-adv-x="510" d="M410 223q0 -79 -80 -138q40 -55 40 -104q0 -60 -41.5 -101.5t-112.5 -41.5q-38 0 -75 11l6 46q42 -13 74 -13q44 0 69.5 25.5t25.5 66.5q0 33 -24 69.5t-58 70.5l-68 71q-33 36 -57 80t-24 87q0 77 80 139q-40 55 -40 104q0 60 39.5 99.5t110.5 39.5q37 0 69 -9l-6 -46 q-36 11 -68 11q-44 0 -67.5 -23.5t-23.5 -64.5q0 -33 24 -70t57 -72l68 -70q34 -36 58 -80t24 -87zM356 216q0 31 -17.5 65t-36 56t-57 62.5t-52.5 56.5q-54 -37 -54 -97q0 -31 18 -65t36.5 -56t57 -62t52.5 -56q53 36 53 96z" />
<glyph unicode="&#xa8;" horiz-adv-x="546" d="M395 660q0 -16 -11.5 -27.5t-27.5 -11.5t-27.5 11.5t-11.5 27.5t11.5 27.5t27.5 11.5t27.5 -11.5t11.5 -27.5zM213 660q0 -16 -11.5 -27.5t-27.5 -11.5t-27.5 11.5t-11.5 27.5t11.5 27.5t27.5 11.5t27.5 -11.5t11.5 -27.5z" />
<glyph unicode="&#xa9;" horiz-adv-x="750" d="M702 337q0 -137 -96 -233t-233 -96q-141 0 -235.5 94.5t-94.5 232.5q0 137 96.5 233t233.5 96t233 -95t96 -232zM656 335q0 117 -83 201.5t-200 84.5q-118 0 -200.5 -83t-82.5 -201t83 -202.5t200 -84.5q118 0 200.5 83t82.5 202zM470 174q-44 -15 -96 -15 q-156 0 -156 171q0 79 41.5 131.5t131.5 52.5q36 0 76 -11l-3 -44q-38 16 -80 16q-115 0 -115 -141q0 -134 111 -134q46 0 87 15z" />
<glyph unicode="&#xaa;" horiz-adv-x="374" d="M299 361h-52q0 29 6 57l-2 1q-9 -24 -38.5 -44t-62.5 -20q-46 0 -69.5 20.5t-23.5 55.5q0 51 49.5 83t143.5 32v21q0 73 -71 73q-54 0 -101 -26l-3 47q46 20 111 20q60 0 86.5 -30t26.5 -76q0 -32 -0.5 -76t-0.5 -49v-47q0 -20 0.5 -30t0.5 -12zM330 246h-266v43h266v-43 zM250 501v8q-142 0 -142 -69q0 -20 13 -31.5t36 -11.5q45 0 69 36t24 68z" />
<glyph unicode="&#xab;" horiz-adv-x="485" d="M398 155l-38 -26l-126 165l127 168l37 -25l-107 -142zM222 155l-38 -26l-118 165l119 168l37 -25l-99 -142z" />
<glyph unicode="&#xac;" d="M475 111h-45v164h-385v45h430v-209z" />
<glyph unicode="&#xad;" horiz-adv-x="326" d="M276 274h-226v45h226v-45z" />
<glyph unicode="&#xae;" horiz-adv-x="561" d="M487 527q0 -84 -61.5 -145.5t-145.5 -61.5q-88 0 -147.5 60t-59.5 147q0 85 60.5 146t146.5 61q88 0 147.5 -59.5t59.5 -147.5zM444 525q0 69 -48 119t-116 50t-116 -48.5t-48 -116.5q0 -69 48 -119t116 -50t116 48.5t48 116.5zM368 412h-47l-68 105h-2v-105h-37v233h66 q77 0 77 -58q0 -29 -17 -47t-46 -21q8 -9 23 -33zM319 582q0 33 -41 33h-27v-74h17q27 0 39 12t12 29z" />
<glyph unicode="&#xaf;" horiz-adv-x="395" d="M315 633h-235v42h235v-42z" />
<glyph unicode="&#xb0;" horiz-adv-x="364" d="M299 618q0 -50 -36.5 -82.5t-84.5 -32.5q-52 0 -83 31t-31 82q0 53 35.5 85t83.5 32q55 0 85.5 -33t30.5 -82zM252 617q0 31 -16.5 54.5t-55.5 23.5q-29 0 -49 -21.5t-20 -55.5q0 -36 19 -56.5t50 -20.5t51.5 21.5t20.5 54.5z" />
<glyph unicode="&#xb1;" d="M505 325h-205v-209h-50v209h-205v45h205v208h50v-208h205v-45zM505 0h-460v45h460v-45z" />
<glyph unicode="&#xb2;" horiz-adv-x="312" d="M255 359h-206v33l89 81q32 29 43 47.5t11 41.5t-16 38.5t-44 15.5q-34 0 -57 -21l-22 37q42 25 87 25q50 0 76.5 -25.5t26.5 -61.5q0 -59 -62 -113l-62 -54h136v-44z" />
<glyph unicode="&#xb3;" horiz-adv-x="300" d="M237 444q0 -45 -35.5 -68.5t-93.5 -23.5q-29 0 -57 7l9 42q32 -8 55 -8q70 0 70 48q0 32 -25 42q-16 7 -48 7q-16 0 -36 -2v37h28q74 0 74 49q0 19 -14 31.5t-42 12.5q-24 0 -52 -12l-15 35q32 16 77 16q46 0 70 -21.5t24 -53.5q0 -47 -46 -69q28 -4 42.5 -23t14.5 -46z " />
<glyph unicode="&#xb4;" horiz-adv-x="384" d="M255 700l-120 -119l-30 27l111 126z" />
<glyph unicode="&#xb5;" horiz-adv-x="623" d="M593 69q-10 -33 -37 -55t-63 -22q-42 0 -57 36q-7 20 -7 44q0 19 5 42h-1q-19 -54 -66.5 -88t-106.5 -34q-73 0 -112 37l8 -281h-56v749h53v-314q0 -72 26 -109.5t91 -37.5q66 0 111.5 59t45.5 140v262h53v-367q0 -51 7.5 -69t25.5 -18q15 0 27.5 12.5t18.5 29.5z" />
<glyph unicode="&#xb6;" horiz-adv-x="558" d="M488 636h-76v-732h-130v39h76v732h130v-39zM285 264h-3q-98 0 -151 58q-54 59 -54 150q0 86 57.5 144.5t150.5 58.5v-411z" />
<glyph unicode="&#xb7;" horiz-adv-x="200" d="M146 297q0 -19 -13 -32.5t-33 -13.5t-33 13.5t-13 32.5t13 32.5t33 13.5t33 -13.5t13 -32.5z" />
<glyph unicode="&#xb8;" horiz-adv-x="400" d="M261 -41q24 -31 29 -63q1 -8 1 -16q0 -24 -10 -47q-13 -31 -43 -69h-50q30 38 42 64q9 19 9 39q0 6 -1 13q-4 25 -27 53z" />
<glyph unicode="&#xb9;" horiz-adv-x="300" d="M187 359h-49v245l-74 -36l-15 39l95 43h43v-291z" />
<glyph unicode="&#xba;" horiz-adv-x="413" d="M351 524q0 -75 -43 -121.5t-112 -46.5q-140 0 -140 165q0 69 42 115t109 46q26 0 48.5 -6.5t45.5 -22.5t36.5 -49t13.5 -80zM337 246h-266v43h266v-43zM295 525q0 47 -21 80t-69 33q-39 0 -66 -29t-27 -88q0 -120 89 -120q43 0 68.5 31.5t25.5 92.5z" />
<glyph unicode="&#xbb;" horiz-adv-x="485" d="M419 297l-120 -168l-37 25l100 142l-98 140l38 26zM251 297l-128 -168l-37 25l108 142l-106 140l38 26z" />
<glyph unicode="&#xbc;" horiz-adv-x="690" d="M521 102v151l-96 -151h96zM626 62h-57v-62h-48v62h-147l-2 35l123 194h74v-189h57v-40zM586 642l-493 -661l-37 25l493 661zM187 359h-49v245l-74 -36l-15 39l95 43h43v-291z" />
<glyph unicode="&#xbd;" horiz-adv-x="696" d="M622 0h-206v33l89 81q32 29 43 47.5t11 41.5t-16 38.5t-44 15.5q-34 0 -57 -21l-22 37q42 25 87 25q50 0 76.5 -25.5t26.5 -61.5q0 -59 -62 -113l-62 -54h136v-44zM586 642l-493 -661l-37 25l493 661zM187 359h-49v245l-74 -36l-15 39l95 43h43v-291z" />
<glyph unicode="&#xbe;" horiz-adv-x="688" d="M519 102v151l-96 -151h96zM624 62h-57v-62h-48v62h-147l-2 35l123 194h74v-189h57v-40zM584 642l-493 -661l-37 25l493 661zM237 444q0 -45 -35.5 -69t-93.5 -24q-29 0 -57 7l9 42q32 -8 55 -8q70 0 70 49q0 32 -25 42q-16 7 -48 7q-16 0 -36 -2v37h28q74 0 74 49 q0 19 -14 31.5t-42 12.5q-24 0 -52 -12l-15 35q32 16 77 16q46 0 70 -21.5t24 -53.5q0 -47 -46 -69q28 -4 42.5 -23t14.5 -46z" />
<glyph unicode="&#xbf;" horiz-adv-x="440" d="M293 461q0 -18 -12.5 -30.5t-30.5 -12.5t-30.5 12.5t-12.5 30.5t12.5 30.5t30.5 12.5t30.5 -12.5t12.5 -30.5zM340 -157l-7 -49q-113 5 -186.5 58t-73.5 125q0 38 15.5 70t37.5 53t45.5 46t40.5 49.5t22 64.5q1 9 1 20q0 31 -11 68h52q12 -38 12 -71v-19 q-5 -40 -21 -66.5t-39 -52.5t-44.5 -46.5t-36.5 -49.5t-15 -60q0 -55 58 -95.5t150 -44.5z" />
<glyph unicode="&#xc0;" horiz-adv-x="605" d="M587 0h-63l-64 177h-319l-65 -177h-58l257 675h57zM444 221l-112 305q-18 49 -31 90h-1q-12 -37 -30 -88l-113 -307h287zM350 768l-14 -34l-165 59l22 48z" />
<glyph unicode="&#xc1;" horiz-adv-x="605" d="M587 0h-63l-64 177h-319l-65 -177h-58l257 675h57zM444 221l-112 305q-18 49 -31 90h-1q-12 -37 -30 -88l-113 -307h287zM430 793l-165 -59l-14 34l157 73z" />
<glyph unicode="&#xc2;" horiz-adv-x="605" d="M587 0h-63l-64 177h-319l-65 -177h-58l257 675h57zM444 221l-112 305q-18 49 -31 90h-1q-12 -37 -30 -88l-113 -307h287zM453 770l-22 -38l-134 66l-128 -66l-19 35l150 83z" />
<glyph unicode="&#xc3;" horiz-adv-x="605" d="M587 0h-63l-64 177h-319l-65 -177h-58l257 675h57zM444 221l-112 305q-18 49 -31 90h-1q-12 -37 -30 -88l-113 -307h287zM472 807q-38 -65 -99 -65q-36 0 -76 28.5t-61 28.5q-38 0 -67 -47l-30 23q36 65 99 65q36 0 76 -28.5t61 -28.5q37 0 67 47z" />
<glyph unicode="&#xc4;" horiz-adv-x="605" d="M587 0h-63l-64 177h-319l-65 -177h-58l257 675h57zM444 221l-112 305q-18 49 -31 90h-1q-12 -37 -30 -88l-113 -307h287zM447 776q0 -16 -11.5 -27.5t-27.5 -11.5t-27.5 11.5t-11.5 27.5t11.5 27.5t27.5 11.5t27.5 -11.5t11.5 -27.5zM235 776q0 -16 -11.5 -27.5 t-27.5 -11.5t-27.5 11.5t-11.5 27.5t11.5 27.5t27.5 11.5t27.5 -11.5t11.5 -27.5z" />
<glyph unicode="&#xc5;" horiz-adv-x="605" d="M587 0h-63l-64 177h-319l-65 -177h-58l247 649q-27 11 -43.5 34.5t-16.5 55.5q0 41 29.5 69.5t70.5 28.5q43 0 71.5 -28.5t28.5 -69.5q0 -30 -17.5 -55t-45.5 -36zM363 739q0 25 -16.5 42.5t-41.5 17.5t-41.5 -17.5t-16.5 -42.5t16.5 -42.5t41.5 -17.5t41.5 17.5 t16.5 42.5zM444 221l-112 305q-7 14 -12.5 29t-11.5 35l-7 26h-1q-12 -37 -30 -88l-113 -307h287z" />
<glyph unicode="&#xc6;" horiz-adv-x="776" d="M694 0h-333v177h-251l-98 -177h-59l382 675h347v-43h-267v-262h257v-43h-257v-283h279v-44zM361 221v408h-3q-32 -64 -70 -132l-154 -276h227z" />
<glyph unicode="&#xc7;" horiz-adv-x="600" d="M551 33q-92 -40 -196 -40q-147 0 -224 86t-77 246t79 258.5t244 98.5q86 0 164 -23l-11 -50q-85 29 -168 29q-127 0 -188.5 -85.5t-61.5 -218.5q0 -142 65 -218t195 -76q91 0 167 39zM353 -41q24 -31 29 -63q1 -8 1 -16q0 -24 -10 -47q-13 -31 -43 -69h-50q30 38 42 64 q9 19 9 39q0 6 -1 13q-4 25 -27 53z" />
<glyph unicode="&#xc8;" horiz-adv-x="510" d="M428 0h-328v675h328v-43h-274v-262h261v-43h-261v-283h274v-44zM314 768l-14 -34l-165 59l22 48z" />
<glyph unicode="&#xc9;" horiz-adv-x="510" d="M428 0h-328v675h328v-43h-274v-262h261v-43h-261v-283h274v-44zM387 793l-165 -59l-14 34l157 73z" />
<glyph unicode="&#xca;" horiz-adv-x="510" d="M428 0h-328v675h328v-43h-274v-262h261v-43h-261v-283h274v-44zM412 770l-22 -38l-134 66l-128 -66l-19 35l150 83z" />
<glyph unicode="&#xcb;" horiz-adv-x="510" d="M428 0h-328v675h328v-43h-274v-262h261v-43h-261v-283h274v-44zM402 776q0 -16 -11 -27.5t-28 -11.5t-28 11.5t-11 27.5t11 27.5t28 11.5t28 -11.5t11 -27.5zM190 776q0 -16 -11 -27.5t-28 -11.5t-28 11.5t-11 27.5t11 27.5t28 11.5t28 -11.5t11 -27.5z" />
<glyph unicode="&#xcc;" horiz-adv-x="254" d="M154 0h-54v675h54v-675zM173 768l-14 -34l-165 59l22 48z" />
<glyph unicode="&#xcd;" horiz-adv-x="254" d="M154 0h-54v675h54v-675zM263 793l-165 -59l-14 34l157 73z" />
<glyph unicode="&#xce;" horiz-adv-x="254" d="M154 0h-54v675h54v-675zM280 770l-22 -38l-134 66l-128 -66l-19 35l150 83z" />
<glyph unicode="&#xcf;" horiz-adv-x="254" d="M154 0h-54v675h54v-675zM272 776q0 -16 -11 -27.5t-28 -11.5t-28 11.5t-11 27.5t11 27.5t28 11.5t28 -11.5t11 -27.5zM60 776q0 -16 -11 -27.5t-28 -11.5t-28 11.5t-11 27.5t11 27.5t28 11.5t28 -11.5t11 -27.5z" />
<glyph unicode="&#xd0;" horiz-adv-x="700" d="M646 341q0 -168 -104.5 -256t-277.5 -88q-32 0 -82 2q-33 1 -54 1h-17v329h-111v42h111v304q25 0 88 1.5t97 1.5q170 0 260 -84.5t90 -252.5zM590 338q0 148 -77 222.5t-225 74.5q-33 0 -123 -3v-261h160v-42h-160v-283q35 -5 108 -5q147 0 232 74t85 223z" />
<glyph unicode="&#xd1;" horiz-adv-x="716" d="M616 0h-74l-315 492q-49 77 -80 135q7 -196 7 -434v-193h-54v675h74l312 -486q41 -63 83 -138q-7 231 -7 449v175h54v-675zM517 807q-38 -65 -99 -65q-36 0 -76 28.5t-61 28.5q-38 0 -67 -47l-30 23q36 65 99 65q36 0 76 -28.5t61 -28.5q37 0 67 47z" />
<glyph unicode="&#xd2;" horiz-adv-x="706" d="M656 344q0 -164 -89 -258t-222 -94q-145 0 -220 91t-75 248q0 165 89 258.5t222 93.5q139 0 217 -90t78 -249zM598 332q0 145 -65 225.5t-180 80.5q-103 0 -174 -79.5t-71 -214.5q0 -140 63 -223t182 -83q102 0 173.5 79.5t71.5 214.5zM401 768l-14 -34l-165 59l22 48z " />
<glyph unicode="&#xd3;" horiz-adv-x="706" d="M656 344q0 -164 -89 -258t-222 -94q-145 0 -220 91t-75 248q0 165 89 258.5t222 93.5q139 0 217 -90t78 -249zM598 332q0 145 -65 225.5t-180 80.5q-103 0 -174 -79.5t-71 -214.5q0 -140 63 -223t182 -83q102 0 173.5 79.5t71.5 214.5zM488 793l-165 -59l-14 34l157 73z " />
<glyph unicode="&#xd4;" horiz-adv-x="706" d="M656 344q0 -164 -89 -258t-222 -94q-145 0 -220 91t-75 248q0 165 89 258.5t222 93.5q139 0 217 -90t78 -249zM598 332q0 145 -65 225.5t-180 80.5q-103 0 -174 -79.5t-71 -214.5q0 -140 63 -223t182 -83q102 0 173.5 79.5t71.5 214.5zM510 770l-22 -38l-134 66l-128 -66 l-19 35l150 83z" />
<glyph unicode="&#xd5;" horiz-adv-x="706" d="M656 344q0 -164 -89 -258t-222 -94q-145 0 -220 91t-75 248q0 165 89 258.5t222 93.5q139 0 217 -90t78 -249zM598 332q0 145 -65 225.5t-180 80.5q-103 0 -174 -79.5t-71 -214.5q0 -140 63 -223t182 -83q102 0 173.5 79.5t71.5 214.5zM518 807q-38 -65 -99 -65 q-36 0 -76 28.5t-61 28.5q-38 0 -67 -47l-30 23q36 65 99 65q36 0 76 -28.5t61 -28.5q37 0 67 47z" />
<glyph unicode="&#xd6;" horiz-adv-x="706" d="M656 344q0 -164 -89 -258t-222 -94q-145 0 -220 91t-75 248q0 165 89 258.5t222 93.5q139 0 217 -90t78 -249zM598 332q0 145 -65 225.5t-180 80.5q-103 0 -174 -79.5t-71 -214.5q0 -140 63 -223t182 -83q102 0 173.5 79.5t71.5 214.5zM493 776q0 -16 -11.5 -27.5 t-27.5 -11.5t-27.5 11.5t-11.5 27.5t11.5 27.5t27.5 11.5t27.5 -11.5t11.5 -27.5zM281 776q0 -16 -11.5 -27.5t-27.5 -11.5t-27.5 11.5t-11.5 27.5t11.5 27.5t27.5 11.5t27.5 -11.5t11.5 -27.5z" />
<glyph unicode="&#xd7;" d="M487 117l-32 -32l-181 181l-181 -181l-30 30l181 181l-181 181l32 32l181 -181l181 181l30 -30l-181 -181z" />
<glyph unicode="&#xd8;" horiz-adv-x="706" d="M656 340q0 -165 -88 -256.5t-227 -91.5q-52 0 -94 12l-40 -106l-43 16l40 106q-154 74 -154 313q0 164 88.5 257t221.5 93q44 0 89 -10l37 99l43 -16l-37 -98q79 -34 121.5 -115.5t42.5 -202.5zM598 330q0 101 -32 173.5t-93 105.5l-209 -559q36 -12 83 -12 q112 0 181.5 77.5t69.5 214.5zM432 627q-38 11 -79 11q-103 0 -174 -79.5t-71 -217.5q0 -202 114 -272z" />
<glyph unicode="&#xd9;" horiz-adv-x="704" d="M604 254q0 -128 -65.5 -195t-194.5 -67q-74 0 -125 19.5t-75.5 54.5t-34 71.5t-9.5 82.5v455h54v-448q0 -88 42.5 -139.5t152.5 -51.5q103 0 152.5 49t49.5 163v427h53v-421zM408 768l-14 -34l-165 59l22 48z" />
<glyph unicode="&#xda;" horiz-adv-x="704" d="M604 254q0 -128 -65.5 -195t-194.5 -67q-74 0 -125 19.5t-75.5 54.5t-34 71.5t-9.5 82.5v455h54v-448q0 -88 42.5 -139.5t152.5 -51.5q103 0 152.5 49t49.5 163v427h53v-421zM473 793l-165 -59l-14 34l157 73z" />
<glyph unicode="&#xdb;" horiz-adv-x="704" d="M604 254q0 -128 -65.5 -195t-194.5 -67q-74 0 -125 19.5t-75.5 54.5t-34 71.5t-9.5 82.5v455h54v-448q0 -88 42.5 -139.5t152.5 -51.5q103 0 152.5 49t49.5 163v427h53v-421zM503 770l-22 -38l-134 66l-128 -66l-19 35l150 83z" />
<glyph unicode="&#xdc;" horiz-adv-x="704" d="M604 254q0 -128 -65.5 -195t-194.5 -67q-74 0 -125 19.5t-75.5 54.5t-34 71.5t-9.5 82.5v455h54v-448q0 -88 42.5 -139.5t152.5 -51.5q103 0 152.5 49t49.5 163v427h53v-421zM491 776q0 -16 -11.5 -27.5t-27.5 -11.5t-27.5 11.5t-11.5 27.5t11.5 27.5t27.5 11.5 t27.5 -11.5t11.5 -27.5zM279 776q0 -16 -11.5 -27.5t-27.5 -11.5t-27.5 11.5t-11.5 27.5t11.5 27.5t27.5 11.5t27.5 -11.5t11.5 -27.5z" />
<glyph unicode="&#xdd;" horiz-adv-x="513" d="M497 675l-216 -428v-247h-54v247l-211 428h60l125 -260q27 -55 55 -123h1q21 53 61 133l122 250h57zM398 793l-165 -59l-14 34l157 73z" />
<glyph unicode="&#xde;" horiz-adv-x="517" d="M495 369q0 -103 -76 -163.5t-194 -60.5q-42 0 -71 4v-149h-54v675h54v-110q48 3 94 3q117 0 182 -51.5t65 -147.5zM439 363q0 160 -206 160q-40 0 -79 -6v-322q38 -5 80 -5q98 0 151.5 45t53.5 128z" />
<glyph unicode="&#xdf;" horiz-adv-x="578" d="M529 142q0 -65 -51.5 -107.5t-140.5 -42.5q-52 0 -92 8l6 53q44 -14 92 -14q65 0 98.5 27t33.5 67q0 34 -22 59t-53.5 41t-63.5 34t-54 49.5t-22 75.5q0 34 16 59t39 40l46 29q23 15 39 35.5t16 48.5q0 43 -31 65t-83 22q-74 0 -111.5 -43t-37.5 -138v-510h-53v505 q0 121 56 175t152 54q78 0 119.5 -35t41.5 -88q0 -39 -16 -66.5t-38.5 -43t-45.5 -28.5t-39 -32t-16 -45q0 -33 22 -57t54 -41l64 -34q31 -17 53 -48t22 -74z" />
<glyph unicode="&#xe0;" horiz-adv-x="518" d="M419 0h-55q0 77 6 113l-2 1q-19 -53 -67 -87.5t-112 -34.5q-58 0 -96 34.5t-38 92.5q0 75 80 121.5t229 46.5v41q0 67 -27.5 100t-93.5 33q-80 0 -148 -39l-15 46q83 37 171 37q91 0 128.5 -42t37.5 -116v-189q0 -66 2 -158zM364 232v12q-136 0 -195 -32.5t-59 -82.5 q0 -40 25 -66t66 -26q71 0 117 59.5t46 135.5zM300 608l-30 -27l-120 119l39 34z" />
<glyph unicode="&#xe1;" horiz-adv-x="518" d="M419 0h-55q0 77 6 113l-2 1q-19 -53 -67 -87.5t-112 -34.5q-58 0 -96 34.5t-38 92.5q0 75 80 121.5t229 46.5v41q0 67 -27.5 100t-93.5 33q-80 0 -148 -39l-15 46q83 37 171 37q91 0 128.5 -42t37.5 -116v-189q0 -66 2 -158zM364 232v12q-136 0 -195 -32.5t-59 -82.5 q0 -40 25 -66t66 -26q71 0 117 59.5t46 135.5zM359 700l-120 -119l-30 27l111 126z" />
<glyph unicode="&#xe2;" horiz-adv-x="518" d="M419 0h-55q0 77 6 113l-2 1q-19 -53 -67 -87.5t-112 -34.5q-58 0 -96 34.5t-38 92.5q0 75 80 121.5t229 46.5v41q0 67 -27.5 100t-93.5 33q-80 0 -148 -39l-15 46q83 37 171 37q91 0 128.5 -42t37.5 -116v-189q0 -66 2 -158zM364 232v12q-136 0 -195 -32.5t-59 -82.5 q0 -40 25 -66t66 -26q71 0 117 59.5t46 135.5zM376 609l-30 -28l-96 88l-96 -88l-28 26l126 127z" />
<glyph unicode="&#xe3;" horiz-adv-x="518" d="M419 0h-55q0 77 6 113l-2 1q-19 -53 -67 -87.5t-112 -34.5q-58 0 -96 34.5t-38 92.5q0 75 80 121.5t229 46.5v41q0 67 -27.5 100t-93.5 33q-80 0 -148 -39l-15 46q83 37 171 37q91 0 128.5 -42t37.5 -116v-189q0 -66 2 -158zM364 232v12q-136 0 -195 -32.5t-59 -82.5 q0 -40 25 -66t66 -26q71 0 117 59.5t46 135.5zM406 675q-36 -66 -97 -66q-34 0 -72.5 29t-58.5 29q-35 0 -64 -48l-29 24q36 66 97 66q34 0 72.5 -29t58.5 -29q36 0 64 48z" />
<glyph unicode="&#xe4;" horiz-adv-x="518" d="M419 0h-55q0 77 6 113l-2 1q-19 -53 -67 -87.5t-112 -34.5q-58 0 -96 34.5t-38 92.5q0 75 80 121.5t229 46.5v41q0 67 -27.5 100t-93.5 33q-80 0 -148 -39l-15 46q83 37 171 37q91 0 128.5 -42t37.5 -116v-189q0 -66 2 -158zM364 232v12q-136 0 -195 -32.5t-59 -82.5 q0 -40 25 -66t66 -26q71 0 117 59.5t46 135.5zM380 660q0 -16 -11.5 -27.5t-27.5 -11.5t-27.5 11.5t-11.5 27.5t11.5 27.5t27.5 11.5t27.5 -11.5t11.5 -27.5zM198 660q0 -16 -11.5 -27.5t-27.5 -11.5t-27.5 11.5t-11.5 27.5t11.5 27.5t27.5 11.5t27.5 -11.5t11.5 -27.5z" />
<glyph unicode="&#xe5;" horiz-adv-x="518" d="M419 0h-55q0 77 6 113l-2 1q-19 -53 -67 -87.5t-112 -34.5q-58 0 -96 34.5t-38 92.5q0 75 80 121.5t229 46.5v41q0 67 -27.5 100t-93.5 33q-80 0 -148 -39l-15 46q83 37 171 37q91 0 128.5 -42t37.5 -116v-189q0 -66 2 -158zM364 232v12q-136 0 -195 -32.5t-59 -82.5 q0 -40 25 -66t66 -26q71 0 117 59.5t46 135.5zM356 658q0 -39 -29.5 -68.5t-70.5 -29.5q-42 0 -71 28t-29 70q0 41 29.5 69.5t70.5 28.5q43 0 71.5 -28.5t28.5 -69.5zM314 658q0 25 -16.5 42.5t-41.5 17.5t-41.5 -17.5t-16.5 -42.5t16.5 -42.5t41.5 -17.5t41.5 17.5 t16.5 42.5z" />
<glyph unicode="&#xe6;" horiz-adv-x="813" d="M760 308q0 -16 -1 -33h-342q-1 -12 -1 -24q0 -105 40 -155q45 -57 137 -57q77 0 140 29l12 -46q-73 -30 -164 -30q-83 0 -132 35t-65 91h-1q-22 -51 -74 -88.5t-120 -37.5q-58 0 -96 34.5t-38 92.5q0 75 80 121.5t229 46.5v41q0 67 -27.5 100t-93.5 33q-80 0 -148 -39 l-15 46q83 37 171 37q125 0 152 -93h1q24 41 67.5 67t100.5 26q95 0 141.5 -56t46.5 -141zM702 318v7q0 61 -34 99q-37 40 -100 40q-58 0 -97 -39t-50 -107h281zM364 232v12q-136 0 -195 -32.5t-59 -82.5q0 -40 25 -66t66 -26q71 0 117 59.5t46 135.5z" />
<glyph unicode="&#xe7;" horiz-adv-x="446" d="M416 24q-69 -30 -157 -30q-211 0 -211 237q0 126 60 199t170 73q77 0 135 -24l-13 -44q-65 26 -133 26q-76 0 -119.5 -60.5t-43.5 -156.5q0 -94 36.5 -149.5t129.5 -55.5q73 0 134 28zM261 -41q24 -31 29 -63q1 -8 1 -16q0 -24 -10 -47q-13 -31 -43 -69h-50q30 38 42 64 q9 19 9 39q0 6 -1 13q-4 25 -27 53z" />
<glyph unicode="&#xe8;" horiz-adv-x="501" d="M448 308q0 -16 -1 -33h-342q-1 -12 -1 -24q0 -105 40 -155q45 -57 137 -57q77 0 140 29l12 -46q-73 -30 -164 -30q-221 0 -221 255q0 114 57 186t155 72q95 0 141.5 -56t46.5 -141zM390 318v7q0 61 -34 99q-37 40 -100 40q-58 0 -97 -39t-50 -107h281zM301 608l-30 -27 l-120 119l39 34z" />
<glyph unicode="&#xe9;" horiz-adv-x="501" d="M448 308q0 -16 -1 -33h-342q-1 -12 -1 -24q0 -105 40 -155q45 -57 137 -57q77 0 140 29l12 -46q-73 -30 -164 -30q-221 0 -221 255q0 114 57 186t155 72q95 0 141.5 -56t46.5 -141zM390 318v7q0 61 -34 99q-37 40 -100 40q-58 0 -97 -39t-50 -107h281zM362 700l-120 -119 l-30 27l111 126z" />
<glyph unicode="&#xea;" horiz-adv-x="501" d="M448 308q0 -16 -1 -33h-342q-1 -12 -1 -24q0 -105 40 -155q45 -57 137 -57q77 0 140 29l12 -46q-73 -30 -164 -30q-221 0 -221 255q0 114 57 186t155 72q95 0 141.5 -56t46.5 -141zM390 318v7q0 61 -34 99q-37 40 -100 40q-58 0 -97 -39t-50 -107h281zM382 609l-30 -28 l-96 88l-96 -88l-28 26l126 127z" />
<glyph unicode="&#xeb;" horiz-adv-x="501" d="M448 308q0 -16 -1 -33h-342q-1 -12 -1 -24q0 -105 40 -155q45 -57 137 -57q77 0 140 29l12 -46q-73 -30 -164 -30q-221 0 -221 255q0 114 57 186t155 72q95 0 141.5 -56t46.5 -141zM390 318v7q0 61 -34 99q-37 40 -100 40q-58 0 -97 -39t-50 -107h281zM389 660 q0 -16 -11.5 -27.5t-27.5 -11.5t-27.5 11.5t-11.5 27.5t11.5 27.5t27.5 11.5t27.5 -11.5t11.5 -27.5zM207 660q0 -16 -11.5 -27.5t-27.5 -11.5t-27.5 11.5t-11.5 27.5t11.5 27.5t27.5 11.5t27.5 -11.5t11.5 -27.5z" />
<glyph unicode="&#xec;" horiz-adv-x="253" d="M153 0h-53v497h53v-497zM183 608l-30 -27l-120 119l39 34z" />
<glyph unicode="&#xed;" horiz-adv-x="253" d="M153 0h-53v497h53v-497zM215 700l-120 -119l-30 27l111 126z" />
<glyph unicode="&#xee;" horiz-adv-x="253" d="M153 0h-53v497h53v-497zM252 609l-30 -28l-96 88l-96 -88l-28 26l126 127z" />
<glyph unicode="&#xef;" horiz-adv-x="253" d="M153 0h-53v497h53v-497zM256 660q0 -16 -11.5 -27.5t-27.5 -11.5t-27.5 11.5t-11.5 27.5t11.5 27.5t27.5 11.5t27.5 -11.5t11.5 -27.5zM74 660q0 -16 -11.5 -27.5t-27.5 -11.5t-27.5 11.5t-11.5 27.5t11.5 27.5t27.5 11.5t27.5 -11.5t11.5 -27.5z" />
<glyph unicode="&#xf0;" horiz-adv-x="538" d="M489 268q0 -136 -62.5 -206t-164.5 -70q-101 0 -158.5 65t-57.5 191q0 108 61.5 182.5t168.5 74.5q97 0 130 -60l-13 25l-13 23l-9 14q-29 52 -75 102l-111 -50l-25 34l105 47q-30 29 -87 74l56 24q41 -33 82 -75l111 49l25 -34l-107 -47q144 -170 144 -363zM434 261 q0 94 -42.5 147.5t-122.5 53.5q-70 0 -119 -54t-49 -156t45.5 -159t126.5 -57q71 0 116 55t45 170z" />
<glyph unicode="&#xf1;" horiz-adv-x="580" d="M480 0h-53v323q0 70 -24 104.5t-83 34.5q-74 0 -120.5 -63t-46.5 -162v-237h-53v497h55q0 -72 -9 -120l2 -1q21 60 68.5 94.5t113.5 34.5q150 0 150 -160v-345zM455 675q-36 -66 -97 -66q-34 0 -72.5 29t-58.5 29q-35 0 -64 -48l-29 24q36 66 97 66q34 0 72.5 -29 t58.5 -29q36 0 64 48z" />
<glyph unicode="&#xf2;" horiz-adv-x="538" d="M490 256q0 -112 -62.5 -188t-168.5 -76q-100 0 -156.5 64.5t-56.5 191.5q0 108 61.5 182.5t168.5 74.5q94 0 154 -59t60 -190zM435 253q0 99 -42.5 154t-123.5 55q-70 0 -119 -54t-49 -156q0 -103 44.5 -159.5t124.5 -56.5q70 0 117.5 54.5t47.5 162.5zM321 608l-30 -27 l-120 119l39 34z" />
<glyph unicode="&#xf3;" horiz-adv-x="538" d="M490 256q0 -112 -62.5 -188t-168.5 -76q-100 0 -156.5 64.5t-56.5 191.5q0 108 61.5 182.5t168.5 74.5q94 0 154 -59t60 -190zM435 253q0 99 -42.5 154t-123.5 55q-70 0 -119 -54t-49 -156q0 -103 44.5 -159.5t124.5 -56.5q70 0 117.5 54.5t47.5 162.5zM378 700 l-120 -119l-30 27l111 126z" />
<glyph unicode="&#xf4;" horiz-adv-x="538" d="M490 256q0 -112 -62.5 -188t-168.5 -76q-100 0 -156.5 64.5t-56.5 191.5q0 108 61.5 182.5t168.5 74.5q94 0 154 -59t60 -190zM435 253q0 99 -42.5 154t-123.5 55q-70 0 -119 -54t-49 -156q0 -103 44.5 -159.5t124.5 -56.5q70 0 117.5 54.5t47.5 162.5zM391 609l-30 -28 l-96 88l-96 -88l-28 26l126 127z" />
<glyph unicode="&#xf5;" horiz-adv-x="538" d="M490 256q0 -112 -62.5 -188t-168.5 -76q-100 0 -156.5 64.5t-56.5 191.5q0 108 61.5 182.5t168.5 74.5q94 0 154 -59t60 -190zM435 253q0 99 -42.5 154t-123.5 55q-70 0 -119 -54t-49 -156q0 -103 44.5 -159.5t124.5 -56.5q70 0 117.5 54.5t47.5 162.5zM432 675 q-36 -66 -97 -66q-34 0 -72.5 29t-58.5 29q-35 0 -64 -48l-29 24q36 66 97 66q34 0 72.5 -29t58.5 -29q36 0 64 48z" />
<glyph unicode="&#xf6;" horiz-adv-x="538" d="M490 256q0 -112 -62.5 -188t-168.5 -76q-100 0 -156.5 64.5t-56.5 191.5q0 108 61.5 182.5t168.5 74.5q94 0 154 -59t60 -190zM435 253q0 99 -42.5 154t-123.5 55q-70 0 -119 -54t-49 -156q0 -103 44.5 -159.5t124.5 -56.5q70 0 117.5 54.5t47.5 162.5zM395 660 q0 -16 -11.5 -27.5t-27.5 -11.5t-27.5 11.5t-11.5 27.5t11.5 27.5t27.5 11.5t27.5 -11.5t11.5 -27.5zM213 660q0 -16 -11.5 -27.5t-27.5 -11.5t-27.5 11.5t-11.5 27.5t11.5 27.5t27.5 11.5t27.5 -11.5t11.5 -27.5z" />
<glyph unicode="&#xf7;" d="M316 498q0 -18 -12.5 -30.5t-30.5 -12.5t-30.5 12.5t-12.5 30.5t12.5 30.5t30.5 12.5t30.5 -12.5t12.5 -30.5zM505 275h-460v45h460v-45zM316 95q0 -18 -12.5 -30.5t-30.5 -12.5t-30.5 12.5t-12.5 30.5t12.5 30.5t30.5 12.5t30.5 -12.5t12.5 -30.5z" />
<glyph unicode="&#xf8;" horiz-adv-x="538" d="M490 256q0 -112 -62 -188t-167 -76q-39 0 -74 11l-40 -105l-43 15l42 108q-100 61 -100 227q0 108 61.5 182.5t168.5 74.5q24 0 52 -5l36 94l43 -15l-36 -93q119 -55 119 -230zM436 253q0 143 -82 189l-150 -395q28 -12 67 -12q70 0 117.5 55t47.5 163zM312 458 q-23 5 -45 5q-68 0 -117.5 -51.5t-49.5 -159.5q0 -128 65 -181z" />
<glyph unicode="&#xf9;" horiz-adv-x="580" d="M480 0h-55q0 72 9 120l-2 1q-21 -60 -68.5 -94.5t-113.5 -34.5q-150 0 -150 160v345h53v-323q0 -70 24 -104.5t83 -34.5q74 0 120.5 63t46.5 162v237h53v-497zM342 608l-30 -27l-120 119l39 34z" />
<glyph unicode="&#xfa;" horiz-adv-x="580" d="M480 0h-55q0 72 9 120l-2 1q-21 -60 -68.5 -94.5t-113.5 -34.5q-150 0 -150 160v345h53v-323q0 -70 24 -104.5t83 -34.5q74 0 120.5 63t46.5 162v237h53v-497zM390 700l-120 -119l-30 27l111 126z" />
<glyph unicode="&#xfb;" horiz-adv-x="580" d="M480 0h-55q0 72 9 120l-2 1q-21 -60 -68.5 -94.5t-113.5 -34.5q-150 0 -150 160v345h53v-323q0 -70 24 -104.5t83 -34.5q74 0 120.5 63t46.5 162v237h53v-497zM412 609l-30 -28l-96 88l-96 -88l-28 26l126 127z" />
<glyph unicode="&#xfc;" horiz-adv-x="580" d="M480 0h-55q0 72 9 120l-2 1q-21 -60 -68.5 -94.5t-113.5 -34.5q-150 0 -150 160v345h53v-323q0 -70 24 -104.5t83 -34.5q74 0 120.5 63t46.5 162v237h53v-497zM417 660q0 -16 -11.5 -27.5t-27.5 -11.5t-27.5 11.5t-11.5 27.5t11.5 27.5t27.5 11.5t27.5 -11.5t11.5 -27.5z M235 660q0 -16 -11.5 -27.5t-27.5 -11.5t-27.5 11.5t-11.5 27.5t11.5 27.5t27.5 11.5t27.5 -11.5t11.5 -27.5z" />
<glyph unicode="&#xfd;" horiz-adv-x="458" d="M445 497l-209 -552q-43 -113 -91 -159t-129 -46q-24 0 -47 5l6 50q25 -7 56 -7q49 0 83 31.5t67 116.5l25 64l-193 497h63l119 -324q20 -55 38 -111h1q9 32 51 149l101 286h59zM342 700l-120 -119l-30 27l111 126z" />
<glyph unicode="&#xfe;" horiz-adv-x="558" d="M508 270q0 -133 -68 -204t-183 -71q-60 0 -104 7v-254h-53v982h53v-233q0 -85 -7 -119l2 -1q21 59 68.5 93.5t107.5 34.5q88 0 136 -59.5t48 -175.5zM452 266q0 93 -33.5 144.5t-100.5 51.5q-53 0 -92 -37.5t-56 -86.5t-17 -98v-188q45 -15 110 -15q90 0 139.5 56 t49.5 173z" />
<glyph unicode="&#xff;" horiz-adv-x="458" d="M445 497l-209 -552q-43 -113 -91 -159t-129 -46q-24 0 -47 5l6 50q25 -7 56 -7q49 0 83 31.5t67 116.5l25 64l-193 497h63l119 -324q20 -55 38 -111h1q9 32 51 149l101 286h59zM357 660q0 -16 -11.5 -27.5t-27.5 -11.5t-27.5 11.5t-11.5 27.5t11.5 27.5t27.5 11.5 t27.5 -11.5t11.5 -27.5zM175 660q0 -16 -11.5 -27.5t-27.5 -11.5t-27.5 11.5t-11.5 27.5t11.5 27.5t27.5 11.5t27.5 -11.5t11.5 -27.5z" />
<glyph unicode="&#x131;" horiz-adv-x="253" d="M153 0h-53v497h53v-497z" />
<glyph unicode="&#x152;" horiz-adv-x="866" d="M784 0h-328q-61 -8 -111 -8q-145 0 -220 91t-75 248q0 165 89 258.5t222 93.5q49 0 97 -8h326v-43h-274v-262h261v-43h-261v-283h274v-44zM456 50v574q-51 14 -101 14q-104 0 -175.5 -79.5t-71.5 -214.5q0 -140 63 -223t182 -83q55 0 103 12z" />
<glyph unicode="&#x153;" horiz-adv-x="885" d="M832 308q0 -16 -1 -33h-342q-1 -12 -1 -24q0 -105 40 -155q45 -57 137 -57q77 0 140 29l12 -46q-73 -30 -164 -30q-152 0 -198 121q-61 -121 -196 -121q-100 0 -156.5 64.5t-56.5 191.5q0 108 61.5 182.5t168.5 74.5q63 0 113 -28.5t75 -85.5q26 53 72 83.5t108 30.5 q95 0 141.5 -56t46.5 -141zM774 318v7q0 61 -34 99q-37 40 -100 40q-58 0 -97 -39t-50 -107h281zM435 253q0 99 -42.5 154t-123.5 55q-70 0 -119 -54t-49 -156q0 -103 44.5 -159.5t124.5 -56.5q70 0 117.5 54.5t47.5 162.5z" />
<glyph unicode="&#x178;" horiz-adv-x="513" d="M497 675l-216 -428v-247h-54v247l-211 428h60l125 -260q27 -55 55 -123h1q21 53 61 133l122 250h57zM399 776q0 -16 -11.5 -27.5t-27.5 -11.5t-27.5 11.5t-11.5 27.5t11.5 27.5t27.5 11.5t27.5 -11.5t11.5 -27.5zM187 776q0 -16 -11.5 -27.5t-27.5 -11.5t-27.5 11.5 t-11.5 27.5t11.5 27.5t27.5 11.5t27.5 -11.5t11.5 -27.5z" />
<glyph unicode="&#x2c6;" horiz-adv-x="440" d="M342 609l-30 -28l-96 88l-96 -88l-28 26l126 127z" />
<glyph unicode="&#x2da;" horiz-adv-x="400" d="M300 658q0 -39 -29.5 -68.5t-70.5 -29.5q-42 0 -71 28t-29 70q0 41 29.5 69.5t70.5 28.5q43 0 71.5 -28.5t28.5 -69.5zM258 658q0 25 -16.5 42.5t-41.5 17.5t-41.5 -17.5t-16.5 -42.5t16.5 -42.5t41.5 -17.5t41.5 17.5t16.5 42.5z" />
<glyph unicode="&#x2dc;" horiz-adv-x="524" d="M417 675q-36 -66 -97 -66q-34 0 -72.5 29t-58.5 29q-35 0 -64 -48l-29 24q36 66 97 66q34 0 72.5 -29t58.5 -29q36 0 64 48z" />
<glyph unicode="&#x3bc;" horiz-adv-x="623" d="M593 69q-10 -33 -37 -55t-63 -22q-42 0 -57 36q-7 20 -7 44q0 19 5 42h-1q-19 -54 -66.5 -88t-106.5 -34q-73 0 -112 37l8 -281h-56v749h53v-314q0 -72 26 -109.5t91 -37.5q66 0 111.5 59t45.5 140v262h53v-367q0 -51 7.5 -69t25.5 -18q15 0 27.5 12.5t18.5 29.5z" />
<glyph unicode="&#x2000;" horiz-adv-x="425" />
<glyph unicode="&#x2001;" horiz-adv-x="850" />
<glyph unicode="&#x2002;" horiz-adv-x="425" />
<glyph unicode="&#x2003;" horiz-adv-x="850" />
<glyph unicode="&#x2004;" horiz-adv-x="283" />
<glyph unicode="&#x2005;" horiz-adv-x="212" />
<glyph unicode="&#x2006;" horiz-adv-x="141" />
<glyph unicode="&#x2007;" horiz-adv-x="141" />
<glyph unicode="&#x2008;" horiz-adv-x="106" />
<glyph unicode="&#x2009;" horiz-adv-x="170" />
<glyph unicode="&#x200a;" horiz-adv-x="47" />
<glyph unicode="&#x2010;" horiz-adv-x="326" d="M276 274h-226v45h226v-45z" />
<glyph unicode="&#x2011;" horiz-adv-x="326" d="M276 274h-226v45h226v-45z" />
<glyph unicode="&#x2013;" d="M550 275h-550v45h550v-45z" />
<glyph unicode="&#x2014;" horiz-adv-x="1000" d="M875 275h-750v45h750v-45z" />
<glyph unicode="&#x2018;" horiz-adv-x="221" d="M176 722q-28 -30 -41 -58t-13 -45q0 -18 9 -31q8 -12 8 -23q0 -8 -4 -17q-10 -19 -32 -19q-32 0 -41 36q-2 10 -2 20q0 53 58 123q15 18 33 36z" />
<glyph unicode="&#x2019;" horiz-adv-x="221" d="M116 739q32 0 41 -36q2 -10 2 -20q0 -53 -58 -123q-15 -18 -33 -36l-25 22q28 30 41 58t13 45q0 18 -9 31q-8 12 -8 23q0 8 4 17q10 19 32 19z" />
<glyph unicode="&#x201a;" horiz-adv-x="221" d="M116 79q32 0 41 -36q2 -10 2 -20q0 -53 -58 -123q-15 -18 -33 -36l-25 22q28 30 41 58t13 45q0 18 -9 31q-8 12 -8 23q0 8 4 17q10 19 32 19z" />
<glyph unicode="&#x201c;" horiz-adv-x="383" d="M338 722q-28 -30 -41 -58t-13 -45q0 -18 9 -31q8 -12 8 -23q0 -8 -4 -17q-10 -19 -32 -19q-32 0 -41 36q-2 10 -2 20q0 53 58 123q15 18 33 36zM176 722q-28 -30 -41 -58t-13 -45q0 -18 9 -31q8 -12 8 -23q0 -8 -4 -17q-10 -19 -32 -19q-32 0 -41 36q-2 10 -2 20 q0 53 58 123q15 18 33 36z" />
<glyph unicode="&#x201d;" horiz-adv-x="383" d="M278 739q32 0 41 -36q2 -10 2 -20q0 -53 -58 -123q-15 -18 -33 -36l-25 22q28 30 41 58t13 45q0 18 -9 31q-8 12 -8 23q0 8 4 17q10 19 32 19zM116 739q32 0 41 -36q2 -10 2 -20q0 -53 -58 -123q-15 -18 -33 -36l-25 22q28 30 41 58t13 45q0 18 -9 31q-8 12 -8 23 q0 8 4 17q10 19 32 19z" />
<glyph unicode="&#x201e;" horiz-adv-x="383" d="M278 79q32 0 41 -36q2 -10 2 -20q0 -53 -58 -123q-15 -18 -33 -36l-25 22q28 30 41 58t13 45q0 18 -9 31q-8 12 -8 23q0 8 4 17q10 19 32 19zM116 79q32 0 41 -36q2 -10 2 -20q0 -53 -58 -123q-15 -18 -33 -36l-25 22q28 30 41 58t13 45q0 18 -9 31q-8 12 -8 23q0 8 4 17 q10 19 32 19z" />
<glyph unicode="&#x2022;" horiz-adv-x="418" d="M303 297q0 -39 -27.5 -66.5t-66.5 -27.5t-66.5 27.5t-27.5 66.5t27.5 66.5t66.5 27.5t66.5 -27.5t27.5 -66.5z" />
<glyph unicode="&#x2026;" horiz-adv-x="608" d="M537 36q0 -18 -12.5 -30.5t-30.5 -12.5t-30.5 12.5t-12.5 30.5t12.5 30.5t30.5 12.5t30.5 -12.5t12.5 -30.5zM340 36q0 -18 -12.5 -30.5t-30.5 -12.5t-30.5 12.5t-12.5 30.5t12.5 30.5t30.5 12.5t30.5 -12.5t12.5 -30.5zM143 36q0 -18 -12.5 -30.5t-30.5 -12.5 t-30.5 12.5t-12.5 30.5t12.5 30.5t30.5 12.5t30.5 -12.5t12.5 -30.5z" />
<glyph unicode="&#x202f;" horiz-adv-x="170" />
<glyph unicode="&#x2039;" horiz-adv-x="314" d="M226 157l-37 -28l-123 165l124 168l36 -27l-104 -140z" />
<glyph unicode="&#x203a;" horiz-adv-x="314" d="M248 297l-125 -168l-36 27l105 140l-103 138l37 28z" />
<glyph unicode="&#x205f;" horiz-adv-x="212" />
<glyph unicode="&#x20ac;" d="M508 27q-79 -35 -161 -35q-110 0 -169 60t-72 182h-95v41h92q-1 11 -1 37q0 35 3 68h-94v41h99q17 111 79.5 174t172.5 63q75 0 134 -27l-15 -44q-61 27 -133 27q-152 0 -183 -193h214v-41h-219q-2 -38 -2 -59q0 -31 1 -46h220v-41h-217q12 -98 59.5 -146t139.5 -48 q62 0 133 30z" />
<glyph unicode="&#x2122;" horiz-adv-x="708" d="M641 394h-45l-26 173l-8 60l-14 -50l-58 -183h-53l-56 185l-13 48l-3 -38l-30 -195h-42l42 281h65l55 -184l12 -51l10 45l60 190h63zM266 641h-80v-247h-47v247h-80v34h207v-34z" />
</font>
</defs>
</svg>
