<?xml version="1.0" encoding="UTF-8" standalone="no"?>
<!DOCTYPE svg  PUBLIC '-//W3C//DTD SVG 1.1//EN'  'http://www.w3.org/Graphics/SVG/1.1/DTD/svg11.dtd'>
<svg xmlns="http://www.w3.org/2000/svg">
<defs>
<font id="DINPro-Regular" horiz-adv-x="522">
<font-face underline-position="-85" font-weight="400" descent="-200" panose-1="2 0 5 3 3 0 0 2 0 4" units-per-em="1000" unicode-range="U+0020-25CA" bbox="-104 -226 1115 985" x-height="492" underline-thickness="51" font-family="DINPro" ascent="800" cap-height="712"/>
<missing-glyph horiz-adv-x="1000"/>
<glyph glyph-name=".notdef" horiz-adv-x="1000"/>
<glyph glyph-name=".null" horiz-adv-x="0"/>
<glyph glyph-name=".null" horiz-adv-x="0"/>
<glyph glyph-name="nonmarkingreturn" horiz-adv-x="1000"/>
<glyph glyph-name="space" horiz-adv-x="249" unicode=" "/>
<glyph glyph-name="exclam" horiz-adv-x="316" unicode="!" d="M216 0h-86v84h86v-84zM215 712l-11 -512h-62l-10 512h83z"/>
<glyph glyph-name="quotedbl" horiz-adv-x="423" unicode='&quot;' d="M167 542h-79v170h79v-170zM335 542h-79v170h79v-170z"/>
<glyph glyph-name="numbersign" horiz-adv-x="653" unicode="#" d="M432 432h-159l-23 -141h159zM602 432h-96l-23 -141h89v-64h-99l-36 -227h-74l36 227h-160l-35 -227h-74l36 227h-89v64h100l23 141h-92v66h101l34 215h75l-35 -215h159l34 215h73l-34 -215h87v-66z"/>
<glyph glyph-name="dollar" horiz-adv-x="596" unicode="$" d="M266 399v252q-62 -5 -96 -40t-34 -91q0 -54 32 -82q36 -30 98 -39zM464 194q0 59 -35 89q-7 7 -13 11t-16 8t-14 6t-17 4q-12 2 -15 3t-18 3t-17 2v-257q69 5 107 39t38 92zM540 196q0 -86 -59 -140t-159 -60v-110h-60v108q-70 3 -122 25t-98 69l52 52q73 -73 172 -77 v265l-20 2q-75 7 -130 54q-55 49 -55 133q0 85 54 139t147 61v89h60v-89q106 -5 186 -77l-49 -49q-61 55 -140 60v-259l31 -5q88 -15 129 -50q61 -52 61 -141z"/>
<glyph glyph-name="percent" horiz-adv-x="833" unicode="%" d="M278 481v101q0 87 -78 87t-78 -87v-101q0 -86 78 -86t78 86zM712 130v101q0 87 -78 87t-78 -87v-101q0 -87 78 -87t78 87zM614 712l-334 -712h-60l334 712h60zM335 479q0 -60 -38 -97t-97 -37t-97 37t-38 97v105q0 61 38 98t97 37t97 -37t38 -98v-105zM769 128 q0 -61 -38 -98t-97 -37t-97 37t-38 98v105q0 61 38 98t97 37t97 -37t38 -98v-105z"/>
<glyph glyph-name="ampersand" horiz-adv-x="739" unicode="&amp;" d="M395 568q0 36 -24 60t-60 25t-59 -23t-23 -60q-1 -24 13 -48t51 -69l38 26q31 21 47 41t17 48zM469 130l-196 236q-33 -22 -47 -33t-36 -33t-30 -44q-9 -24 -9 -53q0 -63 42 -103t108 -39q91 0 168 69zM671 0h-95l-64 78q-90 -84 -210 -84q-103 0 -164 56t-61 151 q0 38 12 70q12 33 37 59q24 26 46 42t59 42q-25 30 -37 46t-26 48q-14 31 -14 61q0 65 44 107t113 42q67 0 111 -43t44 -107q0 -73 -79 -127q-36 -24 -53 -36l182 -219q22 33 30 68t10 95h72q-2 -141 -66 -218z"/>
<glyph glyph-name="quotesingle" horiz-adv-x="255" unicode="&apos;" d="M167 542h-79v170h79v-170z"/>
<glyph glyph-name="parenleft" horiz-adv-x="298" unicode="(" d="M234 -45l-49 -49q-55 55 -72 86q-21 39 -21 103v522q0 65 21 103q17 31 72 86l49 -49q-43 -43 -54 -65q-16 -32 -16 -81v-510q0 -49 16 -81q11 -22 54 -65z"/>
<glyph glyph-name="parenright" horiz-adv-x="298" unicode=")" d="M205 95q0 -66 -20 -103q-17 -31 -72 -86l-51 51q45 45 55 65q14 28 14 79v510q0 51 -14 79q-10 20 -55 65l51 51q55 -55 72 -86q20 -37 20 -103v-522z"/>
<glyph glyph-name="asterisk" horiz-adv-x="474" unicode="*" d="M407 472l-28 -49l-117 71l4 -137h-58l4 137l-116 -71l-29 49l120 65l-120 66l29 48l116 -71l-4 137h58l-4 -137l117 71l28 -48l-120 -66z"/>
<glyph glyph-name="plus" d="M470 234h-175v-176h-67v176h-176v67h176v174h67v-174h175v-67z" unicode="+"/>
<glyph glyph-name="comma" horiz-adv-x="264" unicode="," d="M176 -65l-88 -79v232h88v-153z"/>
<glyph glyph-name="hyphen" horiz-adv-x="426" unicode="-" d="M350 236h-274v67h274v-67z"/>
<glyph glyph-name="period" horiz-adv-x="270" unicode="." d="M182 0h-94v94h94v-94z"/>
<glyph glyph-name="slash" horiz-adv-x="355" unicode="/" d="M356 786l-285 -860h-71l285 860h71z"/>
<glyph glyph-name="zero" d="M384 194v324q0 60 -32 98t-91 38t-91 -38t-32 -98v-324q0 -60 32 -98t91 -38t91 38t32 98zM456 190q0 -88 -56 -142t-139 -54t-139 54t-56 142v332q0 88 56 142t139 54t139 -54t56 -142v-332z" unicode="0"/>
<glyph glyph-name="one" d="M330 0h-72v632l-133 -117v82l133 115h72v-712z" unicode="1"/>
<glyph glyph-name="two" d="M461 0h-393v64l281 357q40 52 40 105q0 58 -33 93t-91 35q-54 0 -89 -32t-35 -97h-72q0 85 54 139t142 54t142 -52t54 -140q0 -41 -13 -73t-44 -71l-249 -318h306v-64z" unicode="2"/>
<glyph glyph-name="three" d="M460 194q0 -95 -59 -148t-150 -53q-89 -1 -147 47t-62 141h72q4 -63 42 -93t95 -31q59 0 98 37t39 101q0 138 -140 138h-15v63h15q64 0 96 34t31 95q0 62 -35 96t-89 34q-55 0 -89 -32t-39 -87h-72q5 85 61 134t139 49q87 0 141 -53t55 -140q0 -114 -96 -158 q109 -41 109 -174z" unicode="3"/>
<glyph glyph-name="four" d="M482 113h-87v-113h-71v113h-284v65l257 534h77l-257 -534h207v202h71v-202h87v-65z" unicode="4"/>
<glyph glyph-name="five" d="M462 235q0 -64 -11 -109t-46 -80q-53 -53 -142 -53q-92 0 -143 51q-44 45 -50 124h72q14 -111 121 -111q55 0 88 33q39 39 39 145q0 37 -4 65t-17 54q-12 26 -37 40t-62 14q-46 0 -76 -19t-42 -51h-65v374h360v-64h-295v-226q44 49 128 49q78 0 123 -45q59 -59 59 -191z " unicode="5"/>
<glyph glyph-name="six" d="M388 202q0 62 -34 103t-92 41q-57 0 -91 -39t-34 -105q0 -64 34 -104t91 -40q58 0 92 40t34 104zM460 205q0 -91 -54 -151t-143 -60q-90 0 -144 56t-54 149q0 70 45 160l175 353h74l-159 -320q33 15 75 15q83 -1 134 -57t51 -145z" unicode="6"/>
<glyph glyph-name="seven" d="M471 648l-247 -648h-76l247 648h-248v-112h-71v176h395v-64z" unicode="7"/>
<glyph glyph-name="eight" d="M385 526q-1 56 -35 92t-89 36t-89 -36t-35 -92q1 -56 35 -92t89 -35q55 -1 89 35t35 92zM399 197q1 59 -39 99t-99 40t-99 -40t-39 -99q-1 -59 39 -99t99 -40t99 40t39 99zM471 196q0 -90 -60 -146t-150 -56t-150 56t-60 146q0 112 107 173q-93 53 -93 158q-1 83 55 137 t141 54t141 -54t55 -137q0 -105 -92 -158q106 -60 106 -173z" unicode="8"/>
<glyph glyph-name="nine" d="M385 510q-1 64 -35 104t-91 40t-91 -40t-34 -104q0 -62 33 -103t92 -41q57 0 91 39t35 105zM457 513q0 -70 -45 -160l-175 -353h-75l160 320q-33 -15 -76 -15q-82 1 -133 57t-51 145q0 91 54 151t143 60q90 0 144 -56t54 -149z" unicode="9"/>
<glyph glyph-name="colon" horiz-adv-x="297" unicode=":" d="M209 0h-94v94h94v-94zM209 301h-94v94h94v-94z"/>
<glyph glyph-name="semicolon" horiz-adv-x="297" unicode=";" d="M209 301h-94v94h94v-94zM205 -65l-88 -79v232h88v-153z"/>
<glyph glyph-name="less" d="M426 68l-331 168v66l331 168v-77l-250 -124l250 -124v-77z" unicode="&lt;"/>
<glyph glyph-name="equal" d="M470 151h-418v66h418v-66zM470 320h-418v67h418v-67z" unicode="="/>
<glyph glyph-name="greater" d="M426 236l-331 -168v77l250 124l-250 124v77l331 -168v-66z" unicode="&gt;"/>
<glyph glyph-name="question" horiz-adv-x="497" unicode="?" d="M313 0h-86v84h86v-84zM451 536q0 -55 -45 -121l-82 -118q-18 -27 -18 -58v-39h-72v40q0 50 31 94l81 117q33 49 33 85q-1 50 -33 84t-82 34q-52 0 -84 -35t-32 -84h-72q0 77 54 130t134 53t134 -52t53 -130z"/>
<glyph glyph-name="at" horiz-adv-x="713" unicode="@" d="M571 238q-1 38 -5 68t-16 58t-37 42q-25 15 -63 15q-71 1 -96 -49t-25 -134q1 -38 5 -68t16 -58t37 -42q25 -15 63 -15q71 -1 96 49t25 134zM641 -1l-69 1v55q-49 -62 -134 -62q-88 0 -136 61q-24 30 -34 72t-10 112q0 129 41 183q46 62 138 62q83 0 134 -63v78 q0 74 -39 114q-40 40 -111 40h-130q-69 0 -109 -40q-22 -22 -31 -48t-9 -66v-337q0 -47 12 -71t45 -50l-49 -49q-46 35 -62 69t-16 100v336q0 104 56 161q55 56 154 56h148q98 0 154 -56q57 -57 57 -161v-497z"/>
<glyph glyph-name="A" horiz-adv-x="611" unicode="A" d="M439 227l-132 376l-134 -376h266zM599 0h-81l-57 161h-311l-57 -161h-81l262 712h64z"/>
<glyph glyph-name="B" horiz-adv-x="668" unicode="B" d="M505 521q-1 61 -39 92t-101 31h-186v-247h186q62 -1 101 31t39 93zM516 199q0 60 -38 95t-105 35h-194v-261h194q67 0 105 36t38 95zM592 197q0 -95 -58 -146t-154 -51h-277v712h268q94 0 152 -51t58 -139q1 -55 -29 -97t-76 -59q52 -19 84 -63t32 -106z"/>
<glyph glyph-name="C" horiz-adv-x="637" unicode="C" d="M572 206q-17 -100 -84 -156t-163 -56q-108 0 -182 74q-47 46 -57 102t-10 186t10 186t57 102q74 74 182 74q97 0 163 -56t84 -156h-78q-14 66 -58 105t-111 39q-75 0 -123 -50q-32 -33 -41 -80t-9 -164t9 -164t41 -80q48 -50 123 -50q65 0 111 39t60 105h76z"/>
<glyph glyph-name="D" horiz-adv-x="673" unicode="D" d="M521 364q0 62 -1 90t-12 72q-11 42 -34 66q-51 52 -140 52h-155v-576h155q89 0 140 52q23 24 34 71t12 77t1 96zM597 364q0 -134 -13 -189q-17 -69 -57 -109q-66 -66 -180 -66h-244v712h244q114 0 180 -66q21 -20 35 -50t22 -50q6 -20 10 -64q4 -42 3 -55v-63z"/>
<glyph glyph-name="E" horiz-adv-x="600" unicode="E" d="M545 0h-442v712h442v-68h-366v-251h312v-68h-312v-257h366v-68z"/>
<glyph glyph-name="F" horiz-adv-x="580" unicode="F" d="M545 644h-366v-262h312v-68h-312v-314h-76v712h442v-68z"/>
<glyph glyph-name="G" horiz-adv-x="650" unicode="G" d="M576 260q0 -119 -61 -184q-76 -82 -190 -82q-108 0 -182 74q-47 46 -57 102t-10 186t10 186t57 102q74 74 182 74q101 0 167 -58t82 -155h-76q-15 69 -61 107t-112 38q-74 0 -123 -51q-32 -33 -41 -79t-9 -164q0 -117 9 -164t41 -80q48 -50 123 -50q85 0 135 61 q40 48 40 129v54h-175v67h251v-113z"/>
<glyph glyph-name="H" horiz-adv-x="696" unicode="H" d="M593 0h-76v325h-338v-325h-76v712h76v-319h338v319h76v-712z"/>
<glyph glyph-name="I" horiz-adv-x="282" unicode="I" d="M179 0h-76v712h76v-712z"/>
<glyph glyph-name="J" horiz-adv-x="501" unicode="J" d="M408 216q0 -102 -62 -162t-160 -60q-99 0 -163 64l51 51q24 -23 48 -35t64 -12q70 0 108 42t38 122v486h76v-496z"/>
<glyph glyph-name="K" horiz-adv-x="650" unicode="K" d="M636 0h-90l-217 379l-150 -180v-199h-76v712h76v-409l332 409h93l-224 -275z"/>
<glyph glyph-name="L" horiz-adv-x="573" unicode="L" d="M543 0h-440v712h76v-644h364v-68z"/>
<glyph glyph-name="M" horiz-adv-x="816" unicode="M" d="M713 0h-76v541l-195 -429h-65l-198 429v-541h-76v712h76l232 -505l226 505h76v-712z"/>
<glyph glyph-name="N" horiz-adv-x="732" unicode="N" d="M629 0h-72l-378 571v-571h-76v712h72l378 -569v569h76v-712z"/>
<glyph glyph-name="O" horiz-adv-x="650" unicode="O" d="M498 356q0 118 -9 164t-41 79q-49 51 -123 51t-123 -51q-32 -33 -41 -79t-9 -164t9 -164t41 -79q49 -51 123 -51t123 51q32 33 41 79t9 164zM574 356q0 -130 -10 -186t-57 -102q-74 -74 -182 -74t-182 74q-47 46 -57 102t-10 186t10 186t57 102q74 74 182 74t182 -74 q47 -46 57 -102t10 -186z"/>
<glyph glyph-name="P" horiz-adv-x="630" unicode="P" d="M512 503q0 69 -41 105t-110 36h-182v-283h182q69 1 110 37t41 105zM588 503q0 -95 -61 -153t-159 -57h-189v-293h-76v712h265q98 0 159 -57t61 -152z"/>
<glyph glyph-name="Q" horiz-adv-x="649" unicode="Q" d="M498 356q0 118 -9 164t-41 79q-49 51 -123 51t-123 -51q-32 -33 -41 -79t-9 -164t9 -164t41 -79q49 -51 123 -51q56 0 101 34l-90 90l46 46l87 -87q17 30 23 74t6 137zM603 11l-46 -46l-79 79q-65 -50 -153 -50q-108 0 -182 74q-47 46 -57 102t-10 186t10 186t57 102 q74 74 182 74t182 -74q47 -46 57 -102t10 -186q0 -84 -2 -120t-12 -77t-35 -70z"/>
<glyph glyph-name="R" horiz-adv-x="656" unicode="R" d="M511 513q0 63 -39 97t-103 34h-190v-261h190q65 -1 103 33t39 97zM601 0h-89l-162 316h-171v-316h-76v712h273q94 0 152 -54t59 -144q0 -76 -42 -126t-113 -65z"/>
<glyph glyph-name="S" horiz-adv-x="588" unicode="S" d="M532 196q0 -94 -67 -148t-179 -54q-80 0 -137 22t-107 72l52 52q44 -42 88 -60t106 -18q78 0 123 35t45 97q0 59 -34 89q-17 15 -35 21t-58 13l-83 13q-85 14 -131 54q-54 48 -54 133q-1 91 61 146t167 55q68 0 117 -18t95 -60l-49 -49q-67 61 -166 61q-70 0 -110 -36 t-40 -96q0 -54 32 -82q33 -29 96 -39l78 -12q87 -13 130 -50q60 -51 60 -141z"/>
<glyph glyph-name="T" horiz-adv-x="548" unicode="T" d="M518 644h-206v-644h-76v644h-206v68h488v-68z"/>
<glyph glyph-name="U" horiz-adv-x="683" unicode="U" d="M590 235q0 -105 -70 -173t-179 -68q-108 0 -178 68t-70 173v477h76v-471q0 -81 47 -130t125 -49q77 0 125 49t48 130v471h76v-477z"/>
<glyph glyph-name="V" horiz-adv-x="546" unicode="V" d="M538 712l-234 -712h-62l-234 712h80l185 -576l185 576h80z"/>
<glyph glyph-name="W" horiz-adv-x="854" unicode="W" d="M838 712l-182 -712h-71l-158 570l-158 -570h-71l-182 712h81l139 -574l157 574h68l157 -574l139 574h81z"/>
<glyph glyph-name="X" horiz-adv-x="551" unicode="X" d="M536 0h-88l-173 299l-174 -299h-86l218 365l-204 347h88l158 -281l158 281h88l-205 -347z"/>
<glyph glyph-name="Y" horiz-adv-x="514" unicode="Y" d="M506 712l-210 -418v-294h-76v294l-212 418h82l168 -341l166 341h82z"/>
<glyph glyph-name="Z" horiz-adv-x="556" unicode="Z" d="M499 0h-442v72l356 572h-342v68h428v-64l-359 -580h359v-68z"/>
<glyph glyph-name="bracketleft" horiz-adv-x="313" unicode="[" d="M269 -74h-177v860h177v-64h-105v-732h105v-64z"/>
<glyph glyph-name="backslash" horiz-adv-x="355" unicode="\" d="M355 -74h-71l-284 857h71z"/>
<glyph glyph-name="bracketright" horiz-adv-x="313" unicode="]" d="M221 -74h-177v62h108v736h-108v62h177v-860z"/>
<glyph glyph-name="asciicircum" horiz-adv-x="537" unicode="^" d="M465 413h-74l-122 228l-123 -228h-74l164 305h66z"/>
<glyph glyph-name="underscore" horiz-adv-x="537" unicode="_" d="M537 -165h-537v51h537v-51z"/>
<glyph glyph-name="grave" horiz-adv-x="500" unicode="`" d="M299 594h-66l-108 153h86z"/>
<glyph glyph-name="a" horiz-adv-x="526" unicode="a" d="M369 174v53h-138q-110 0 -110 -87q0 -84 113 -84q76 0 110 33q25 24 25 85zM441 0h-72v47q-30 -29 -61 -41t-81 -12q-95 0 -139 45q-37 37 -37 100q1 66 45 104t125 38h148v47q0 56 -30 82t-96 26q-47 0 -75 -12t-49 -44l-49 45q32 41 72 57t102 16q197 0 197 -164v-334z "/>
<glyph glyph-name="b" horiz-adv-x="545" unicode="b" d="M409 246q-1 41 -5 71q-4 31 -16 59t-38 43t-64 15t-64 -15t-38 -43t-18 -59q-4 -30 -4 -71t4 -71q4 -31 18 -59q12 -28 38 -43t64 -15t64 15t38 43t16 59q4 30 5 71zM481 246q0 -149 -60 -209q-43 -43 -120 -43q-89 0 -139 65v-59h-72v712h72v-277q49 63 139 63 q77 0 120 -43q60 -60 60 -209z"/>
<glyph glyph-name="c" horiz-adv-x="490" unicode="c" d="M443 67q-38 -41 -74 -57t-88 -16q-97 0 -157 65t-61 187q1 122 61 187t157 65q52 0 88 -16t74 -57l-49 -46q-28 31 -53 43t-60 12q-75 0 -114 -56q-32 -45 -32 -132t32 -132q39 -56 114 -56q35 0 60 12t53 44z"/>
<glyph glyph-name="d" horiz-adv-x="545" unicode="d" d="M383 246q-1 41 -5 71q-4 31 -16 59t-38 43t-64 15t-64 -15t-38 -43t-18 -59q-4 -30 -4 -71t4 -71q4 -31 18 -59q12 -28 38 -43t64 -15t64 15t38 43t16 59q4 30 5 71zM455 0h-71v59q-50 -65 -140 -65q-77 0 -120 43q-60 60 -60 209t60 209q43 43 120 43q90 0 139 -63v277 h72v-712z"/>
<glyph glyph-name="e" horiz-adv-x="530" unicode="e" d="M395 281q-3 52 -15 82q-14 34 -45 54t-70 20t-70 -20t-45 -54q-12 -30 -15 -82h260zM467 227h-332q-1 -81 37 -125t108 -45q42 0 70 13t59 43l49 -43q-40 -40 -80 -58t-100 -18q-101 0 -158 62t-57 190q0 120 54 186t148 66q95 0 149 -64t53 -174v-33z"/>
<glyph glyph-name="f" horiz-adv-x="314" unicode="f" d="M283 434h-105v-434h-72v434h-63v55h63v93q0 58 32 95t93 37h52v-62h-39q-66 0 -66 -72v-91h105v-55z"/>
<glyph glyph-name="g" horiz-adv-x="543" unicode="g" d="M381 250q-1 39 -5 68q-4 30 -16 58t-38 43t-63 15q-38 0 -64 -15t-38 -43q-13 -28 -17 -58q-4 -29 -4 -68t4 -68q4 -30 17 -58q12 -28 38 -43t64 -15q37 0 63 15t38 43t16 58q4 29 5 68zM453 -15q0 -93 -55 -152t-150 -59q-54 0 -90 15t-77 51l47 46q30 -27 54 -38 t64 -11q68 0 102 42t33 109v77q-50 -64 -138 -64q-75 0 -119 44q-60 60 -60 205t60 205q43 43 120 43q89 0 138 -64v58h71v-507z"/>
<glyph glyph-name="h" horiz-adv-x="562" unicode="h" d="M477 0h-72v304q1 62 -31 96t-89 34t-90 -34t-33 -96v-304h-72v712h72v-274q53 60 138 60q83 0 130 -49t47 -133v-316z"/>
<glyph glyph-name="i" horiz-adv-x="253" unicode="i" d="M167 632h-81v81h81v-81zM162 0h-72v492h72v-492z"/>
<glyph glyph-name="j" horiz-adv-x="253" unicode="j" d="M167 632h-81v81h81v-81zM162 -89q0 -59 -32 -95t-93 -37h-52v63h39q36 0 51 18t15 54v575h72v-578z"/>
<glyph glyph-name="k" horiz-adv-x="536" unicode="k" d="M503 0h-89l-156 252l-96 -110v-142h-72v712h72v-476l222 256h90l-167 -188z"/>
<glyph glyph-name="l" horiz-adv-x="297" unicode="l" d="M265 0h-52q-61 0 -93 36t-32 95v581h72v-578q0 -36 15 -54t51 -18h39v-62z"/>
<glyph glyph-name="m" horiz-adv-x="879" unicode="m" d="M794 0h-72v303q0 63 -32 97t-89 34q-55 0 -89 -33t-34 -90v-311h-72v303q0 63 -32 97t-89 34t-90 -34t-33 -97v-303h-72v492h72v-54q52 60 139 60q105 0 151 -82q58 82 162 82q79 0 127 -46q53 -51 53 -137v-315z"/>
<glyph glyph-name="n" horiz-adv-x="562" unicode="n" d="M477 0h-72v303q0 63 -32 97t-89 34q-58 0 -90 -34t-32 -97v-303h-72v492h72v-54q52 60 138 60q80 0 126 -46q51 -50 51 -137v-315z"/>
<glyph glyph-name="o" horiz-adv-x="530" unicode="o" d="M394 246q0 113 -39 152q-36 36 -90 36q-53 0 -89 -36q-40 -40 -40 -152t40 -152q36 -36 89 -36q54 0 90 36q39 39 39 152zM466 246q0 -135 -60 -196q-56 -56 -141 -56t-141 56q-60 61 -60 196t60 196q56 56 141 56t141 -56q60 -61 60 -196z"/>
<glyph glyph-name="p" horiz-adv-x="545" unicode="p" d="M409 246q-1 41 -5 71q-4 31 -16 59t-38 43t-64 15t-64 -15t-38 -43t-18 -59q-4 -30 -4 -71t4 -71q4 -31 18 -59q12 -28 38 -43t64 -15t64 15t38 43t16 59q4 30 5 71zM481 246q0 -149 -60 -209q-43 -43 -120 -43q-89 0 -139 64v-278h-72v712h72v-58q49 64 139 64 q77 0 120 -43q60 -60 60 -209z"/>
<glyph glyph-name="q" horiz-adv-x="545" unicode="q" d="M383 246q-1 41 -5 71q-4 31 -16 59t-38 43t-64 15t-64 -15t-38 -43t-18 -59q-4 -30 -4 -71t4 -71q4 -31 18 -59q12 -28 38 -43t64 -15t64 15t38 43t16 59q4 30 5 71zM455 -220h-72v278q-50 -64 -139 -64q-77 0 -120 43q-60 60 -60 209t60 209q43 43 120 43q91 0 140 -64 v58h71v-712z"/>
<glyph glyph-name="r" horiz-adv-x="421" unicode="r" d="M418 452l-53 -54q-21 20 -39 28t-46 8q-54 0 -86 -38t-32 -94v-302h-72v492h72v-60q20 30 58 48t80 18q72 0 118 -46z"/>
<glyph glyph-name="s" horiz-adv-x="496" unicode="s" d="M445 144q-1 -70 -55 -110t-145 -40q-128 0 -202 71l48 48q54 -57 153 -57q62 0 96 22t35 65q0 65 -82 72l-81 7q-147 12 -147 132q1 66 51 105t130 39q112 0 177 -53l-47 -47q-51 39 -131 39q-53 1 -81 -21t-29 -60q0 -65 86 -72l79 -7q70 -6 108 -37t37 -96z"/>
<glyph glyph-name="t" horiz-adv-x="332" unicode="t" d="M279 0h-51q-62 0 -94 37t-32 95v302h-62v55h62v154h72v-154h105v-55h-105v-300q0 -72 67 -72h38v-62z"/>
<glyph glyph-name="u" horiz-adv-x="562" unicode="u" d="M472 0h-71v55q-53 -61 -139 -61q-81 0 -127 46q-50 49 -50 138v314h72v-303q-1 -63 31 -97t89 -34t90 34t33 97v303h72v-492z"/>
<glyph glyph-name="v" horiz-adv-x="447" unicode="v" d="M436 492l-181 -492h-64l-180 492h78l134 -395l135 395h78z"/>
<glyph glyph-name="w" horiz-adv-x="724" unicode="w" d="M713 492l-155 -492h-67l-129 382l-128 -382h-67l-156 492h78l113 -395l129 395h62l130 -395l112 395h78z"/>
<glyph glyph-name="x" horiz-adv-x="478" unicode="x" d="M445 0h-87l-118 191l-120 -191h-87l167 251l-160 241h87l113 -182l111 182h87l-160 -241z"/>
<glyph glyph-name="y" horiz-adv-x="447" unicode="y" d="M436 492l-224 -611q-14 -39 -35 -58q-35 -34 -96 -34h-31v64h22q36 0 52 13t29 48l35 96l-177 482h78l135 -395l134 395h78z"/>
<glyph glyph-name="z" horiz-adv-x="459" unicode="z" d="M407 0h-357v62l274 366h-259v64h342v-61l-275 -367h275v-64z"/>
<glyph glyph-name="braceleft" horiz-adv-x="354" unicode="{" d="M305 -74h-37q-71 0 -101 30t-30 99v191q0 42 -18 60t-45 18h-26v64h26q27 0 45 18t18 60v191q0 69 30 99t101 30h37v-64h-23q-46 0 -59 -13q-14 -14 -14 -65v-188q0 -40 -16 -62t-47 -38q31 -16 47 -38t16 -62v-188q0 -51 14 -65q13 -13 59 -13h23v-64z"/>
<glyph glyph-name="bar" horiz-adv-x="326" unicode="|" d="M199 -74h-72v860h72v-860z"/>
<glyph glyph-name="braceright" horiz-adv-x="354" unicode="}" d="M305 324h-25q-27 0 -45 -18t-18 -60v-191q0 -69 -30 -99t-101 -30h-38v64h24q45 0 58 13q15 15 15 65v188q0 40 16 62t47 38q-31 16 -47 38t-16 62v188q0 50 -15 65q-13 13 -58 13h-24v64h38q71 0 101 -30t30 -99v-191q0 -42 18 -60t45 -18h25v-64z"/>
<glyph glyph-name="asciitilde" horiz-adv-x="539" unicode="~" d="M490 278q-42 -40 -68 -54t-61 -14q-37 0 -106 31q-52 24 -78 24q-22 -1 -39 -9t-45 -36l-44 45q41 41 67 55t62 13q36 0 105 -31q52 -24 78 -24q22 0 39 8t45 37z"/>
<glyph glyph-name="uni00A0" horiz-adv-x="249" unicode=" "/>
<glyph glyph-name="exclamdown" horiz-adv-x="316" unicode="¡" d="M185 408h-86v84h86v-84zM184 -220h-83l10 512h62z"/>
<glyph glyph-name="cent" horiz-adv-x="498" unicode="¢" d="M248 182v368q-49 -9 -80 -52q-33 -46 -33 -132t33 -132q31 -43 80 -52zM448 189q-34 -37 -68 -54t-77 -20v-115h-59v117q-84 11 -132 77t-49 172q1 106 49 172t132 77v97h59v-95q43 -3 77 -20t68 -54l-49 -46q-45 51 -100 55v-372q55 4 100 55z"/>
<glyph glyph-name="sterling" horiz-adv-x="548" unicode="£" d="M496 0h-386v330h-63v54h63v112q0 102 62 162t161 60t163 -64l-52 -51q-24 23 -48 35t-63 12q-70 0 -108 -42t-38 -122v-102h146v-54h-146v-262h309v-68z"/>
<glyph glyph-name="currency" horiz-adv-x="660" unicode="¤" d="M485 271q1 65 -45 110t-110 45t-110 -46t-46 -109q0 -65 46 -111t110 -45q64 -1 110 45t45 111zM582 65l-46 -46l-75 74q-59 -44 -131 -44q-73 0 -132 44l-74 -74l-46 46l74 74q-44 59 -44 132t44 132l-74 73l46 46l74 -73q57 43 132 43q74 0 131 -43l75 73l46 -46 l-74 -73q44 -59 44 -132t-44 -132z"/>
<glyph glyph-name="yen" horiz-adv-x="514" unicode="¥" d="M506 712l-157 -311h100v-54h-127l-26 -53v-52h153v-55h-153v-187h-77v187h-154v55h154v52l-26 53h-128v54h100l-157 311h82l168 -341l167 341h81z"/>
<glyph glyph-name="brokenbar" horiz-adv-x="335" unicode="¦" d="M199 -74h-72v350h72v-350zM199 436h-72v350h72v-350z"/>
<glyph glyph-name="section" horiz-adv-x="557" unicode="§" d="M397 253q0 60 -32 92q-36 36 -86 36q-53 0 -86 -36t-33 -92t33 -92t86 -36t86 36q32 35 32 92zM470 254q0 -58 -30 -100t-74 -64q44 -16 70 -54t27 -90q-1 -76 -53 -124t-131 -48q-77 0 -131 42t-58 119h73q5 -47 35 -71t81 -24t81 28t30 77q0 35 -24 63t-64 39l-78 22 q-66 19 -102 67t-35 116q0 58 30 100t75 64q-93 42 -93 138q1 72 51 118t129 46t129 -42t53 -115h-72q-7 93 -110 93q-51 0 -79 -26t-29 -73q0 -72 84 -96l78 -22q65 -19 101 -67t36 -116z"/>
<glyph glyph-name="dieresis" horiz-adv-x="500" unicode="¨" d="M180 602h-72v89h72v-89zM392 602h-72v89h72v-89z"/>
<glyph glyph-name="copyright" horiz-adv-x="881" unicode="©" d="M576 205q-58 -52 -131 -52q-85 0 -131 56t-47 147q1 92 47 148t131 56q71 0 131 -53l-36 -36q-44 39 -95 39q-64 0 -93 -42t-29 -112q0 -69 29 -111t93 -42q52 0 95 38zM744 356q0 128 -89 218t-215 90t-214 -90t-89 -218q1 -128 89 -218t214 -90t215 90t89 218zM802 356 q0 -150 -106 -256t-256 -106t-256 106t-106 256t106 256t256 106t256 -106t106 -256z"/>
<glyph glyph-name="ordfeminine" horiz-adv-x="449" unicode="ª" d="M306 458v40h-107q-84 0 -84 -67q0 -65 86 -65q60 0 86 25q19 18 19 67zM365 319h-58v36q-42 -41 -111 -41q-74 0 -110 36q-30 32 -30 79q0 53 36 83t99 31h115v36q0 43 -22 63t-75 21q-37 1 -59 -9t-39 -35l-41 37q26 32 58 46t82 14q155 0 155 -132v-265z"/>
<glyph glyph-name="guillemotleft" horiz-adv-x="554" unicode="«" d="M476 58l-210 210l210 210v-90l-121 -120l121 -121v-89zM250 58l-210 210l210 210v-90l-120 -120l120 -121v-89z"/>
<glyph glyph-name="logicalnot" d="M471 103h-67v137h-353v67h420v-204z" unicode="¬"/>
<glyph glyph-name="uni00AD" horiz-adv-x="426" unicode="­" d="M350 236h-274v67h274v-67z"/>
<glyph glyph-name="registered" horiz-adv-x="881" unicode="®" d="M526 436q0 30 -21 50t-54 20h-74v-139h74q33 -1 54 19t21 50zM592 158h-64l-91 162h-60v-162h-55v397h135q53 -1 89 -35t36 -84q0 -83 -85 -109zM745 356q1 128 -89 218t-216 91q-126 -1 -215 -91t-89 -218t89 -218t215 -91q126 1 216 91t89 218zM802 356 q0 -150 -106 -256t-256 -106t-256 106t-106 256t106 256t256 106t256 -106t106 -256z"/>
<glyph glyph-name="macron" horiz-adv-x="500" unicode="¯" d="M99 613v57h301v-57h-301z"/>
<glyph glyph-name="degree" horiz-adv-x="463" unicode="°" d="M335 557q0 45 -30 75t-74 31q-43 -1 -73 -31t-30 -75t30 -75t74 -31q44 1 74 31t29 75zM396 557q0 -68 -48 -116t-116 -48t-116 48t-49 116q1 68 49 116t116 48t116 -48t48 -116z"/>
<glyph glyph-name="plusminus" d="M470 0h-418v67h418v-67zM470 289h-175v-177h-67v177h-176v67h176v175h67v-175h175v-67z" unicode="±"/>
<glyph glyph-name="twosuperior" horiz-adv-x="342" unicode="²" d="M294 285h-246v52l165 202q23 29 23 58q0 31 -18 49t-47 18t-47 -16t-18 -51h-58q0 55 34 87t89 32t89 -32t34 -87q0 -44 -39 -92l-138 -168h177v-52z"/>
<glyph glyph-name="threesuperior" horiz-adv-x="356" unicode="³" d="M308 405q0 -59 -36 -92t-93 -33q-55 0 -92 30t-39 89h58q1 -33 22 -50t51 -17q32 0 52 20t20 53t-19 53t-56 20h-9v50h9q34 0 51 18t17 50t-19 50t-47 18q-29 0 -47 -17t-20 -46h-57q3 53 38 84t86 31q54 0 88 -33t35 -86q0 -67 -54 -92q61 -26 61 -100z"/>
<glyph glyph-name="acute" horiz-adv-x="500" unicode="´" d="M375 747l-108 -153h-66l88 153h86z"/>
<glyph glyph-name="uni00B5" horiz-adv-x="561" unicode="µ" d="M471 0h-72v55q-53 -61 -138 -61q-66 0 -106 37v-251h-72v712h72v-303q0 -63 32 -97t89 -34t90 34t33 97v303h72v-492z"/>
<glyph glyph-name="paragraph" horiz-adv-x="603" unicode="¶" d="M500 -220h-72v864h-117v-864h-72v546q-87 0 -142 58t-55 134q0 82 58 138t159 56h241v-932z"/>
<glyph glyph-name="periodcentered" horiz-adv-x="270" unicode="·" d="M182 223h-94v94h94v-94z"/>
<glyph glyph-name="cedilla" horiz-adv-x="500" unicode="¸" d="M313 -67l-59 -149h-79l71 149h67z"/>
<glyph glyph-name="onesuperior" horiz-adv-x="261" unicode="¹" d="M183 285h-57v363l-83 -73v66l83 71h57v-427z"/>
<glyph glyph-name="ordmasculine" horiz-adv-x="455" unicode="º" d="M328 515q0 88 -31 119q-28 28 -70 28t-70 -28q-30 -30 -30 -119q0 -88 30 -118q29 -29 70 -29t70 29q31 31 31 118zM387 515q0 -107 -48 -156q-44 -44 -112 -44t-112 44q-48 49 -48 156t48 156q45 45 112 45t112 -45q48 -49 48 -156z"/>
<glyph glyph-name="guillemotright" horiz-adv-x="554" unicode="»" d="M288 268l-210 -210v89l121 121l-121 120v90zM514 268l-210 -210v89l120 121l-120 120v90z"/>
<glyph glyph-name="onequarter" horiz-adv-x="777" unicode="¼" d="M183 285h-57v363l-83 -73v66l83 71h57v-427zM566 712l-333 -712h-60l333 712h60zM737 64h-47v-64h-56v64h-172v53l151 310h62l-150 -310h109v105h56v-105h47v-53z"/>
<glyph glyph-name="onehalf" horiz-adv-x="790" unicode="½" d="M183 285h-57v363l-83 -73v66l83 71h57v-427zM554 712l-333 -712h-60l333 712h60zM742 0h-246v52l165 202q23 29 23 58q0 30 -18 48t-47 19q-29 -1 -47 -17t-18 -50h-58q0 54 34 86t89 33q55 -1 89 -33t34 -86q0 -44 -39 -92l-137 -168h176v-52z"/>
<glyph glyph-name="threequarters" horiz-adv-x="822" unicode="¾" d="M619 712l-334 -712h-60l334 712h60zM782 64h-47v-64h-56v64h-172v53l151 310h62l-151 -310h110v105h56v-105h47v-53zM308 405q0 -59 -36 -92t-93 -33q-55 0 -92 30t-39 89h58q1 -33 22 -50t51 -17q32 0 52 20t20 53t-19 53t-56 20h-9v50h9q34 0 51 18t17 50t-19 50 t-47 18q-29 0 -47 -17t-20 -46h-57q3 53 38 84t86 31q54 0 88 -33t35 -86q0 -67 -54 -92q61 -26 61 -100z"/>
<glyph glyph-name="questiondown" horiz-adv-x="497" unicode="¿" d="M270 408h-85v84h85v-84zM421 -43q1 -77 -53 -130t-134 -53t-134 52t-54 131q0 53 46 120l82 118q18 27 18 58v40h72v-41q0 -48 -32 -94l-81 -116q-33 -49 -33 -85q0 -50 33 -84t83 -34q52 1 84 35t31 83h72z"/>
<glyph glyph-name="Agrave" horiz-adv-x="611" unicode="À" d="M351 781h-66l-108 153h86zM439 227l-132 376l-134 -376h266zM599 0h-81l-57 161h-311l-57 -161h-81l262 712h64z"/>
<glyph glyph-name="Aacute" horiz-adv-x="611" unicode="Á" d="M427 934l-108 -153h-66l88 153h86zM439 227l-132 376l-134 -376h266zM599 0h-81l-57 161h-311l-57 -161h-81l262 712h64z"/>
<glyph glyph-name="Acircumflex" horiz-adv-x="611" unicode="Â" d="M461 781h-69l-90 104l-90 -104h-69l125 153h68zM439 227l-132 376l-134 -376h266zM599 0h-81l-57 161h-311l-57 -161h-81l262 712h64z"/>
<glyph glyph-name="Atilde" horiz-adv-x="611" unicode="Ã" d="M459 844q-51 -50 -95 -50q-32 0 -71 23q-36 21 -56 21q-27 0 -59 -32l-37 36q51 51 95 51q34 0 71 -24q32 -20 56 -20q27 0 59 32zM439 227l-132 376l-134 -376h266zM599 0h-81l-57 161h-311l-57 -161h-81l262 712h64z"/>
<glyph glyph-name="Adieresis" horiz-adv-x="611" unicode="Ä" d="M236 789h-72v89h72v-89zM448 789h-72v89h72v-89zM439 227l-132 376l-134 -376h266zM599 0h-81l-57 161h-311l-57 -161h-81l262 712h64z"/>
<glyph glyph-name="Aring" horiz-adv-x="611" unicode="Å" d="M371 867q0 28 -20 48t-49 20t-49 -20t-20 -48q1 -29 21 -49t48 -20t48 20t21 49zM420 867q0 -49 -34 -84t-84 -35t-84 35t-34 84t34 83t84 35q50 -1 84 -35t34 -83zM439 227l-132 376l-134 -376h266zM599 0h-81l-57 161h-311l-57 -161h-81l262 712h64z"/>
<glyph glyph-name="AE" horiz-adv-x="922" unicode="Æ" d="M426 235v409l-214 -409h214zM867 0h-441v169h-247l-88 -169h-83l376 712h483v-68h-366v-253h312v-68h-312v-255h366v-68z"/>
<glyph glyph-name="Ccedilla" horiz-adv-x="637" unicode="Ç" d="M370 -67l-59 -149h-79l71 149h67zM572 206q-17 -100 -84 -156t-163 -56q-108 0 -182 74q-47 46 -57 102t-10 186t10 186t57 102q74 74 182 74q97 0 163 -56t84 -156h-78q-14 66 -58 105t-111 39q-75 0 -123 -50q-32 -33 -41 -80t-9 -164t9 -164t41 -80q48 -50 123 -50 q65 0 111 39t60 105h76z"/>
<glyph glyph-name="Egrave" horiz-adv-x="600" unicode="È" d="M362 781h-66l-108 153h86zM545 0h-442v712h442v-68h-366v-251h312v-68h-312v-257h366v-68z"/>
<glyph glyph-name="Eacute" horiz-adv-x="600" unicode="É" d="M438 934l-108 -153h-66l88 153h86zM545 0h-442v712h442v-68h-366v-251h312v-68h-312v-257h366v-68z"/>
<glyph glyph-name="Ecircumflex" horiz-adv-x="600" unicode="Ê" d="M472 781h-69l-90 104l-90 -104h-69l125 153h68zM545 0h-442v712h442v-68h-366v-251h312v-68h-312v-257h366v-68z"/>
<glyph glyph-name="Edieresis" horiz-adv-x="600" unicode="Ë" d="M243 789h-72v89h72v-89zM455 789h-72v89h72v-89zM545 0h-442v712h442v-68h-366v-251h312v-68h-312v-257h366v-68z"/>
<glyph glyph-name="Igrave" horiz-adv-x="282" unicode="Ì" d="M179 781h-66l-108 153h86zM179 0h-76v712h76v-712z"/>
<glyph glyph-name="Iacute" horiz-adv-x="282" unicode="Í" d="M277 934l-108 -153h-66l88 153h86zM179 0h-76v712h76v-712z"/>
<glyph glyph-name="Icircumflex" horiz-adv-x="282" unicode="Î" d="M299 781h-69l-90 104l-90 -104h-69l125 153h68zM179 0h-76v712h76v-712z"/>
<glyph glyph-name="Idieresis" horiz-adv-x="282" unicode="Ï" d="M71 789h-72v89h72v-89zM283 789h-72v89h72v-89zM179 0h-76v712h76v-712z"/>
<glyph glyph-name="Eth" horiz-adv-x="687" unicode="Ð" d="M535 352q0 107 -6 147t-30 74q-53 72 -151 72h-154v-256h161v-59h-161v-263h154q106 0 156 74q21 32 26 68t5 143zM611 356q0 -122 -8 -166t-36 -85q-75 -105 -211 -105h-239v330h-78v59h78v323h245q135 0 205 -107q30 -46 37 -88t7 -161z"/>
<glyph glyph-name="Ntilde" horiz-adv-x="732" unicode="Ñ" d="M523 844q-51 -50 -95 -50q-32 0 -71 23q-36 21 -56 21q-27 0 -59 -32l-37 36q51 51 95 51q34 0 71 -24q32 -20 56 -20q27 0 59 32zM629 0h-72l-378 571v-571h-76v712h72l378 -569v569h76v-712z"/>
<glyph glyph-name="Ograve" horiz-adv-x="650" unicode="Ò" d="M374 781h-66l-108 153h86zM498 356q0 118 -9 164t-41 79q-49 51 -123 51t-123 -51q-32 -33 -41 -79t-9 -164t9 -164t41 -79q49 -51 123 -51t123 51q32 33 41 79t9 164zM574 356q0 -130 -10 -186t-57 -102q-74 -74 -182 -74t-182 74q-47 46 -57 102t-10 186t10 186t57 102 q74 74 182 74t182 -74q47 -46 57 -102t10 -186z"/>
<glyph glyph-name="Oacute" horiz-adv-x="650" unicode="Ó" d="M450 934l-108 -153h-66l88 153h86zM498 356q0 118 -9 164t-41 79q-49 51 -123 51t-123 -51q-32 -33 -41 -79t-9 -164t9 -164t41 -79q49 -51 123 -51t123 51q32 33 41 79t9 164zM574 356q0 -130 -10 -186t-57 -102q-74 -74 -182 -74t-182 74q-47 46 -57 102t-10 186 t10 186t57 102q74 74 182 74t182 -74q47 -46 57 -102t10 -186z"/>
<glyph glyph-name="Ocircumflex" horiz-adv-x="650" unicode="Ô" d="M484 781h-69l-90 104l-90 -104h-69l125 153h68zM498 356q0 118 -9 164t-41 79q-49 51 -123 51t-123 -51q-32 -33 -41 -79t-9 -164t9 -164t41 -79q49 -51 123 -51t123 51q32 33 41 79t9 164zM574 356q0 -130 -10 -186t-57 -102q-74 -74 -182 -74t-182 74q-47 46 -57 102 t-10 186t10 186t57 102q74 74 182 74t182 -74q47 -46 57 -102t10 -186z"/>
<glyph glyph-name="Otilde" horiz-adv-x="650" unicode="Õ" d="M482 844q-51 -50 -95 -50q-32 0 -71 23q-36 21 -56 21q-27 0 -59 -32l-37 36q51 51 95 51q33 0 71 -24q32 -20 56 -20q27 0 59 32zM498 356q0 118 -9 164t-41 79q-49 51 -123 51t-123 -51q-32 -33 -41 -79t-9 -164t9 -164t41 -79q49 -51 123 -51t123 51q32 33 41 79 t9 164zM574 356q0 -130 -10 -186t-57 -102q-74 -74 -182 -74t-182 74q-47 46 -57 102t-10 186t10 186t57 102q74 74 182 74t182 -74q47 -46 57 -102t10 -186z"/>
<glyph glyph-name="Odieresis" horiz-adv-x="650" unicode="Ö" d="M255 789h-72v89h72v-89zM467 789h-72v89h72v-89zM498 356q0 118 -9 164t-41 79q-49 51 -123 51t-123 -51q-32 -33 -41 -79t-9 -164t9 -164t41 -79q49 -51 123 -51t123 51q32 33 41 79t9 164zM574 356q0 -130 -10 -186t-57 -102q-74 -74 -182 -74t-182 74q-47 46 -57 102 t-10 186t10 186t57 102q74 74 182 74t182 -74q47 -46 57 -102t10 -186z"/>
<glyph glyph-name="multiply" d="M457 119l-45 -45l-151 151l-151 -151l-45 45l151 151l-151 151l45 45l151 -152l151 152l45 -45l-152 -151z" unicode="×"/>
<glyph glyph-name="Oslash" horiz-adv-x="652" unicode="Ø" d="M497 356q0 105 -6 150t-28 75l-234 -490q45 -29 96 -29q74 0 123 51q32 33 40 79t9 164zM421 621q-45 29 -96 29q-74 0 -123 -51q-32 -33 -41 -79t-9 -164q0 -104 6 -150t29 -75zM574 356q0 -130 -10 -186t-57 -102q-74 -74 -182 -74q-70 0 -126 32l-33 -70h-65l50 104 l-8 8q-47 46 -57 102t-10 186t10 186t57 102q74 74 182 74q70 0 125 -31l34 69h65l-50 -104l8 -8q47 -46 57 -102t10 -186z"/>
<glyph glyph-name="Ugrave" horiz-adv-x="683" unicode="Ù" d="M390 781h-66l-108 153h86zM590 235q0 -105 -70 -173t-179 -68q-108 0 -178 68t-70 173v477h76v-471q0 -81 47 -130t125 -49q77 0 125 49t48 130v471h76v-477z"/>
<glyph glyph-name="Uacute" horiz-adv-x="683" unicode="Ú" d="M466 934l-108 -153h-66l88 153h86zM590 235q0 -105 -70 -173t-179 -68q-108 0 -178 68t-70 173v477h76v-471q0 -81 47 -130t125 -49q77 0 125 49t48 130v471h76v-477z"/>
<glyph glyph-name="Ucircumflex" horiz-adv-x="683" unicode="Û" d="M500 781h-69l-90 104l-90 -104h-69l125 153h68zM590 235q0 -105 -70 -173t-179 -68q-108 0 -178 68t-70 173v477h76v-471q0 -81 47 -130t125 -49q77 0 125 49t48 130v471h76v-477z"/>
<glyph glyph-name="Udieresis" horiz-adv-x="683" unicode="Ü" d="M271 789h-72v89h72v-89zM483 789h-72v89h72v-89zM590 235q0 -105 -70 -173t-179 -68q-108 0 -178 68t-70 173v477h76v-471q0 -81 47 -130t125 -49q77 0 125 49t48 130v471h76v-477z"/>
<glyph glyph-name="Yacute" horiz-adv-x="514" unicode="Ý" d="M382 934l-108 -153h-66l88 153h86zM506 712l-210 -418v-294h-76v294l-212 418h82l168 -341l166 341h82z"/>
<glyph glyph-name="Thorn" horiz-adv-x="642" unicode="Þ" d="M512 359q0 69 -41 105t-110 36h-182v-282h182q69 0 110 36t41 105zM588 359q0 -95 -61 -152t-159 -57h-189v-150h-76v712h76v-143h189q98 1 159 -57t61 -153z"/>
<glyph glyph-name="germandbls" horiz-adv-x="556" unicode="ß" d="M484 141q0 -69 -39 -105t-103 -36h-54v62h40q35 0 59 20q25 20 25 67v169q0 41 -21 62t-59 21h-44v60h36q40 1 64 25t24 66q0 46 -31 75q-30 29 -94 29q-124 0 -124 -135v-521h-73v524q0 93 54 144t147 51q85 0 139 -42t54 -124q0 -78 -63 -119q35 -20 49 -46t14 -74 v-173z"/>
<glyph glyph-name="agrave" horiz-adv-x="526" unicode="à" d="M301 594h-66l-108 153h86zM369 174v53h-138q-110 0 -110 -87q0 -84 113 -84q76 0 110 33q25 24 25 85zM441 0h-72v47q-30 -29 -61 -41t-81 -12q-95 0 -139 45q-37 37 -37 100q1 66 45 104t125 38h148v47q0 56 -30 82t-96 26q-47 0 -75 -12t-49 -44l-49 45q32 41 72 57 t102 16q197 0 197 -164v-334z"/>
<glyph glyph-name="aacute" horiz-adv-x="526" unicode="á" d="M377 747l-108 -153h-66l88 153h86zM369 174v53h-138q-110 0 -110 -87q0 -84 113 -84q76 0 110 33q25 24 25 85zM441 0h-72v47q-30 -29 -61 -41t-81 -12q-95 0 -139 45q-37 37 -37 100q1 66 45 104t125 38h148v47q0 56 -30 82t-96 26q-47 0 -75 -12t-49 -44l-49 45 q32 41 72 57t102 16q197 0 197 -164v-334z"/>
<glyph glyph-name="acircumflex" horiz-adv-x="526" unicode="â" d="M411 594h-69l-90 104l-90 -104h-69l125 153h68zM369 174v53h-138q-110 0 -110 -87q0 -84 113 -84q76 0 110 33q25 24 25 85zM441 0h-72v47q-30 -29 -61 -41t-81 -12q-95 0 -139 45q-37 37 -37 100q1 66 45 104t125 38h148v47q0 56 -30 82t-96 26q-47 0 -75 -12t-49 -44 l-49 45q32 41 72 57t102 16q197 0 197 -164v-334z"/>
<glyph glyph-name="atilde" horiz-adv-x="526" unicode="ã" d="M409 658q-50 -51 -95 -51q-30 0 -71 24q-35 20 -56 20q-27 0 -59 -32l-37 36q51 51 95 51q33 0 71 -24q35 -20 56 -20q27 0 59 32zM369 174v53h-138q-110 0 -110 -87q0 -84 113 -84q76 0 110 33q25 24 25 85zM441 0h-72v47q-30 -29 -61 -41t-81 -12q-95 0 -139 45 q-37 37 -37 100q1 66 45 104t125 38h148v47q0 56 -30 82t-96 26q-47 0 -75 -12t-49 -44l-49 45q32 41 72 57t102 16q197 0 197 -164v-334z"/>
<glyph glyph-name="adieresis" horiz-adv-x="526" unicode="ä" d="M182 602h-72v89h72v-89zM394 602h-72v89h72v-89zM369 174v53h-138q-110 0 -110 -87q0 -84 113 -84q76 0 110 33q25 24 25 85zM441 0h-72v47q-30 -29 -61 -41t-81 -12q-95 0 -139 45q-37 37 -37 100q1 66 45 104t125 38h148v47q0 56 -30 82t-96 26q-47 0 -75 -12t-49 -44 l-49 45q32 41 72 57t102 16q197 0 197 -164v-334z"/>
<glyph glyph-name="aring" horiz-adv-x="526" unicode="å" d="M321 687q0 28 -20 48t-49 20t-49 -20t-20 -48q1 -29 21 -49t48 -20t48 20t21 49zM370 687q0 -49 -34 -84t-84 -35t-84 35t-34 84t34 83t84 35q50 -1 84 -35t34 -83zM369 174v53h-138q-110 0 -110 -87q0 -84 113 -84q76 0 110 33q25 24 25 85zM441 0h-72v47 q-30 -29 -61 -41t-81 -12q-95 0 -139 45q-37 37 -37 100q1 66 45 104t125 38h148v47q0 56 -30 82t-96 26q-47 0 -75 -12t-49 -44l-49 45q32 41 72 57t102 16q197 0 197 -164v-334z"/>
<glyph glyph-name="ae" horiz-adv-x="835" unicode="æ" d="M701 281q-3 52 -15 82q-14 34 -45 54t-70 20t-70 -20t-45 -54q-14 -33 -16 -82h261zM369 174v53h-138q-110 0 -110 -87q0 -84 113 -84q76 0 110 33q25 24 25 85zM773 227h-333q0 -81 38 -125t108 -45q42 0 70 13t58 43l50 -43q-40 -40 -81 -58t-101 -18q-122 0 -175 85 q-33 -47 -74 -66t-106 -19q-95 0 -139 45q-37 37 -37 100q1 66 45 104t125 38h148v47q0 56 -30 82t-96 26q-47 0 -75 -12t-49 -44l-49 45q32 41 72 57t102 16q132 0 173 -77q52 77 154 77q95 0 149 -64t53 -174v-33z"/>
<glyph glyph-name="ccedilla" horiz-adv-x="490" unicode="ç" d="M313 -67l-59 -149h-79l71 149h67zM443 67q-38 -41 -74 -57t-88 -16q-97 0 -157 65t-61 187q1 122 61 187t157 65q52 0 88 -16t74 -57l-49 -46q-28 31 -53 43t-60 12q-75 0 -114 -56q-32 -45 -32 -132t32 -132q39 -56 114 -56q35 0 60 12t53 44z"/>
<glyph glyph-name="egrave" horiz-adv-x="530" unicode="è" d="M317 594h-66l-108 153h86zM395 281q-3 52 -15 82q-14 34 -45 54t-70 20t-70 -20t-45 -54q-12 -30 -15 -82h260zM467 227h-332q-1 -81 37 -125t108 -45q42 0 70 13t59 43l49 -43q-40 -40 -80 -58t-100 -18q-101 0 -158 62t-57 190q0 120 54 186t148 66q95 0 149 -64 t53 -174v-33z"/>
<glyph glyph-name="eacute" horiz-adv-x="530" unicode="é" d="M393 747l-108 -153h-66l88 153h86zM395 281q-3 52 -15 82q-14 34 -45 54t-70 20t-70 -20t-45 -54q-12 -30 -15 -82h260zM467 227h-332q-1 -81 37 -125t108 -45q42 0 70 13t59 43l49 -43q-40 -40 -80 -58t-100 -18q-101 0 -158 62t-57 190q0 120 54 186t148 66 q95 0 149 -64t53 -174v-33z"/>
<glyph glyph-name="ecircumflex" horiz-adv-x="530" unicode="ê" d="M427 594h-69l-90 104l-90 -104h-69l125 153h68zM395 281q-3 52 -15 82q-14 34 -45 54t-70 20t-70 -20t-45 -54q-12 -30 -15 -82h260zM467 227h-332q-1 -81 37 -125t108 -45q42 0 70 13t59 43l49 -43q-40 -40 -80 -58t-100 -18q-101 0 -158 62t-57 190q0 120 54 186 t148 66q95 0 149 -64t53 -174v-33z"/>
<glyph glyph-name="edieresis" horiz-adv-x="530" unicode="ë" d="M197 602h-72v89h72v-89zM409 602h-72v89h72v-89zM395 281q-3 52 -15 82q-14 34 -45 54t-70 20t-70 -20t-45 -54q-12 -30 -15 -82h260zM467 227h-332q-1 -81 37 -125t108 -45q42 0 70 13t59 43l49 -43q-40 -40 -80 -58t-100 -18q-101 0 -158 62t-57 190q0 120 54 186 t148 66q95 0 149 -64t53 -174v-33z"/>
<glyph glyph-name="igrave" horiz-adv-x="253" unicode="ì" d="M163 594h-66l-108 153h86zM162 0h-72v492h72v-492z"/>
<glyph glyph-name="iacute" horiz-adv-x="253" unicode="í" d="M264 747l-108 -153h-66l88 153h86zM162 0h-72v492h72v-492z"/>
<glyph glyph-name="icircumflex" horiz-adv-x="253" unicode="î" d="M288 594h-69l-90 104l-90 -104h-69l125 153h68zM162 0h-72v492h72v-492z"/>
<glyph glyph-name="idieresis" horiz-adv-x="253" unicode="ï" d="M57 602h-72v89h72v-89zM269 602h-72v89h72v-89zM162 0h-72v492h72v-492z"/>
<glyph glyph-name="eth" horiz-adv-x="530" unicode="ð" d="M393 244q0 112 -39 151q-36 36 -89 36q-52 0 -88 -36q-39 -39 -39 -151q0 -111 39 -150q36 -36 88 -36q53 0 89 36q39 39 39 150zM465 244q0 -135 -60 -195q-53 -55 -140 -55t-140 55q-59 59 -59 195t59 195q46 47 122 52h14q39 0 61 -10l-58 99h-116v52h88l-47 82h75 l47 -82h82v-52h-54l63 -111q39 -68 51 -113t12 -112z"/>
<glyph glyph-name="ntilde" horiz-adv-x="562" unicode="ñ" d="M442 658q-50 -51 -95 -51q-30 0 -71 24q-35 20 -56 20q-27 0 -59 -32l-37 36q51 51 95 51q33 0 71 -24q35 -20 56 -20q27 0 59 32zM477 0h-72v303q0 63 -32 97t-89 34q-58 0 -90 -34t-32 -97v-303h-72v492h72v-54q52 60 138 60q80 0 126 -46q51 -50 51 -137v-315z"/>
<glyph glyph-name="ograve" horiz-adv-x="530" unicode="ò" d="M304 594h-66l-108 153h86zM394 246q0 113 -39 152q-36 36 -90 36q-53 0 -89 -36q-40 -40 -40 -152t40 -152q36 -36 89 -36q54 0 90 36q39 39 39 152zM466 246q0 -135 -60 -196q-56 -56 -141 -56t-141 56q-60 61 -60 196t60 196q56 56 141 56t141 -56q60 -61 60 -196z"/>
<glyph glyph-name="oacute" horiz-adv-x="530" unicode="ó" d="M390 747l-108 -153h-66l88 153h86zM394 246q0 113 -39 152q-36 36 -90 36q-53 0 -89 -36q-40 -40 -40 -152t40 -152q36 -36 89 -36q54 0 90 36q39 39 39 152zM466 246q0 -135 -60 -196q-56 -56 -141 -56t-141 56q-60 61 -60 196t60 196q56 56 141 56t141 -56 q60 -61 60 -196z"/>
<glyph glyph-name="ocircumflex" horiz-adv-x="530" unicode="ô" d="M424 594h-69l-90 104l-90 -104h-69l125 153h68zM394 246q0 113 -39 152q-36 36 -90 36q-53 0 -89 -36q-40 -40 -40 -152t40 -152q36 -36 89 -36q54 0 90 36q39 39 39 152zM466 246q0 -135 -60 -196q-56 -56 -141 -56t-141 56q-60 61 -60 196t60 196q56 56 141 56t141 -56 q60 -61 60 -196z"/>
<glyph glyph-name="otilde" horiz-adv-x="530" unicode="õ" d="M422 658q-50 -51 -95 -51q-30 0 -71 24q-35 20 -56 20q-27 0 -59 -32l-37 36q51 51 95 51q33 0 71 -24q35 -20 56 -20q27 0 59 32zM394 246q0 113 -39 152q-36 36 -90 36q-53 0 -89 -36q-40 -40 -40 -152t40 -152q36 -36 89 -36q54 0 90 36q39 39 39 152zM466 246 q0 -135 -60 -196q-56 -56 -141 -56t-141 56q-60 61 -60 196t60 196q56 56 141 56t141 -56q60 -61 60 -196z"/>
<glyph glyph-name="odieresis" horiz-adv-x="530" unicode="ö" d="M195 602h-72v89h72v-89zM407 602h-72v89h72v-89zM394 246q0 113 -39 152q-36 36 -90 36q-53 0 -89 -36q-40 -40 -40 -152t40 -152q36 -36 89 -36q54 0 90 36q39 39 39 152zM466 246q0 -135 -60 -196q-56 -56 -141 -56t-141 56q-60 61 -60 196t60 196q56 56 141 56 t141 -56q60 -61 60 -196z"/>
<glyph glyph-name="divide" d="M304 404h-86v86h86v-86zM304 49h-86v86h86v-86zM471 236h-420v67h420v-67z" unicode="÷"/>
<glyph glyph-name="oslash" horiz-adv-x="530" unicode="ø" d="M337 413q-30 21 -72 21q-53 0 -89 -36q-40 -40 -40 -152q0 -92 25 -133zM394 246q0 94 -24 133l-177 -299q31 -22 72 -22q54 0 90 36q39 39 39 152zM466 246q0 -135 -60 -196q-56 -56 -141 -56q-59 0 -105 27l-38 -65h-57l57 96q-58 60 -58 194q0 135 60 196 q56 56 141 56q59 0 105 -27l39 65h56l-57 -96q58 -60 58 -194z"/>
<glyph glyph-name="ugrave" horiz-adv-x="562" unicode="ù" d="M327 594h-66l-108 153h86zM472 0h-71v55q-53 -61 -139 -61q-81 0 -127 46q-50 49 -50 138v314h72v-303q-1 -63 31 -97t89 -34t90 34t33 97v303h72v-492z"/>
<glyph glyph-name="uacute" horiz-adv-x="562" unicode="ú" d="M403 747l-108 -153h-66l88 153h86zM472 0h-71v55q-53 -61 -139 -61q-81 0 -127 46q-50 49 -50 138v314h72v-303q-1 -63 31 -97t89 -34t90 34t33 97v303h72v-492z"/>
<glyph glyph-name="ucircumflex" horiz-adv-x="562" unicode="û" d="M437 594h-69l-90 104l-90 -104h-69l125 153h68zM472 0h-71v55q-53 -61 -139 -61q-81 0 -127 46q-50 49 -50 138v314h72v-303q-1 -63 31 -97t89 -34t90 34t33 97v303h72v-492z"/>
<glyph glyph-name="udieresis" horiz-adv-x="562" unicode="ü" d="M207 602h-72v89h72v-89zM419 602h-72v89h72v-89zM472 0h-71v55q-53 -61 -139 -61q-81 0 -127 46q-50 49 -50 138v314h72v-303q-1 -63 31 -97t89 -34t90 34t33 97v303h72v-492z"/>
<glyph glyph-name="yacute" horiz-adv-x="445" unicode="ý" d="M349 747l-108 -153h-66l88 153h86zM436 492l-224 -611q-14 -39 -35 -58q-35 -34 -96 -34h-31v64h22q36 0 52 13t29 48l35 96l-177 482h78l135 -395l134 395h78z"/>
<glyph glyph-name="thorn" horiz-adv-x="546" unicode="þ" d="M409 246q-1 41 -5 71q-4 31 -16 59t-38 43t-64 15t-64 -15t-38 -43t-18 -59q-4 -30 -4 -71t4 -71q4 -31 18 -59q12 -28 38 -43t64 -15t64 15t38 43t16 59q4 30 5 71zM481 246q0 -149 -60 -209q-43 -43 -120 -43q-89 0 -139 64v-278h-72v932h72v-277q49 63 139 63 q77 0 120 -43q60 -60 60 -209z"/>
<glyph glyph-name="OE" horiz-adv-x="989" unicode="Œ" d="M497 356q-1 118 -9 164t-40 79q-49 51 -123 51t-123 -51q-32 -33 -41 -79t-9 -164t9 -164t41 -79q49 -51 123 -51t123 51q32 33 40 79t9 164zM933 0h-436v74q-65 -80 -173 -80q-107 0 -181 74q-47 46 -57 102t-10 186t10 186t57 102q74 74 181 74q108 0 173 -80v74h434 v-67h-357v-254h304v-64h-305v-260h360v-67z"/>
<glyph glyph-name="oe" horiz-adv-x="861" unicode="œ" d="M727 281q-2 49 -16 82q-14 34 -45 54t-70 20t-70 -20t-45 -54q-12 -30 -15 -82h261zM394 246q0 113 -39 152q-36 36 -90 36q-53 0 -89 -36q-40 -40 -40 -152t40 -152q36 -36 89 -36q54 0 90 36q39 39 39 152zM798 227h-332q0 -81 38 -125t107 -45q43 0 71 13t58 43 l49 -43q-40 -40 -80 -58t-100 -18q-124 0 -177 95q-23 -45 -67 -70t-100 -25q-85 0 -141 56q-60 61 -60 196t60 196q56 56 141 56q57 0 101 -25t67 -70q51 95 163 95q94 0 148 -64t54 -174v-33z"/>
<glyph glyph-name="Scaron" horiz-adv-x="588" unicode="Š" d="M448 934l-125 -153h-68l-125 153h69l90 -105l90 105h69zM532 196q0 -94 -67 -148t-179 -54q-80 0 -137 22t-107 72l52 52q44 -42 88 -60t106 -18q78 0 123 35t45 97q0 59 -34 89q-17 15 -35 21t-58 13l-83 13q-85 14 -131 54q-54 48 -54 133q-1 91 61 146t167 55 q68 0 117 -18t95 -60l-49 -49q-67 61 -166 61q-70 0 -110 -36t-40 -96q0 -54 32 -82q33 -29 96 -39l78 -12q87 -13 130 -50q60 -51 60 -141z"/>
<glyph glyph-name="scaron" horiz-adv-x="496" unicode="š" d="M405 747l-125 -153h-68l-125 153h69l90 -105l90 105h69zM445 144q-1 -70 -55 -110t-145 -40q-128 0 -202 71l48 48q54 -57 153 -57q62 0 96 22t35 65q0 65 -82 72l-81 7q-147 12 -147 132q1 66 51 105t130 39q112 0 177 -53l-47 -47q-51 39 -131 39q-53 1 -81 -21 t-29 -60q0 -65 86 -72l79 -7q70 -6 108 -37t37 -96z"/>
<glyph glyph-name="Ydieresis" horiz-adv-x="514" unicode="Ÿ" d="M187 789h-72v89h72v-89zM399 789h-72v89h72v-89zM506 712l-210 -418v-294h-76v294l-212 418h82l168 -341l166 341h82z"/>
<glyph glyph-name="circumflex" horiz-adv-x="500" unicode="ˆ" d="M409 594h-69l-90 104l-90 -104h-69l125 153h68z"/>
<glyph glyph-name="tilde" horiz-adv-x="530" unicode="˜" d="M422 658q-50 -51 -95 -51q-30 0 -71 24q-35 20 -56 20q-27 0 -59 -32l-37 36q51 51 95 51q33 0 71 -24q35 -20 56 -20q27 0 59 32z"/>
<glyph glyph-name="Alpha" horiz-adv-x="611" unicode="Α" d="M439 227l-132 376l-134 -376h266zM599 0h-81l-57 161h-311l-57 -161h-81l262 712h64z"/>
<glyph glyph-name="Beta" horiz-adv-x="668" unicode="Β" d="M505 521q-1 61 -39 92t-101 31h-186v-247h186q62 -1 101 31t39 93zM516 199q0 60 -38 95t-105 35h-194v-261h194q67 0 105 36t38 95zM592 197q0 -95 -58 -146t-154 -51h-277v712h268q94 0 152 -51t58 -139q1 -55 -29 -97t-76 -59q52 -19 84 -63t32 -106z"/>
<glyph glyph-name="Gamma" horiz-adv-x="549" unicode="Γ" d="M529 644h-350v-644h-76v712h426v-68z"/>
<glyph glyph-name="Delta" horiz-adv-x="603" unicode="Δ" d="M495 66l-193 537l-194 -537h387zM594 0h-586l262 712h63z"/>
<glyph glyph-name="Epsilon" horiz-adv-x="600" unicode="Ε" d="M545 0h-442v712h442v-68h-366v-251h312v-68h-312v-257h366v-68z"/>
<glyph glyph-name="Zeta" horiz-adv-x="556" unicode="Ζ" d="M499 0h-442v72l356 572h-342v68h428v-64l-359 -580h359v-68z"/>
<glyph glyph-name="Eta" horiz-adv-x="696" unicode="Η" d="M593 0h-76v325h-338v-325h-76v712h76v-319h338v319h76v-712z"/>
<glyph glyph-name="Theta" horiz-adv-x="650" unicode="Θ" d="M498 391q0 93 -10 135t-40 73q-49 51 -123 51t-123 -51q-30 -31 -40 -73t-10 -135h346zM498 324h-346q0 -96 10 -138t40 -73q49 -51 123 -51t123 51q30 31 40 73t10 138zM574 356q0 -130 -10 -186t-57 -102q-74 -74 -182 -74t-182 74q-47 46 -57 102t-10 186t10 186 t57 102q74 74 182 74t182 -74q47 -46 57 -102t10 -186z"/>
<glyph glyph-name="Iota" horiz-adv-x="282" unicode="Ι" d="M179 0h-76v712h76v-712z"/>
<glyph glyph-name="Kappa" horiz-adv-x="650" unicode="Κ" d="M636 0h-90l-217 379l-150 -180v-199h-76v712h76v-409l332 409h93l-224 -275z"/>
<glyph glyph-name="Lambda" horiz-adv-x="598" unicode="Λ" d="M568 0h-80l-188 604l-190 -604h-80l234 712h70z"/>
<glyph glyph-name="Mu" horiz-adv-x="816" unicode="Μ" d="M713 0h-76v541l-195 -429h-65l-198 429v-541h-76v712h76l232 -505l226 505h76v-712z"/>
<glyph glyph-name="Nu" horiz-adv-x="732" unicode="Ν" d="M629 0h-72l-378 571v-571h-76v712h72l378 -569v569h76v-712z"/>
<glyph glyph-name="Xi" horiz-adv-x="573" unicode="Ξ" d="M518 0h-463v68h193v257h-139v68h139v251h-193v68h463v-68h-194v-251h140v-68h-140v-257h194v-68z"/>
<glyph glyph-name="Omicron" horiz-adv-x="650" unicode="Ο" d="M498 356q0 118 -9 164t-41 79q-49 51 -123 51t-123 -51q-32 -33 -41 -79t-9 -164t9 -164t41 -79q49 -51 123 -51t123 51q32 33 41 79t9 164zM574 356q0 -130 -10 -186t-57 -102q-74 -74 -182 -74t-182 74q-47 46 -57 102t-10 186t10 186t57 102q74 74 182 74t182 -74 q47 -46 57 -102t10 -186z"/>
<glyph glyph-name="Pi" horiz-adv-x="681" unicode="Π" d="M578 0h-76v644h-323v-644h-76v712h475v-712z"/>
<glyph glyph-name="Rho" horiz-adv-x="630" unicode="Ρ" d="M512 503q0 69 -41 105t-110 36h-182v-283h182q69 1 110 37t41 105zM588 503q0 -95 -61 -153t-159 -57h-189v-293h-76v712h265q98 0 159 -57t61 -152z"/>
<glyph glyph-name="Sigma" horiz-adv-x="557" unicode="Σ" d="M500 644h-339l168 -261l-189 -315h359v-68h-442v71l187 310l-172 269v62h428v-68z"/>
<glyph glyph-name="Tau" horiz-adv-x="548" unicode="Τ" d="M518 644h-206v-644h-76v644h-206v68h488v-68z"/>
<glyph glyph-name="Upsilon" horiz-adv-x="514" unicode="Υ" d="M506 712l-210 -418v-294h-76v294l-212 418h82l168 -341l166 341h82z"/>
<glyph glyph-name="Phi" horiz-adv-x="732" unicode="Φ" d="M328 130v462q-90 0 -142 -53q-32 -33 -40 -75t-8 -103q0 -40 2 -65t14 -58t32 -55q50 -53 142 -53zM594 361q0 41 -2 65t-13 58t-32 55q-52 53 -143 53v-462q93 0 143 53q21 21 32 55t13 58t2 65zM670 361q0 -77 -12 -129t-53 -93q-77 -77 -201 -77v-62h-76v62 q-124 0 -201 77q-41 41 -53 93t-12 129t12 129t53 93q77 77 201 77v52h76v-52q124 0 201 -77q41 -41 53 -93t12 -129z"/>
<glyph glyph-name="Chi" horiz-adv-x="551" unicode="Χ" d="M536 0h-88l-173 299l-174 -299h-86l218 365l-204 347h88l158 -281l158 281h88l-205 -347z"/>
<glyph glyph-name="Psi" horiz-adv-x="675" unicode="Ψ" d="M623 370q-1 -54 -15 -91t-48 -71q-74 -74 -182 -74h-2v-134h-76v134h-3q-108 0 -182 74q-35 34 -49 71t-14 91v342h76v-342q0 -42 11 -68t35 -50q48 -50 123 -50h3v510h76v-510h2q75 0 123 50q24 24 35 50t11 68v342h76v-342z"/>
<glyph glyph-name="alpha" horiz-adv-x="545" unicode="α" d="M383 246q-1 41 -5 71q-4 31 -16 59t-38 43t-64 15t-64 -15t-38 -43t-18 -59q-4 -30 -4 -71t4 -71q4 -31 18 -59q12 -28 38 -43t64 -15t64 15t38 43t16 59q4 30 5 71zM455 0h-71v59q-51 -65 -140 -65q-77 0 -120 43q-60 60 -60 209t60 209q43 43 120 43q46 0 78 -14 t61 -49v57h72v-492z"/>
<glyph glyph-name="beta" horiz-adv-x="553" unicode="β" d="M435 205q0 45 -13 75q-14 30 -38 44t-50 20q-26 5 -62 5h-59v57h61q125 0 125 126q0 62 -32 92t-84 29q-61 0 -91 -38t-30 -101v-309q0 -61 34 -105t100 -44q69 0 104 44t35 105zM505 202q-1 -84 -55 -146t-132 -62q-54 0 -90 14t-67 51v-59h-71v533q0 79 54 129t137 50 q85 0 136 -44t51 -126q0 -54 -24 -98t-73 -58q134 -22 134 -184z"/>
<glyph glyph-name="gamma" horiz-adv-x="447" unicode="γ" d="M435 492l-176 -487v-225h-71v225l-176 487h77l135 -398l134 398h77z"/>
<glyph glyph-name="delta" horiz-adv-x="531" unicode="δ" d="M394 246q0 105 -37 147q-34 39 -89 39q-57 0 -92 -37q-40 -41 -40 -149t38 -149q36 -39 91 -39q57 0 92 38q37 40 37 150zM467 253q0 -142 -62 -205q-52 -54 -141 -54q-86 0 -138 54q-62 63 -62 198q0 128 60 189q51 53 130 53q34 0 57 -11l-193 175v60h306v-60h-217 l158 -146q58 -54 80 -116t22 -137z"/>
<glyph glyph-name="epsilon" horiz-adv-x="493" unicode="ε" d="M450 73q-84 -79 -210 -79q-74 0 -126 37t-52 105q0 83 80 116q-71 28 -71 107q0 63 52 101t123 38q64 0 107 -16t85 -55l-45 -48q-64 58 -144 58q-40 -1 -72 -23t-32 -57q-1 -36 23 -57t68 -21h87v-57h-85q-54 0 -78 -24t-23 -59t31 -59t75 -24q91 0 157 61z"/>
<glyph glyph-name="zeta" horiz-adv-x="470" unicode="ζ" d="M434 -45q0 -51 -32 -83t-105 -32v56q72 0 72 54q0 26 -18 38t-57 12h-48q-100 0 -147 30t-47 101q0 78 67 134q168 147 195 163h-232v64h343v-64l-152 -126q-15 -12 -43 -35t-38 -31t-26 -25q-16 -16 -22 -26t-11 -24t-5 -29q0 -38 32 -52t98 -14h39q61 0 99 -27t38 -84z "/>
<glyph glyph-name="eta" horiz-adv-x="562" unicode="η" d="M477 0h-72v303q0 63 -32 97t-89 34q-58 0 -90 -34t-32 -97v-303h-72v492h72v-54q52 60 138 60q80 0 126 -46q51 -50 51 -137v-315z"/>
<glyph glyph-name="theta" horiz-adv-x="552" unicode="θ" d="M410 409q-2 163 -48 209q-36 36 -86 36t-86 -36q-46 -46 -48 -209h268zM410 346h-269q0 -58 1 -90t13 -86t35 -76q37 -37 86 -37t86 37q22 22 34 71t12 82q2 33 2 88v11zM482 356q0 -136 -12 -192q-16 -73 -56 -114q-56 -56 -138 -56q-81 0 -137 56q-25 25 -40 59t-21 80 t-7 74t-1 79v14v14q0 50 1 79t7 74t21 79t40 60q56 56 137 56q82 0 138 -56q32 -32 48 -88t18 -95q2 -38 2 -105v-18z"/>
<glyph glyph-name="iota" horiz-adv-x="297" unicode="ι" d="M265 0h-52q-61 0 -93 36t-32 95v361h72v-358q0 -36 15 -54t51 -18h39v-62z"/>
<glyph glyph-name="kappa" horiz-adv-x="536" unicode="κ" d="M503 0h-89l-156 252l-96 -109v-143h-72v492h72v-256l222 256h89l-166 -188z"/>
<glyph glyph-name="lambda" horiz-adv-x="479" unicode="λ" d="M487 0h-28q-52 0 -86 31q-23 22 -36 61l-97 302l-1 -1l-145 -393h-78l191 483l-37 117q-10 32 -25 42t-47 10h-18v62h23q51 0 81 -20t46 -67l167 -507q19 -58 67 -58h23v-62z"/>
<glyph glyph-name="mu" horiz-adv-x="561" unicode="μ" d="M471 0h-72v55q-53 -61 -138 -61q-66 0 -106 37v-251h-72v712h72v-303q0 -63 32 -97t89 -34t90 34t33 97v303h72v-492z"/>
<glyph glyph-name="nu" horiz-adv-x="447" unicode="ν" d="M435 492l-180 -492h-63l-180 492h77l135 -395l134 395h77z"/>
<glyph glyph-name="xi" horiz-adv-x="492" unicode="ξ" d="M472 615l-46 -45q-65 68 -140 68q-56 0 -90 -34t-34 -91q0 -113 122 -113h120v-63h-118q-57 0 -104 -37t-47 -106q0 -66 42 -98t108 -32h53q52 0 86 -28t34 -81q0 -51 -32 -83t-105 -32v56q71 0 71 54q0 26 -18 38t-56 12h-55q-87 0 -145 53t-58 138q0 67 34 115t90 65 q-44 13 -70 52t-26 90q0 83 56 135t142 52q109 0 186 -85z"/>
<glyph glyph-name="omicron" horiz-adv-x="530" unicode="ο" d="M394 246q0 113 -39 152q-36 36 -90 36q-53 0 -89 -36q-40 -40 -40 -152t40 -152q36 -36 89 -36q54 0 90 36q39 39 39 152zM466 246q0 -135 -60 -196q-56 -56 -141 -56t-141 56q-60 61 -60 196t60 196q56 56 141 56t141 -56q60 -61 60 -196z"/>
<glyph glyph-name="pi" horiz-adv-x="591" unicode="π" d="M490 0h-69v427h-250v-427h-70v492h389v-492z"/>
<glyph glyph-name="rho" horiz-adv-x="517" unicode="ρ" d="M381 246q0 106 -30 147q-30 40 -93 40q-57 0 -87 -38q-35 -43 -35 -146q0 -99 25 -139q33 -51 97 -51q38 -1 64 15t38 45t16 59t5 68zM453 245q0 -145 -66 -208q-45 -43 -121 -43q-74 0 -130 62v-276h-72v495q0 112 58 170q53 53 135 53q94 0 146 -63q50 -61 50 -190z "/>
<glyph glyph-name="sigma1" horiz-adv-x="490" unicode="ς" d="M443 425l-49 -46q-28 31 -53 43t-60 12q-75 0 -114 -56q-32 -45 -32 -132q0 -80 31 -125q38 -54 123 -56q148 -2 148 -110q0 -51 -33 -83t-105 -32v56q72 0 72 54q0 32 -22 41t-61 9q-105 2 -165 64t-60 182q0 122 60 187t158 65q53 0 89 -16t73 -57z"/>
<glyph glyph-name="sigma" horiz-adv-x="546" unicode="σ" d="M395 246q0 103 -38 146q-35 38 -93 38q-55 0 -91 -39q-37 -42 -37 -145q0 -107 36 -148q37 -40 92 -40q56 0 93 40q38 43 38 148zM486 428h-90q70 -49 70 -182q0 -68 -13 -114t-46 -80q-56 -58 -143 -58q-86 0 -142 58q-58 61 -58 194q0 68 12 112t46 79q53 55 142 55 h222v-64z"/>
<glyph glyph-name="tau" horiz-adv-x="378" unicode="τ" d="M346 428h-121v-428h-72v428h-121v64h314v-64z"/>
<glyph glyph-name="upsilon" horiz-adv-x="521" unicode="υ" d="M453 245q-1 -67 -11 -113t-46 -82q-56 -56 -136 -56q-79 0 -135 56q-37 36 -47 82t-10 113v247h71v-247v-10q0 -33 1 -51q2 -18 10 -46q8 -26 24 -42q38 -38 86 -38t86 38q18 18 26 48t8 45t1 56v247h72v-247z"/>
<glyph glyph-name="phi" horiz-adv-x="659" unicode="φ" d="M522 253q0 44 -5 72q-5 27 -21 53t-48 38t-83 12v-370q52 1 85 16q33 14 48 44q16 30 20 59t4 76zM595 250q1 -128 -51 -192t-179 -64v-214h-72v214q-229 3 -229 254q0 174 130 243l22 -60q-80 -51 -80 -186q0 -39 6 -69t21 -58q17 -28 49 -43t81 -17v434h83 q116 0 168 -60t51 -182z"/>
<glyph glyph-name="chi" horiz-adv-x="478" unicode="χ" d="M445 0h-87l-118 191l-120 -191h-87l167 251l-160 241h87l113 -182l111 182h87l-160 -241z"/>
<glyph glyph-name="psi" horiz-adv-x="641" unicode="ψ" d="M573 246q0 -124 -50 -186t-167 -65v-215h-73v215q-117 3 -166 65t-49 186v246h72v-246q0 -96 29 -139t114 -46v431h73v-431q86 3 115 46t29 139v246h73v-246z"/>
<glyph glyph-name="endash" d="M470 236h-418v67h418v-67z" unicode="–"/>
<glyph glyph-name="emdash" horiz-adv-x="914" unicode="—" d="M838 236h-762v68h762v-68z"/>
<glyph glyph-name="quoteleft" horiz-adv-x="263" unicode="‘" d="M175 628h-87v84l87 79v-163z"/>
<glyph glyph-name="quotesinglbase" horiz-adv-x="263" unicode="‚" d="M175 0l-87 -79v163h87v-84z"/>
<glyph glyph-name="quotedblleft" horiz-adv-x="434" unicode="“" d="M175 628h-87v84l87 79v-163zM346 628h-88v84l88 79v-163z"/>
<glyph glyph-name="quotedblright" horiz-adv-x="434" unicode="”" d="M175 628l-87 -79v163h87v-84zM346 628l-88 -79v163h88v-84z"/>
<glyph glyph-name="dagger" horiz-adv-x="605" unicode="†" d="M531 445h-194v-445h-72v445h-191v64h191v203h72v-203h194v-64z"/>
<glyph glyph-name="daggerdbl" horiz-adv-x="605" unicode="‡" d="M531 -16h-194v-204h-72v204h-191v64h191v397h-191v64h191v203h72v-203h194v-64h-194v-397h194v-64z"/>
<glyph glyph-name="ellipsis" horiz-adv-x="757" unicode="…" d="M424 0h-92v92h92v-92zM180 0h-92v92h92v-92zM669 0h-92v92h92v-92z"/>
<glyph glyph-name="perthousand" horiz-adv-x="1179" unicode="‰" d="M278 481v101q0 87 -78 87t-78 -87v-101q0 -86 78 -86t78 86zM1058 130v101q0 87 -78 87t-78 -87v-101q0 -87 78 -87t78 87zM712 130v101q0 87 -78 87t-78 -87v-101q0 -87 78 -87t78 87zM614 712l-334 -712h-60l334 712h60zM335 479q0 -60 -38 -97t-97 -37t-97 37t-38 97 v105q0 61 38 98t97 37t97 -37t38 -98v-105zM769 128q0 -61 -38 -98t-97 -37t-97 37t-38 98v105q0 61 38 98t97 37t97 -37t38 -98v-105zM1115 128q0 -61 -38 -98t-97 -37t-97 37t-38 98v105q0 61 38 98t97 37t97 -37t38 -98v-105z"/>
<glyph glyph-name="guilsinglleft" horiz-adv-x="328" unicode="‹" d="M250 58l-210 210l210 210v-90l-120 -120l120 -121v-89z"/>
<glyph glyph-name="guilsinglright" horiz-adv-x="328" unicode="›" d="M288 268l-210 -210v89l121 121l-121 120v90z"/>
<glyph glyph-name="fraction" horiz-adv-x="185" unicode="⁄" d="M289 712l-333 -712h-60l333 712h60z"/>
<glyph glyph-name="Euro" horiz-adv-x="678" unicode="€" d="M608 206q-18 -100 -84 -156t-163 -56q-107 0 -181 74q-36 36 -50 79t-16 113h-67v50h66v98h-66v49h67q3 67 17 109t49 78q74 74 181 74q97 0 163 -56t84 -156h-77q-14 66 -59 105t-111 39q-73 0 -123 -50q-24 -25 -34 -56t-13 -87h219v-49h-221v-98h221v-50h-219 q2 -59 12 -91t35 -57q50 -50 123 -50q66 0 112 39t60 105h75z"/>
<glyph glyph-name="trademark" horiz-adv-x="839" unicode="™" d="M331 659h-119v-374h-58v374h-118v53h295v-53zM781 285h-57v308l-102 -202h-56l-102 202v-308h-58v427h58l130 -259l130 259h57v-427z"/>
<glyph glyph-name="arrowleft" horiz-adv-x="1027" unicode="←" d="M455 -130l-399 399l399 399h94l-365 -364h789v-70h-789l365 -364h-94z"/>
<glyph glyph-name="arrowup" horiz-adv-x="1027" unicode="↑" d="M115 328l399 399l399 -399v-94l-364 365v-789h-70v789l-364 -365v94z"/>
<glyph glyph-name="arrowright" horiz-adv-x="1027" unicode="→" d="M480 -130l365 364h-789v70h789l-365 364h94l399 -399l-399 -399h-94z"/>
<glyph glyph-name="arrowdown" horiz-adv-x="1027" unicode="↓" d="M913 208l-399 -399l-399 399v94l364 -365v789h70v-789l364 365v-94z"/>
<glyph glyph-name="partialdiff" horiz-adv-x="544" unicode="∂" d="M381 244q0 112 -37 151q-34 36 -84 36q-51 0 -85 -36q-37 -39 -37 -151q0 -111 37 -150q34 -36 85 -36q50 0 84 36q37 39 37 150zM453 244q0 -136 -57 -195q-52 -55 -136 -55q-85 0 -137 55q-57 59 -57 195q0 140 57 198q51 53 130 53q81 0 128 -58v70q1 65 -33 107 t-102 42q-40 0 -64 -12t-54 -38l-46 46q40 36 76 51t90 15q98 0 152 -59t53 -157v-258z"/>
<glyph glyph-name="product" horiz-adv-x="696" unicode="∏" d="M593 -220h-76v912h-338v-912h-76v980h490v-980z"/>
<glyph glyph-name="summation" horiz-adv-x="551" unicode="∑" d="M500 -220h-443v65l202 438l-201 413v64h441v-68h-353l180 -375v-69l-182 -400h356v-68z"/>
<glyph glyph-name="minus" d="M470 236h-418v67h418v-67z" unicode="−"/>
<glyph glyph-name="radical" horiz-adv-x="562" unicode="√" d="M532 644h-89l-211 -644h-61l-163 492h79l115 -356l184 576h146v-68z"/>
<glyph glyph-name="infinity" horiz-adv-x="808" unicode="∞" d="M671 266q1 42 -25 68t-67 25q-34 0 -62 -22t-68 -71q40 -49 68 -71t62 -22q41 -1 67 25t25 68zM358 266q-41 50 -68 72t-61 22q-41 0 -67 -26t-26 -68t26 -68t67 -25q33 0 61 22t68 71zM740 267q0 -69 -44 -114t-114 -45q-51 0 -92 24t-86 80q-45 -55 -86 -80t-91 -25 q-71 -1 -115 45t-45 115q1 69 45 115t115 45q49 1 91 -25t86 -81q46 56 86 81t92 25q70 1 114 -45t44 -115z"/>
<glyph glyph-name="logicaland" horiz-adv-x="270" unicode="∧" d="M182 223h-94v94h94v-94z"/>
<glyph glyph-name="approxequal" horiz-adv-x="539" unicode="≈" d="M490 366q-42 -40 -68 -54t-61 -14q-34 0 -106 32q-50 23 -78 23q-23 0 -39 -8t-45 -36l-44 44q41 41 67 55t62 14q33 0 105 -32q50 -23 78 -23q23 0 39 8t45 36zM490 189q-42 -41 -68 -55t-61 -13q-37 0 -106 31q-52 24 -77 24q-22 0 -39 -8t-45 -37l-45 45q41 40 67 54 t62 14q37 0 106 -31q52 -24 77 -24q22 1 39 9t45 36z"/>
<glyph glyph-name="notequal" horiz-adv-x="537" unicode="≠" d="M485 151h-284l-103 -111l-46 40l67 71h-67v66h126l99 103h-225v67h284l104 111l45 -41l-67 -70h67v-67h-126l-98 -103h224v-66z"/>
<glyph glyph-name="lessequal" d="M426 -16l-331 168v77l331 -168v-77zM426 134l-331 168v65l331 168v-77l-250 -124l250 -123v-77z" unicode="≤"/>
<glyph glyph-name="greaterequal" d="M426 152l-331 -168v77l331 168v-77zM426 302l-331 -168v77l250 123l-250 124v77l331 -168v-65z" unicode="≥"/>
<glyph glyph-name="dotmath" horiz-adv-x="270" unicode="⋅" d="M182 223h-94v94h94v-94z"/>
<glyph glyph-name="lozenge" horiz-adv-x="649" unicode="◊" d="M501 352l-176 253l-177 -253l177 -255zM582 352l-257 -364l-258 364l258 364z"/>
</font>
</defs>
</svg>
