<?xml version="1.0" standalone="no"?>
<!DOCTYPE svg PUBLIC "-//W3C//DTD SVG 1.1//EN" "http://www.w3.org/Graphics/SVG/1.1/DTD/svg11.dtd" >
<svg xmlns="http://www.w3.org/2000/svg" xmlns:xlink="http://www.w3.org/1999/xlink" version="1.1">
<metadata>
Created by FontForge 20170731 at Thu Sep  3 16:18:12 2015
 By Aleksey,,,
Copyright A^(c) 2004 - 2007 Linotype GmbH, www.linotype.com. All rights reserved.
</metadata>
<defs>
<font id="AvenirNextLTPro-Medium" horiz-adv-x="250" >
  <font-face 
    font-family="Avenir Next LT Pro Medium"
    font-weight="500"
    font-stretch="normal"
    units-per-em="1000"
    panose-1="0 0 0 0 0 0 0 0 0 0"
    ascent="800"
    descent="-200"
    x-height="474"
    cap-height="708"
    bbox="-440 -435 1369 1199"
    underline-thickness="50"
    underline-position="-200"
    unicode-range="U+000D-FE48"
  />
<missing-glyph horiz-adv-x="512" 
d="M0 718h512v-718h-512v718zM50 50h412v617h-412v-617zM271 234h-46l-2 17q0 56 13 81q17 33 46 59q30 29 40 46.5t10 36.5q0 36 -22.5 60.5t-53.5 24.5q-71 0 -82 -95l-50 8q6 69 42 103t93 34q55 0 89.5 -36t34.5 -95q0 -34 -13 -60t-50 -60q-37 -33 -43 -52
q-6 -20 -6 -72zM278 117h-56v67h56v-67z" />
    <glyph glyph-name=".notdef" horiz-adv-x="512" 
d="M0 718h512v-718h-512v718zM50 50h412v617h-412v-617zM271 234h-46l-2 17q0 56 13 81q17 33 46 59q30 29 40 46.5t10 36.5q0 36 -22.5 60.5t-53.5 24.5q-71 0 -82 -95l-50 8q6 69 42 103t93 34q55 0 89.5 -36t34.5 -95q0 -34 -13 -60t-50 -60q-37 -33 -43 -52
q-6 -20 -6 -72zM278 117h-56v67h56v-67z" />
    <glyph glyph-name=".null" horiz-adv-x="500" 
 />
    <glyph glyph-name=".null" horiz-adv-x="500" 
 />
    <glyph glyph-name="nonmarkingreturn" horiz-adv-x="333" 
 />
    <glyph glyph-name="CR" unicode="&#xd;" horiz-adv-x="0" 
 />
    <glyph glyph-name="space" unicode=" " 
 />
    <glyph glyph-name="exclam" unicode="!" horiz-adv-x="334" 
d="M234 60q0 -27 -19 -46.5t-48 -19.5q-28 0 -47.5 19.5t-19.5 45.5q0 27 19 46.5t48 19.5t48 -19t19 -46zM216 708v-501h-99v501h99z" />
    <glyph glyph-name="quotedbl" unicode="&#x22;" horiz-adv-x="423" 
d="M251 458v250h82v-250h-82zM90 458v250h82v-250h-82z" />
    <glyph glyph-name="numbersign" unicode="#" horiz-adv-x="574" 
d="M241 425l-20 -141h118l19 141h-117zM107 0l30 211h-96v73h106l19 141h-98v73h109l29 210h75l-30 -210h118l29 210h75l-30 -210h90v-73h-100l-20 -141h93v-73h-102l-30 -211h-75l30 211h-118l-30 -211h-74z" />
    <glyph glyph-name="dollar" unicode="$" horiz-adv-x="595" 
d="M264 418v223q-46 -3 -76 -32t-30 -78q0 -45 27 -71t79 -42zM315 309v-240q47 2 79.5 33t32.5 87q0 83 -112 120zM264 69v254q-43 12 -76 27t-63 38t-46 57.5t-16 79.5q0 85 58.5 137.5t142.5 56.5v70h51v-69q123 -2 197 -76l-68 -63q-46 58 -129 60v-238q37 -13 61.5 -23
t55 -28.5t48.5 -39t30.5 -52.5t12.5 -70q0 -91 -59.5 -145t-148.5 -56v-72h-51v72q-136 5 -223 99l73 62q25 -36 69 -58.5t81 -22.5z" />
    <glyph glyph-name="percent" unicode="%" horiz-adv-x="870" 
d="M686 707l-433 -739l-68 33l434 739zM312 543q0 39 -27.5 66.5t-66.5 27.5t-66.5 -27.5t-27.5 -66.5t27.5 -66.5t66.5 -27.5t66.5 27.5t27.5 66.5zM41 543q0 73 51.5 125t125.5 52t125.5 -52t51.5 -125t-51.5 -125t-125.5 -52t-125.5 52t-51.5 125zM746 165
q0 39 -27.5 66.5t-66.5 27.5t-66.5 -27.5t-27.5 -66.5t27.5 -66.5t66.5 -27.5t66.5 27.5t27.5 66.5zM475 165q0 73 51.5 125t125.5 52t125.5 -52t51.5 -125t-51.5 -125t-125.5 -52t-125.5 52t-51.5 125z" />
    <glyph glyph-name="ampersand" unicode="&#x26;" horiz-adv-x="723" 
d="M430 156l-168 176q-114 -48 -114 -142q0 -55 39.5 -89t92.5 -34q50 0 85 21.5t65 67.5zM407 558q0 38 -25.5 64t-65.5 26q-42 0 -68.5 -26t-26.5 -68q0 -60 70 -123q116 53 116 127zM686 378l-136 -211l162 -167h-131l-88 93q-84 -106 -215 -106q-98 0 -164 53.5
t-66 147.5q0 130 159 205q-81 85 -81 162q0 82 54.5 126.5t134.5 44.5q78 0 130.5 -44t52.5 -122q0 -117 -152 -187l141 -145l89 150h110z" />
    <glyph glyph-name="quotesingle" unicode="'" horiz-adv-x="262" 
d="M90 458v250h82v-250h-82z" />
    <glyph glyph-name="parenleft" unicode="(" horiz-adv-x="315" 
d="M119 288q0 -108 34.5 -213t94.5 -188l-68 -44q-68 92 -107 207t-39 238t39 238t107 207l68 -44q-60 -83 -94.5 -188t-34.5 -213z" />
    <glyph glyph-name="parenright" unicode=")" horiz-adv-x="315" 
d="M196 288q0 108 -34.5 213t-94.5 188l68 44q68 -92 107 -207t39 -238t-39 -238t-107 -207l-68 44q60 83 94.5 188t34.5 213z" />
    <glyph glyph-name="asterisk" unicode="*" horiz-adv-x="454" 
d="M262 579l127 41l27 -76l-127 -41l81 -109l-64 -48l-84 113l-84 -113l-64 48l81 109l-127 41l27 76l127 -41v129h80v-129z" />
    <glyph glyph-name="plus" unicode="+" horiz-adv-x="666" 
d="M374 566v-222h222v-82h-222v-222h-82v222h-222v82h222v222h82z" />
    <glyph glyph-name="comma" unicode="," horiz-adv-x="260" 
d="M197 117l-83 -250h-80l69 250h94z" />
    <glyph glyph-name="hyphen" unicode="-" horiz-adv-x="320" 
d="M276 284v-80h-232v80h232z" />
    <glyph glyph-name="period" unicode="." horiz-adv-x="260" 
d="M197 60q0 -27 -19 -46.5t-48 -19.5q-28 0 -47.5 19.5t-19.5 45.5q0 27 19 46.5t48 19.5t48 -19t19 -46z" />
    <glyph glyph-name="slash" unicode="/" horiz-adv-x="380" 
d="M376 716l-307 -749l-71 24l307 751z" />
    <glyph glyph-name="zero" unicode="0" horiz-adv-x="595" 
d="M298 645q-42 0 -71.5 -27.5t-44 -74t-21 -92.5t-6.5 -97t6.5 -97t21 -92t44 -73.5t71.5 -27.5q41 0 70.5 27.5t44 73.5t21 92.5t6.5 96.5t-6.5 97t-21 93t-44 73.5t-70.5 27.5zM298 726q81 0 136.5 -51t80 -132.5t24.5 -188.5q0 -165 -60.5 -268.5t-180.5 -103.5
q-121 0 -181.5 103.5t-60.5 268.5q0 107 24.5 188.5t80.5 132.5t137 51z" />
    <glyph glyph-name="one" unicode="1" horiz-adv-x="595" 
d="M379 708v-708h-97v590l-134 -112l-57 67l201 163h87z" />
    <glyph glyph-name="two" unicode="2" horiz-adv-x="595" 
d="M522 87v-87h-462v93l282 280q78 76 78 150q0 55 -36.5 88.5t-89.5 33.5t-88.5 -34t-44.5 -89l-95 16q12 82 75.5 135t153.5 53q93 0 158.5 -53.5t65.5 -147.5q0 -62 -29 -111t-85 -103l-230 -224h347z" />
    <glyph glyph-name="three" unicode="3" horiz-adv-x="595" 
d="M213 330v80h31q69 0 113.5 27t44.5 91q0 52 -36.5 84.5t-88.5 32.5q-91 0 -124 -87l-88 31q26 64 83.5 100.5t132.5 36.5q92 0 155 -51t63 -141q0 -58 -35 -102.5t-90 -58.5v-2q64 -12 104 -59t40 -114q0 -101 -70 -158.5t-167 -57.5q-87 0 -150 39t-91 117l90 30
q16 -47 55 -75.5t94 -28.5q58 0 100 35.5t42 99.5q0 68 -52.5 99.5t-125.5 31.5h-30z" />
    <glyph glyph-name="four" unicode="4" horiz-adv-x="595" 
d="M357 242v355h-2l-224 -355h226zM451 708v-466h102v-83h-102v-159h-94v159h-326v88l301 461h119z" />
    <glyph glyph-name="five" unicode="5" horiz-adv-x="595" 
d="M490 708v-86h-292l-6 -186q39 13 91 13q104 0 170.5 -61t66.5 -162q0 -109 -70 -176.5t-177 -67.5q-162 0 -226 142l88 35q18 -43 54.5 -69t83.5 -26q63 0 105.5 42.5t42.5 109.5q0 77 -47.5 116t-118.5 39q-82 0 -157 -39l10 376h382z" />
    <glyph glyph-name="six" unicode="6" horiz-adv-x="595" 
d="M150 214q0 -63 41 -106.5t106 -43.5t105.5 42.5t40.5 108.5q0 65 -40 106.5t-105 41.5q-66 0 -107 -41.5t-41 -107.5zM421 708l-190 -285l1 -2q32 19 88 19q94 0 157.5 -63t63.5 -159q0 -105 -69.5 -170.5t-174.5 -65.5q-106 0 -175.5 66t-69.5 167q0 92 69 201l185 292
h115z" />
    <glyph glyph-name="seven" unicode="7" horiz-adv-x="595" 
d="M515 708v-88l-284 -620h-111l295 622h-351v86h451z" />
    <glyph glyph-name="eight" unicode="8" horiz-adv-x="595" 
d="M159 198q0 -60 38.5 -97.5t100.5 -37.5q60 0 99 37.5t39 97.5q0 58 -39 96t-99 38t-99.5 -38t-39.5 -96zM182 530q0 -49 33 -82t83 -33q48 0 82 33.5t34 81.5q0 50 -34 83t-82 33q-51 0 -83.5 -32.5t-32.5 -83.5zM401 375v-2q58 -15 96 -64t38 -116q0 -96 -68.5 -153.5
t-168.5 -57.5t-169 57.5t-69 153.5q0 68 38 115t96 65v2q-50 18 -79.5 59t-29.5 99q0 86 62 139.5t151 53.5t150.5 -52.5t61.5 -138.5q0 -57 -30 -100.5t-79 -59.5z" />
    <glyph glyph-name="nine" unicode="9" horiz-adv-x="595" 
d="M446 494q0 64 -41 107.5t-106 43.5t-106 -42.5t-41 -109.5q0 -65 40.5 -106.5t105.5 -41.5q66 0 107 41.5t41 107.5zM175 0l190 286l-1 1q-16 -10 -41 -14q-27 -5 -48 -5q-94 0 -157.5 63t-63.5 159q0 105 69.5 170.5t175.5 65.5q105 0 174.5 -66.5t69.5 -166.5
q0 -95 -68 -201l-185 -292h-115z" />
    <glyph glyph-name="colon" unicode=":" horiz-adv-x="300" 
d="M217 60q0 -27 -19 -46.5t-48 -19.5q-28 0 -47.5 19.5t-19.5 45.5q0 27 19 46.5t48 19.5t48 -19t19 -46zM217 415q0 -27 -19 -46.5t-48 -19.5q-28 0 -47.5 19t-19.5 46t19 46.5t48 19.5t48 -19t19 -46z" />
    <glyph glyph-name="semicolon" unicode=";" horiz-adv-x="300" 
d="M206 117l-83 -250h-80l69 250h94zM217 415q0 -27 -19 -46.5t-48 -19.5q-28 0 -47.5 19t-19.5 46t19 46.5t48 19.5t48 -19t19 -46z" />
    <glyph glyph-name="less" unicode="&#x3c;" horiz-adv-x="666" 
d="M589 564v-85l-385 -176l383 -176v-85l-508 231v60z" />
    <glyph glyph-name="equal" unicode="=" horiz-adv-x="666" 
d="M70 261h526v-81h-526v81zM70 426h526v-81h-526v81z" />
    <glyph glyph-name="greater" unicode="&#x3e;" horiz-adv-x="666" 
d="M79 479v85l508 -231v-60l-508 -231v85l383 176z" />
    <glyph glyph-name="question" unicode="?" horiz-adv-x="500" 
d="M326 60q0 -27 -19 -46.5t-48 -19.5q-28 0 -47.5 19.5t-19.5 45.5q0 27 19 46.5t48 19.5t48 -19t19 -46zM301 236v-35h-94v48q0 49 17.5 80.5t55.5 68.5l37 35q51 47 51 99q0 48 -30.5 76.5t-78.5 28.5t-79 -31t-36 -79l-96 11q12 86 72 135.5t145 49.5q87 0 145 -49
t58 -136q0 -59 -22 -93t-74 -78q-43 -37 -57 -60.5t-14 -70.5z" />
    <glyph glyph-name="at" unicode="@" horiz-adv-x="800" 
d="M682 155l46 -53q-114 -120 -313 -120q-171 0 -276.5 103.5t-105.5 267.5q0 158 111.5 265.5t270.5 107.5q70 0 132.5 -20.5t112.5 -59t79.5 -101t29.5 -140.5q0 -115 -56.5 -180t-139.5 -65q-41 0 -64 20t-23 50h-5q-14 -27 -47 -48.5t-76 -21.5q-67 0 -105.5 45
t-38.5 118q0 89 56 157.5t142 68.5q37 0 64.5 -16t36.5 -41h2l9 42h76l-39 -188q-10 -47 -10 -71q0 -45 40 -45q44 0 72 47t28 120q0 123 -76.5 190t-200.5 67q-130 0 -212 -86t-82 -217q0 -135 84 -216t219 -81q152 0 259 101zM412 478q-50 0 -80 -49t-30 -109
q0 -34 16.5 -61.5t55.5 -27.5q38 0 65 26.5t37 59t10 65.5q0 96 -74 96z" />
    <glyph glyph-name="A" unicode="A" horiz-adv-x="711" 
d="M354 593l-133 -332h265zM186 174l-71 -174h-110l307 708h90l304 -708h-112l-72 174h-336z" />
    <glyph glyph-name="B" unicode="B" horiz-adv-x="642" 
d="M185 325v-241h124q47 0 84 10t64.5 38.5t27.5 73.5q0 119 -167 119h-133zM185 625v-216h129q61 0 100 28t39 82q0 106 -155 106h-113zM86 0v708h244q93 0 157.5 -43t64.5 -136q0 -58 -33.5 -98.5t-90.5 -55.5v-2q71 -8 114 -53.5t43 -118.5q0 -98 -75 -149.5t-191 -51.5
h-233z" />
    <glyph glyph-name="C" unicode="C" horiz-adv-x="708" 
d="M614 164l79 -54q-94 -128 -270 -128q-163 0 -268 104.5t-105 268.5t106.5 267.5t270.5 103.5q76 0 145.5 -29t108.5 -81l-78 -60q-27 37 -74.5 60t-101.5 23q-120 0 -194.5 -82t-74.5 -202q0 -123 73 -204t193 -81q124 0 190 94z" />
    <glyph glyph-name="D" unicode="D" horiz-adv-x="761" 
d="M185 622v-535h124q132 0 214 71.5t82 195.5q0 128 -81.5 198t-214.5 70h-124zM86 0v708h243q71 0 136.5 -20.5t121.5 -61.5t90 -111.5t34 -160.5q0 -87 -34 -157t-89.5 -111.5t-122 -63.5t-136.5 -22h-243z" />
    <glyph glyph-name="E" unicode="E" horiz-adv-x="601" 
d="M185 324v-236h370v-88h-469v708h454v-87h-355v-212h334v-85h-334z" />
    <glyph glyph-name="F" unicode="F" horiz-adv-x="568" 
d="M185 316v-316h-99v708h442v-87h-343v-220h321v-85h-321z" />
    <glyph glyph-name="G" unicode="G" horiz-adv-x="778" 
d="M689 634l-69 -72q-70 77 -192 77q-121 0 -195.5 -82t-74.5 -202q0 -122 74.5 -203t198.5 -81q103 0 165 35v197h-157v84h255v-343q-116 -62 -266 -62q-166 0 -272 104.5t-106 268.5t106.5 267.5t270.5 103.5q165 0 262 -92z" />
    <glyph glyph-name="H" unicode="H" horiz-adv-x="729" 
d="M86 0v708h99v-296h358v296h100v-708h-100v324h-358v-324h-99z" />
    <glyph glyph-name="I" unicode="I" horiz-adv-x="271" 
d="M185 708v-708h-99v708h99z" />
    <glyph glyph-name="J" unicode="J" horiz-adv-x="495" 
d="M15 132l92 26q8 -39 35.5 -63.5t66.5 -24.5q107 0 107 151v487h99v-491q0 -32 -5 -62t-18.5 -62.5t-35 -56t-58 -39t-84.5 -15.5q-79 0 -131 41t-68 109z" />
    <glyph glyph-name="K" unicode="K" horiz-adv-x="659" 
d="M185 708v-312h2l316 312h137l-344 -324l365 -384h-142l-332 366h-2v-366h-99v708h99z" />
    <glyph glyph-name="L" unicode="L" horiz-adv-x="511" 
d="M185 708v-620h316v-88h-415v708h99z" />
    <glyph glyph-name="M" unicode="M" horiz-adv-x="903" 
d="M240 708l212 -544h2l209 544h154v-708h-99v592h-2l-235 -592h-63l-234 592h-2v-592h-96v708h154z" />
    <glyph glyph-name="N" unicode="N" horiz-adv-x="772" 
d="M215 708l370 -566h2v566h99v-708h-125l-374 578h-2v-578h-99v708h129z" />
    <glyph glyph-name="O" unicode="O" horiz-adv-x="849" 
d="M693 355q0 120 -74.5 202t-194.5 82q-119 0 -193 -82t-74 -202q0 -121 74 -202.5t193 -81.5q121 0 195 81.5t74 202.5zM800 355q0 -163 -106.5 -268t-269.5 -105t-268.5 104.5t-105.5 268.5q0 165 105.5 268t268.5 103t269.5 -103.5t106.5 -267.5z" />
    <glyph glyph-name="P" unicode="P" horiz-adv-x="595" 
d="M185 624v-229h105q165 0 165 116q0 113 -163 113h-107zM86 0v708h216q119 0 186 -48.5t67 -148.5q0 -101 -70 -150.5t-188 -49.5h-112v-311h-99z" />
    <glyph glyph-name="Q" unicode="Q" horiz-adv-x="846" 
d="M157 363q0 -119 72 -197.5t189 -78.5q115 0 188 79t73 197q0 117 -71.5 196.5t-188.5 79.5t-189.5 -80t-72.5 -196zM834 83v-83h-416q-163 0 -265.5 99.5t-102.5 263.5q0 158 104.5 260.5t264.5 102.5q159 0 262.5 -102t103.5 -261q0 -93 -39 -164t-107 -114v-2h195z" />
    <glyph glyph-name="R" unicode="R" horiz-adv-x="614" 
d="M185 624v-226h114q75 0 120.5 27.5t45.5 86.5q0 112 -159 112h-121zM185 315v-315h-99v708h227q112 0 182 -47t70 -149q0 -76 -47 -125t-125 -62l198 -325h-120l-180 315h-106z" />
    <glyph glyph-name="S" unicode="S" horiz-adv-x="569" 
d="M508 645l-70 -68q-47 66 -138 66q-54 0 -96 -29.5t-42 -85.5q0 -23 8.5 -41t18.5 -29t33.5 -22t37.5 -16t47 -16q38 -12 59.5 -20t54 -25.5t50 -37t31 -52t13.5 -72.5q0 -104 -71.5 -159.5t-173.5 -55.5q-69 0 -131 26.5t-102 76.5l77 65q25 -37 67.5 -60t90.5 -23
q56 0 99 31.5t43 89.5q0 25 -10 45t-22 32t-38.5 24.5t-43.5 18.5t-54 17q-40 12 -68 25.5t-57 35.5t-44 57t-15 81q0 67 37 114.5t90.5 67.5t115.5 20q61 0 115.5 -22t87.5 -59z" />
    <glyph glyph-name="T" unicode="T" horiz-adv-x="569" 
d="M334 621v-621h-99v621h-227v87h553v-87h-227z" />
    <glyph glyph-name="U" unicode="U" horiz-adv-x="712" 
d="M356 -18q-133 0 -204 81.5t-71 198.5v446h99v-440q0 -83 42.5 -140t133.5 -57t133.5 57t42.5 140v440h99v-446q0 -117 -71 -198.5t-204 -81.5z" />
    <glyph glyph-name="V" unicode="V" horiz-adv-x="642" 
d="M108 708l213 -580h3l213 580h107l-278 -708h-92l-276 708h110z" />
    <glyph glyph-name="W" unicode="W" horiz-adv-x="988" 
d="M117 708l156 -564h2l166 564h109l165 -564h2l156 564h105l-208 -708h-103l-172 569h-2l-172 -569h-103l-208 708h107z" />
    <glyph glyph-name="X" unicode="X" horiz-adv-x="668" 
d="M164 708l170 -264l168 264h116l-226 -335l257 -373h-125l-194 298l-190 -298h-122l253 375l-228 333h121z" />
    <glyph glyph-name="Y" unicode="Y" horiz-adv-x="624" 
d="M362 306v-306h-100v306l-265 402h122l196 -320l197 320h115z" />
    <glyph glyph-name="Z" unicode="Z" horiz-adv-x="592" 
d="M553 708v-87l-400 -533h406v-88h-526v87l399 534h-391v87h512z" />
    <glyph glyph-name="bracketleft" unicode="[" horiz-adv-x="315" 
d="M236 732v-66h-93v-756h93v-66h-177v888h177z" />
    <glyph glyph-name="backslash" unicode="\" horiz-adv-x="380" 
d="M311 -33l-307 749l70 26l308 -751z" />
    <glyph glyph-name="bracketright" unicode="]" horiz-adv-x="315" 
d="M79 -156v66h93v756h-93v66h177v-888h-177z" />
    <glyph glyph-name="asciicircum" unicode="^" horiz-adv-x="666" 
d="M74 309l226 399h66l226 -399h-91l-169 300l-167 -300h-91z" />
    <glyph glyph-name="underscore" unicode="_" horiz-adv-x="500" 
d="M0 -138v63h500v-63h-500z" />
    <glyph glyph-name="grave" unicode="`" 
d="M102 564l-136 144h113l100 -144h-77z" />
    <glyph glyph-name="a" unicode="a" horiz-adv-x="542" 
d="M376 226h-23q-211 0 -211 -90q0 -39 28 -56.5t69 -17.5q64 0 100.5 38.5t36.5 100.5v25zM376 294v13q0 52 -31 78t-86 26q-80 0 -135 -55l-50 60q76 71 194 71q98 0 148 -51.5t50 -134.5v-207q0 -62 7 -94h-85q-8 37 -8 68h-3q-55 -80 -159 -80q-30 0 -59 8t-55 24
t-42 45.5t-16 68.5q0 41 19.5 71.5t49.5 47t76.5 26t88 12.5t96.5 3z" />
    <glyph glyph-name="b" unicode="b" horiz-adv-x="636" 
d="M489 238q0 71 -42 121t-116 50q-70 0 -115 -51t-45 -121t45 -120.5t115 -50.5q74 0 116 50.5t42 121.5zM176 75h-2v-75h-91v756h94v-353h3q57 84 169 84q104 0 170.5 -71.5t66.5 -177.5q0 -107 -66 -179t-173 -72q-52 0 -98 23t-73 65z" />
    <glyph glyph-name="c" unicode="c" horiz-adv-x="494" 
d="M481 409l-68 -55q-15 24 -45.5 39t-63.5 15q-71 0 -113 -50t-42 -121t42 -121t114 -50q73 0 114 52l63 -57q-63 -74 -177 -74q-111 0 -183 69t-72 181q0 111 71.5 180.5t181.5 69.5q52 0 101 -20.5t77 -57.5z" />
    <glyph glyph-name="d" unicode="d" horiz-adv-x="635" 
d="M147 238q0 -71 42 -121.5t115 -50.5q70 0 115 50.5t45 120.5t-45 121t-115 51q-74 0 -115.5 -50t-41.5 -121zM461 75h-2q-26 -42 -72.5 -65t-98.5 -23q-107 0 -173 72t-66 179t66.5 178t171.5 71q110 0 169 -84h2v353h94v-756h-91v75z" />
    <glyph glyph-name="e" unicode="e" horiz-adv-x="573" 
d="M523 241q0 -21 -1 -32h-376q2 -61 47 -102.5t107 -41.5q89 0 138 72l66 -53q-74 -97 -204 -97q-109 0 -179.5 69t-70.5 180q0 110 69.5 180.5t175.5 70.5q105 0 166.5 -66t61.5 -180zM146 279h282q-2 60 -36 97t-97 37q-60 0 -102.5 -38.5t-46.5 -95.5z" />
    <glyph glyph-name="f" unicode="f" horiz-adv-x="310" 
d="M304 474v-77h-110v-397h-94v397h-94v77h94v99q0 89 43 142t134 53q35 0 59 -7l-11 -81q-26 7 -47 7q-49 0 -66.5 -30.5t-17.5 -83.5v-99h110z" />
    <glyph glyph-name="g" unicode="g" horiz-adv-x="632" 
d="M147 242q0 -69 43 -118t114 -49t116 48t45 119q0 69 -45.5 118t-115.5 49q-72 0 -114.5 -48t-42.5 -119zM58 -154l60 73q31 -35 77.5 -56t95.5 -21q167 0 167 175v61h-2q-26 -39 -70.5 -60.5t-96.5 -21.5q-107 0 -173 70t-66 174t66 175.5t172 71.5q53 0 99 -23t72 -66h2
v76h91v-450q0 -54 -13.5 -99.5t-43 -83.5t-82 -59.5t-123.5 -21.5q-63 0 -125.5 22.5t-106.5 63.5z" />
    <glyph glyph-name="h" unicode="h" horiz-adv-x="584" 
d="M177 402h2q18 36 59 60.5t91 24.5q87 0 132 -54t45 -139v-294h-94v262q0 145 -107 145q-57 0 -92.5 -42.5t-35.5 -113.5v-251h-94v756h94v-354z" />
    <glyph glyph-name="i" unicode="i" horiz-adv-x="259" 
d="M192 645q0 -26 -18 -43t-45 -17q-26 0 -44 17.5t-18 42.5q0 26 18 43.5t44 17.5t44.5 -17.5t18.5 -43.5zM176 474v-474h-94v474h94z" />
    <glyph glyph-name="j" unicode="j" horiz-adv-x="260" 
d="M193 645q0 -26 -18 -43t-45 -17q-26 0 -44.5 17.5t-18.5 42.5q0 26 18.5 43.5t44.5 17.5t44.5 -17.5t18.5 -43.5zM-31 -234l10 80q22 -5 38 -5q39 0 52.5 26.5t13.5 74.5v532h94v-535q0 -179 -154 -179q-24 0 -54 6z" />
    <glyph glyph-name="k" unicode="k" horiz-adv-x="527" 
d="M177 756v-488h3l199 206h126l-222 -215l241 -259h-130l-214 246h-3v-246h-94v756h94z" />
    <glyph glyph-name="l" unicode="l" horiz-adv-x="260" 
d="M177 756v-756h-94v756h94z" />
    <glyph glyph-name="m" unicode="m" horiz-adv-x="887" 
d="M170 396h3q19 40 59 65.5t92 25.5q106 0 147 -95q24 45 66.5 70t94.5 25q87 0 132 -54t45 -139v-294h-94v263q0 145 -105 145q-60 0 -90 -45t-30 -107v-256h-94v282q0 126 -100 126q-53 0 -87 -43t-34 -113v-252h-94v372q0 61 -4 102h89q4 -32 4 -78z" />
    <glyph glyph-name="n" unicode="n" horiz-adv-x="582" 
d="M77 474h89q4 -32 4 -78h3q18 39 60.5 65t93.5 26q87 0 132 -54t45 -139v-294h-94v263q0 145 -108 145q-57 0 -92 -42.5t-35 -113.5v-252h-94v372q0 61 -4 102z" />
    <glyph glyph-name="o" unicode="o" horiz-adv-x="610" 
d="M463 238q0 72 -42.5 121.5t-115.5 49.5t-115.5 -49.5t-42.5 -121.5t42.5 -122t115.5 -50t115.5 50t42.5 122zM561 238q0 -109 -73 -180t-183 -71t-182.5 70.5t-72.5 180.5q0 109 72.5 179t182.5 70t183 -70t73 -179z" />
    <glyph glyph-name="p" unicode="p" horiz-adv-x="634" 
d="M487 238q0 71 -42 121t-116 50q-70 0 -115 -51t-45 -121t45 -120.5t115 -50.5q74 0 116 50.5t42 121.5zM175 71v-311h-94v714h92v-74h3q24 40 68.5 63.5t102.5 23.5q104 0 170.5 -71.5t66.5 -177.5q0 -107 -66 -179t-173 -72q-51 0 -96 22.5t-71 61.5h-3z" />
    <glyph glyph-name="q" unicode="q" horiz-adv-x="633" 
d="M147 238q0 -71 42 -121.5t115 -50.5q70 0 115 50.5t45 120.5t-45 121t-115 51q-74 0 -115.5 -50t-41.5 -121zM458 71h-2q-26 -39 -71 -61.5t-97 -22.5q-107 0 -173 72t-66 179t66.5 178t171.5 71q56 0 101 -24t70 -63h3v74h91v-714h-94v311z" />
    <glyph glyph-name="r" unicode="r" horiz-adv-x="362" 
d="M81 0v372q0 61 -4 102h89q4 -32 4 -80h3q21 43 59.5 68t85.5 25q24 0 37 -4l-4 -87q-22 5 -43 5q-65 0 -99 -43.5t-34 -108.5v-249h-94z" />
    <glyph glyph-name="s" unicode="s" horiz-adv-x="444" 
d="M402 409l-65 -55q-16 27 -45.5 43t-64.5 16q-37 0 -62.5 -15.5t-25.5 -46.5q0 -28 25 -43t83 -28q76 -18 117.5 -49.5t41.5 -90.5q0 -78 -54.5 -115.5t-134.5 -37.5q-56 0 -107 22t-84 63l67 57q19 -29 53.5 -47.5t72.5 -18.5q40 0 67 16.5t27 52.5q0 31 -28 46.5
t-96 32.5q-28 7 -49 15t-43 22.5t-34 38t-12 55.5q0 71 52.5 108t126.5 37q53 0 99.5 -20.5t72.5 -57.5z" />
    <glyph glyph-name="t" unicode="t" horiz-adv-x="329" 
d="M313 474v-77h-126v-247q0 -43 16 -61.5t51 -18.5q31 0 55 12l3 -77q-37 -13 -80 -13q-138 0 -138 148v257h-91v77h91v136h93v-136h126z" />
    <glyph glyph-name="u" unicode="u" horiz-adv-x="582" 
d="M504 0h-89q-4 32 -4 78h-2q-18 -39 -61 -65t-94 -26q-88 0 -132.5 54t-44.5 139v294h94v-262q0 -146 108 -146q57 0 92 42.5t35 113.5v252h94v-372q0 -61 4 -102z" />
    <glyph glyph-name="v" unicode="v" horiz-adv-x="504" 
d="M494 474l-190 -474h-102l-193 474h104l139 -373h2l140 373h100z" />
    <glyph glyph-name="w" unicode="w" horiz-adv-x="773" 
d="M14 474h102l107 -362h2l113 362h99l115 -362h2l107 362h99l-157 -474h-98l-117 356h-2l-116 -356h-98z" />
    <glyph glyph-name="x" unicode="x" horiz-adv-x="511" 
d="M7 0l190 249l-173 225h116l116 -163l117 163h110l-171 -224l191 -250h-117l-132 185l-134 -185h-113z" />
    <glyph glyph-name="y" unicode="y" horiz-adv-x="504" 
d="M114 474l147 -372h2l131 372h100l-230 -586q-25 -65 -61.5 -96.5t-102.5 -31.5q-33 0 -62 7l9 83q26 -8 47 -8q35 0 54 19t34 60l30 79l-203 474h105z" />
    <glyph glyph-name="z" unicode="z" horiz-adv-x="462" 
d="M419 474v-77l-270 -318h281v-79h-397v77l268 320h-255v77h373z" />
    <glyph glyph-name="braceleft" unicode="{" horiz-adv-x="315" 
d="M5 251v74q32 0 53 22.5t21 67.5v188q0 65 33.5 97t84.5 32h68v-69h-51q-51 0 -51 -72v-183q0 -57 -31.5 -86.5t-61.5 -32.5v-2q32 -3 62.5 -31.5t30.5 -90.5v-180q0 -72 51 -72h51v-69h-68q-51 0 -84.5 32t-33.5 97v184q0 48 -20.5 71t-53.5 23z" />
    <glyph glyph-name="bar" unicode="|" horiz-adv-x="222" 
d="M70 750h82v-1000h-82v1000z" />
    <glyph glyph-name="braceright" unicode="}" horiz-adv-x="315" 
d="M310 325v-74q-33 0 -53.5 -23t-20.5 -71v-184q0 -65 -33.5 -97t-84.5 -32h-68v69h52q50 0 50 72v180q0 62 30.5 90.5t63.5 31.5v2q-31 3 -62.5 32.5t-31.5 86.5v183q0 72 -50 72h-52v69h68q51 0 84.5 -32t33.5 -97v-188q0 -45 21 -67.5t53 -22.5z" />
    <glyph glyph-name="asciitilde" unicode="~" horiz-adv-x="666" 
d="M340 346q38 -24 57.5 -31.5t41.5 -7.5q49 0 87 68l59 -55q-60 -97 -144 -97q-54 0 -116 38q-37 23 -56.5 30.5t-41.5 7.5q-49 0 -87 -68l-59 55q60 98 144 98q56 0 115 -38z" />
    <glyph glyph-name="uni00A0" unicode="&#xa0;" 
 />
    <glyph glyph-name="exclamdown" unicode="&#xa1;" horiz-adv-x="334" 
d="M234 427q0 -27 -19 -46t-48 -19t-48 19.5t-19 46.5q0 26 19.5 45.5t47.5 19.5q29 0 48 -19.5t19 -46.5zM216 -221h-99v501h99v-501z" />
    <glyph glyph-name="cent" unicode="&#xa2;" horiz-adv-x="595" 
d="M350 404v-334q61 1 102 53l64 -60q-61 -70 -166 -75v-66h-51v67q-98 10 -157 79t-59 170q0 100 58.5 167.5t157.5 79.5v65h51v-64q107 -5 166 -75l-66 -60q-39 49 -100 53zM299 71v332q-58 -11 -90.5 -56.5t-32.5 -109.5t32.5 -109t90.5 -57z" />
    <glyph glyph-name="sterling" unicode="&#xa3;" horiz-adv-x="595" 
d="M434 397v-72h-166v-241h263v-84h-461v84h100v241h-97v72h97v88q0 34 7 66.5t24 64.5t42.5 56t65.5 39t90 15q100 0 165 -60l-59 -67q-41 46 -108 46q-50 0 -80.5 -29t-39.5 -63t-9 -74v-82h166z" />
    <glyph glyph-name="currency" unicode="&#xa4;" horiz-adv-x="595" 
d="M299 437q-68 0 -110 -45.5t-42 -112.5t42 -113t110 -46q69 0 111 46t42 113t-42 112.5t-111 45.5zM576 502l-82 -82q43 -60 43 -141q0 -80 -45 -145l84 -85l-51 -52l-87 85q-58 -42 -139 -42q-75 0 -139 44l-88 -87l-52 52l86 88q-43 64 -43 142q0 77 40 139l-83 84
l52 51l84 -82q65 45 143 45q80 0 142 -45l83 82z" />
    <glyph glyph-name="yen" unicode="&#xa5;" horiz-adv-x="595" 
d="M80 228h170v91h-170v66h145l-212 323h115l174 -294l170 294h110l-208 -323h141v-66h-170v-91h170v-66h-170v-162h-95v162h-170v66z" />
    <glyph glyph-name="brokenbar" unicode="&#xa6;" horiz-adv-x="222" 
d="M70 175h82v-350h-82v350zM70 675h82v-350h-82v350z" />
    <glyph glyph-name="section" unicode="&#xa7;" horiz-adv-x="595" 
d="M334 369l-75 33q-29 -7 -51.5 -27.5t-22.5 -52.5q0 -19 6.5 -33t22 -25.5t28.5 -18t38 -17.5l84 -36q25 9 42 29.5t17 48.5q0 38 -23 59t-66 40zM502 636l-71 -52q-15 28 -44.5 46t-66.5 18q-41 0 -70 -20.5t-29 -57.5q0 -38 29 -61.5t99 -52.5q84 -36 125 -72.5
t41 -100.5q0 -43 -24 -78.5t-61 -51.5q61 -40 61 -120q0 -83 -60 -127.5t-143 -44.5q-68 0 -125.5 29t-87.5 85l83 46q16 -39 52 -58.5t78 -19.5q40 0 72.5 20.5t32.5 63.5q0 40 -28 60.5t-116 59.5q-39 17 -61.5 29t-47.5 31t-36 44t-11 57q0 49 27.5 85t72.5 54
q-69 44 -69 117q0 77 58 119.5t137 42.5q62 0 110 -24t73 -66z" />
    <glyph glyph-name="dieresis" unicode="&#xa8;" 
d="M160 645q0 25 18 43t44 18t44 -17.5t18 -43.5q0 -25 -18 -42.5t-44 -17.5t-44 18t-18 42zM-34 645q0 25 18 43t44 18t44 -17.5t18 -43.5q0 -25 -18 -42.5t-44 -17.5t-44 18t-18 42z" />
    <glyph glyph-name="copyright" unicode="&#xa9;" horiz-adv-x="800" 
d="M573 519l-58 -46q-33 44 -98 44t-107 -45t-42 -112q0 -72 40 -115.5t106 -43.5q68 0 105 50l61 -43q-62 -76 -167 -76q-101 0 -165.5 63.5t-64.5 164.5q0 102 66.5 163.5t167.5 61.5q45 0 88 -17t68 -49zM80 353q0 -132 94.5 -225.5t226.5 -93.5t225.5 93.5t93.5 225.5
t-93.5 226.5t-225.5 94.5t-226.5 -94.5t-94.5 -226.5zM20 353q0 157 111.5 267t269.5 110q157 0 268 -110t111 -267q0 -156 -111 -265.5t-268 -109.5q-158 0 -269.5 109t-111.5 266z" />
    <glyph glyph-name="ordfeminine" unicode="&#xaa;" horiz-adv-x="380" 
d="M246 550v10h-16q-108 0 -108 -47q0 -36 50 -36q36 0 55 19.5t19 53.5zM247 431v37h-1q-26 -44 -89 -44q-41 0 -73.5 21t-32.5 67q0 96 195 96v7q0 25 -18.5 38.5t-46.5 13.5q-46 0 -78 -32l-36 43q46 45 120 45q69 0 98 -34.5t29 -85.5v-172h-67z" />
    <glyph glyph-name="guillemotleft" unicode="&#xab;" horiz-adv-x="500" 
d="M450 419l-115 -175l115 -175l-61 -43l-146 218l146 217zM247 419l-115 -175l116 -175l-62 -43l-146 218l146 217z" />
    <glyph glyph-name="logicalnot" unicode="&#xac;" horiz-adv-x="666" 
d="M596 426v-287h-81v206h-445v81h526z" />
    <glyph glyph-name="uni00AD" unicode="&#xad;" horiz-adv-x="320" 
d="M276 284v-80h-232v80h232z" />
    <glyph glyph-name="registered" unicode="&#xae;" horiz-adv-x="600" 
d="M108 493q0 -79 56 -135.5t136 -56.5t136 56.5t56 135.5q0 80 -56 136t-136 56t-136 -56t-56 -136zM72 493q0 94 67 160.5t161 66.5t161 -66.5t67 -160.5q0 -93 -67 -159t-161 -66t-161 66t-67 159zM427 368h-72l-55 99h-36v-99h-61v256h110q41 0 69 -19t28 -61
q0 -49 -51 -68zM264 511h47q15 0 26 9.5t11 23.5t-12 22t-25 8h-47v-63z" />
    <glyph glyph-name="macron" unicode="&#xaf;" 
d="M273 664v-67h-296v67h296z" />
    <glyph glyph-name="degree" unicode="&#xb0;" horiz-adv-x="400" 
d="M291 565q0 39 -26.5 65.5t-64.5 26.5t-64.5 -26.5t-26.5 -65.5q0 -38 26.5 -64.5t64.5 -26.5t64.5 26.5t26.5 64.5zM355 565q0 -65 -45 -109.5t-110 -44.5t-110 44.5t-45 109.5t45 110t110 45t110 -45t45 -110z" />
    <glyph glyph-name="plusminus" unicode="&#xb1;" horiz-adv-x="666" 
d="M70 40v81h526v-81h-526zM70 338v81h223v150h81v-150h222v-81h-222v-147h-81v147h-223z" />
    <glyph glyph-name="twosuperior" unicode="&#xb2;" horiz-adv-x="385" 
d="M333 355v-69h-283v67l164 165q40 40 40 78q0 26 -16.5 40.5t-43.5 14.5t-45 -18.5t-23 -49.5l-74 10q8 55 47 90.5t95 35.5q58 0 98 -32t40 -91q0 -38 -18 -67t-52 -62l-114 -112h185z" />
    <glyph glyph-name="threesuperior" unicode="&#xb3;" horiz-adv-x="385" 
d="M143 476v62h27q80 0 80 63q0 23 -18 38t-43 15q-46 0 -66 -51l-68 23q18 45 54 69.5t82 24.5q59 0 97 -30t38 -86q0 -66 -62 -93q33 -10 53 -37.5t20 -63.5q0 -62 -43 -96t-103 -34q-113 0 -151 105l71 22q20 -60 78 -60q30 0 51.5 16.5t21.5 48.5q0 34 -27 49t-65 15
h-27z" />
    <glyph glyph-name="acute" unicode="&#xb4;" 
d="M284 708l-136 -144h-77l100 144h113z" />
    <glyph glyph-name="mu" unicode="&#xb5;" horiz-adv-x="578" 
d="M502 0h-89q-4 32 -4 78h-2q-18 -39 -61 -65t-94 -26q-56 0 -83 30v-257h-94v714h94v-262q0 -146 108 -146q57 0 92 42.5t35 113.5v252h94v-372q0 -61 4 -102z" />
    <glyph glyph-name="paragraph" unicode="&#xb6;" horiz-adv-x="600" 
d="M523 708v-834h-78v771h-115v-771h-79v453q-93 0 -152.5 52.5t-59.5 131.5q0 97 61.5 147t169.5 50h253z" />
    <glyph glyph-name="periodcentered" unicode="&#xb7;" horiz-adv-x="260" 
d="M198 303q0 -27 -19 -46.5t-48 -19.5t-48.5 19t-19.5 46t19.5 47t48.5 20q28 0 47.5 -19.5t19.5 -46.5z" />
    <glyph glyph-name="cedilla" unicode="&#xb8;" 
d="M167 0l-46 -69q6 2 27 2q38 0 66 -18.5t28 -59.5q0 -48 -38 -69t-89 -21q-60 0 -103 23l20 42q39 -17 77 -17q22 0 41.5 9.5t19.5 32.5q0 38 -54 38q-18 0 -41 -7l-20 20l62 94h50z" />
    <glyph glyph-name="onesuperior" unicode="&#xb9;" horiz-adv-x="385" 
d="M247 708v-426h-78v332l-68 -59l-46 51l125 102h67z" />
    <glyph glyph-name="ordmasculine" unicode="&#xba;" horiz-adv-x="380" 
d="M267 574q0 35 -20 58.5t-57 23.5t-56.5 -23.5t-19.5 -58.5t20 -58.5t56 -23.5t56.5 24t20.5 58zM342 574q0 -64 -43 -106t-109 -42t-109 42t-43 106q0 65 43 106.5t109 41.5t109 -41.5t43 -106.5z" />
    <glyph glyph-name="guillemotright" unicode="&#xbb;" horiz-adv-x="500" 
d="M50 419l61 42l146 -217l-146 -218l-61 43l115 175zM253 419l61 42l146 -217l-146 -218l-62 43l116 175z" />
    <glyph glyph-name="onequarter" unicode="&#xbc;" horiz-adv-x="870" 
d="M677 708l-450 -743l-58 31l451 743zM247 708v-426h-78v332l-68 -59l-46 51l125 102h67zM675 332h-3l-109 -174h112v174zM746 426v-268h59v-67h-59v-91h-71v91h-189v64l177 271h83z" />
    <glyph glyph-name="onehalf" unicode="&#xbd;" horiz-adv-x="870" 
d="M677 708l-450 -743l-58 31l451 743zM811 69v-69h-283v67l164 165q40 40 40 78q0 26 -16.5 40.5t-43.5 14.5t-45 -18.5t-23 -49.5l-74 10q8 55 47 90.5t95 35.5q58 0 98 -32t40 -91q0 -38 -18 -67t-52 -62l-114 -112h185zM247 708v-426h-78v332l-68 -59l-46 51l125 102h67
z" />
    <glyph glyph-name="threequarters" unicode="&#xbe;" horiz-adv-x="870" 
d="M143 476v62h27q80 0 80 63q0 23 -18 38t-43 15q-46 0 -66 -51l-68 23q18 45 54 69.5t82 24.5q59 0 97 -30t38 -86q0 -66 -62 -93q33 -10 53 -37.5t20 -63.5q0 -62 -43 -96t-103 -34q-113 0 -151 105l71 22q20 -60 78 -60q30 0 51.5 16.5t21.5 48.5q0 34 -27 49t-65 15
h-27zM677 708l-450 -743l-58 31l451 743zM675 332h-3l-109 -174h112v174zM746 426v-268h59v-67h-59v-91h-71v91h-189v64l177 271h83z" />
    <glyph glyph-name="questiondown" unicode="&#xbf;" horiz-adv-x="500" 
d="M180 427q0 27 19 46.5t48 19.5q28 0 47.5 -19.5t19.5 -45.5q0 -27 -19 -46.5t-48 -19.5t-48 19t-19 46zM205 251v35h94v-48q0 -49 -17.5 -80.5t-55.5 -68.5l-37 -35q-51 -47 -51 -99q0 -48 30.5 -76.5t78.5 -28.5t79 31t36 79l96 -11q-12 -86 -72 -135.5t-145 -49.5
q-87 0 -145 49t-58 136q0 59 22 93t74 78q43 36 57 60t14 71z" />
    <glyph glyph-name="Agrave" unicode="&#xc0;" horiz-adv-x="711" 
d="M320 764l-137 144h114l100 -144h-77zM354 593l-133 -332h265zM186 174l-71 -174h-110l307 708h90l304 -708h-112l-72 174h-336z" />
    <glyph glyph-name="Aacute" unicode="&#xc1;" horiz-adv-x="711" 
d="M535 908l-137 -144h-76l99 144h114zM354 593l-133 -332h265zM186 174l-71 -174h-110l307 708h90l304 -708h-112l-72 174h-336z" />
    <glyph glyph-name="Acircumflex" unicode="&#xc2;" horiz-adv-x="711" 
d="M413 908l112 -144h-91l-75 99l-76 -99h-90l112 144h108zM354 593l-133 -332h265zM186 174l-71 -174h-110l307 708h90l304 -708h-112l-72 174h-336z" />
    <glyph glyph-name="Atilde" unicode="&#xc3;" horiz-adv-x="711" 
d="M240 772h-55q20 116 102 116q33 0 75 -20q50 -22 67 -22q34 0 48 46h54q-20 -116 -102 -116q-31 0 -77 21q-42 21 -65 21q-33 0 -47 -46zM354 593l-133 -332h265zM186 174l-71 -174h-110l307 708h90l304 -708h-112l-72 174h-336z" />
    <glyph glyph-name="Adieresis" unicode="&#xc4;" horiz-adv-x="711" 
d="M392 845q0 25 18 43t44 18t44 -17.5t18 -43.5q0 -25 -18 -42.5t-44 -17.5t-44 18t-18 42zM198 845q0 25 18 43t44 18t44 -17.5t18 -43.5q0 -25 -18 -42.5t-44 -17.5t-44 18t-18 42zM354 593l-133 -332h265zM186 174l-71 -174h-110l307 708h90l304 -708h-112l-72 174h-336
z" />
    <glyph glyph-name="Aring" unicode="&#xc5;" horiz-adv-x="711" 
d="M418 853q0 25 -17.5 41.5t-42.5 16.5t-42 -17t-17 -42q0 -24 17 -40.5t42 -16.5t42.5 16.5t17.5 41.5zM459 853q0 -42 -29.5 -70.5t-71.5 -28.5t-71 28t-29 70t29 70.5t71 28.5t71.5 -28t29.5 -70zM354 593l-133 -332h265zM186 174l-71 -174h-110l307 708h90l304 -708
h-112l-72 174h-336z" />
    <glyph glyph-name="AE" unicode="&#xc6;" horiz-adv-x="1015" 
d="M293 278h231v343h-14zM623 324v-236h346v-88h-445v192h-283l-121 -192h-118l457 708h495v-87h-331v-212h310v-85h-310z" />
    <glyph glyph-name="Ccedilla" unicode="&#xc7;" horiz-adv-x="708" 
d="M614 164l79 -54q-89 -121 -256 -127l-34 -52q6 2 27 2q38 0 66 -18.5t28 -59.5q0 -48 -38 -69t-89 -21q-60 0 -103 23l20 42q39 -17 77 -17q22 0 41.5 9.5t19.5 32.5q0 38 -54 38q-18 0 -41 -7l-20 20l51 78q-150 12 -244 114.5t-94 256.5q0 164 106.5 267.5t270.5 103.5
q76 0 145.5 -29t108.5 -81l-78 -60q-27 37 -74.5 60t-101.5 23q-120 0 -194.5 -82t-74.5 -202q0 -123 73 -204t193 -81q124 0 190 94z" />
    <glyph glyph-name="Egrave" unicode="&#xc8;" horiz-adv-x="601" 
d="M313 764l-137 144h114l100 -144h-77zM185 324v-236h370v-88h-469v708h454v-87h-355v-212h334v-85h-334z" />
    <glyph glyph-name="Eacute" unicode="&#xc9;" horiz-adv-x="601" 
d="M475 908l-137 -144h-76l99 144h114zM185 324v-236h370v-88h-469v708h454v-87h-355v-212h334v-85h-334z" />
    <glyph glyph-name="Ecircumflex" unicode="&#xca;" horiz-adv-x="601" 
d="M372 908l112 -144h-91l-75 99l-76 -99h-90l112 144h108zM185 324v-236h370v-88h-469v708h454v-87h-355v-212h334v-85h-334z" />
    <glyph glyph-name="Edieresis" unicode="&#xcb;" horiz-adv-x="601" 
d="M352 845q0 25 18 43t44 18t44 -17.5t18 -43.5q0 -25 -18 -42.5t-44 -17.5t-44 18t-18 42zM158 845q0 25 18 43t44 18t44 -17.5t18 -43.5q0 -25 -18 -42.5t-44 -17.5t-44 18t-18 42zM185 324v-236h370v-88h-469v708h454v-87h-355v-212h334v-85h-334z" />
    <glyph glyph-name="Igrave" unicode="&#xcc;" horiz-adv-x="271" 
d="M109 764l-137 144h114l100 -144h-77zM185 708v-708h-99v708h99z" />
    <glyph glyph-name="Iacute" unicode="&#xcd;" horiz-adv-x="271" 
d="M298 908l-137 -144h-76l99 144h114zM185 708v-708h-99v708h99z" />
    <glyph glyph-name="Icircumflex" unicode="&#xce;" horiz-adv-x="271" 
d="M188 908l112 -144h-91l-75 99l-76 -99h-90l112 144h108zM185 708v-708h-99v708h99z" />
    <glyph glyph-name="Idieresis" unicode="&#xcf;" horiz-adv-x="271" 
d="M171 845q0 25 18 43t44 18t44 -17.5t18 -43.5q0 -25 -18 -42.5t-44 -17.5t-44 18t-18 42zM-23 845q0 25 18 43t44 18t44 -17.5t18 -43.5q0 -25 -18 -42.5t-44 -17.5t-44 18t-18 42zM185 708v-708h-99v708h99z" />
    <glyph glyph-name="Eth" unicode="&#xd0;" horiz-adv-x="761" 
d="M182 335v-245h117q139 0 220 72t81 192q0 121 -77 192.5t-214 71.5h-127v-213h237v-70h-237zM82 0v335h-69v70h69v303h258q94 0 175.5 -38t136 -120.5t54.5 -195.5q0 -86 -34 -156t-88.5 -112t-119.5 -64t-132 -22h-250z" />
    <glyph glyph-name="Ntilde" unicode="&#xd1;" horiz-adv-x="772" 
d="M266 772h-55q20 116 102 116q33 0 75 -20q49 -22 67 -22q34 0 48 46h54q-20 -116 -102 -116q-31 0 -77 21q-42 21 -65 21q-33 0 -47 -46zM215 708l370 -566h2v566h99v-708h-125l-374 578h-2v-578h-99v708h129z" />
    <glyph glyph-name="Ograve" unicode="&#xd2;" horiz-adv-x="849" 
d="M409 764l-137 144h114l100 -144h-77zM693 355q0 120 -74.5 202t-194.5 82q-119 0 -193 -82t-74 -202q0 -121 74 -202.5t193 -81.5q121 0 195 81.5t74 202.5zM800 355q0 -163 -106.5 -268t-269.5 -105t-268.5 104.5t-105.5 268.5q0 165 105.5 268t268.5 103t269.5 -103.5
t106.5 -267.5z" />
    <glyph glyph-name="Oacute" unicode="&#xd3;" horiz-adv-x="849" 
d="M584 908l-137 -144h-76l99 144h114zM693 355q0 120 -74.5 202t-194.5 82q-119 0 -193 -82t-74 -202q0 -121 74 -202.5t193 -81.5q121 0 195 81.5t74 202.5zM800 355q0 -163 -106.5 -268t-269.5 -105t-268.5 104.5t-105.5 268.5q0 165 105.5 268t268.5 103t269.5 -103.5
t106.5 -267.5z" />
    <glyph glyph-name="Ocircumflex" unicode="&#xd4;" horiz-adv-x="849" 
d="M478 908l112 -144h-91l-75 99l-76 -99h-90l112 144h108zM693 355q0 120 -74.5 202t-194.5 82q-119 0 -193 -82t-74 -202q0 -121 74 -202.5t193 -81.5q121 0 195 81.5t74 202.5zM800 355q0 -163 -106.5 -268t-269.5 -105t-268.5 104.5t-105.5 268.5q0 165 105.5 268
t268.5 103t269.5 -103.5t106.5 -267.5z" />
    <glyph glyph-name="Otilde" unicode="&#xd5;" horiz-adv-x="849" 
d="M306 772h-55q20 116 102 116q33 0 75 -20q49 -22 67 -22q34 0 48 46h54q-20 -116 -102 -116q-31 0 -77 21q-42 21 -65 21q-33 0 -47 -46zM693 355q0 120 -74.5 202t-194.5 82q-119 0 -193 -82t-74 -202q0 -121 74 -202.5t193 -81.5q121 0 195 81.5t74 202.5zM800 355
q0 -163 -106.5 -268t-269.5 -105t-268.5 104.5t-105.5 268.5q0 165 105.5 268t268.5 103t269.5 -103.5t106.5 -267.5z" />
    <glyph glyph-name="Odieresis" unicode="&#xd6;" horiz-adv-x="849" 
d="M459 845q0 25 18 43t44 18t44 -17.5t18 -43.5q0 -25 -18 -42.5t-44 -17.5t-44 18t-18 42zM265 845q0 25 18 43t44 18t44 -17.5t18 -43.5q0 -25 -18 -42.5t-44 -17.5t-44 18t-18 42zM693 355q0 120 -74.5 202t-194.5 82q-119 0 -193 -82t-74 -202q0 -121 74 -202.5
t193 -81.5q121 0 195 81.5t74 202.5zM800 355q0 -163 -106.5 -268t-269.5 -105t-268.5 104.5t-105.5 268.5q0 165 105.5 268t268.5 103t269.5 -103.5t106.5 -267.5z" />
    <glyph glyph-name="multiply" unicode="&#xd7;" horiz-adv-x="666" 
d="M162 531l171 -171l170 171l57 -56l-170 -171l172 -173l-59 -58l-171 170l-170 -170l-58 58l172 170l-171 174z" />
    <glyph glyph-name="Oslash" unicode="&#xd8;" horiz-adv-x="849" 
d="M634 544l-383 -414q69 -61 173 -61q122 0 197 82t75 204q0 112 -62 189zM211 174l381 411q-64 55 -168 55q-123 0 -196.5 -82t-73.5 -203q0 -109 57 -181zM778 703l-79 -86q101 -103 101 -262q0 -163 -106.5 -267t-269.5 -106q-137 -1 -238 79l-81 -87l-43 39l81 88
q-93 99 -93 254q0 165 105.5 268t268.5 103q135 0 230 -71l81 87z" />
    <glyph glyph-name="Ugrave" unicode="&#xd9;" horiz-adv-x="712" 
d="M323 764l-137 144h114l100 -144h-77zM356 -18q-133 0 -204 81.5t-71 198.5v446h99v-440q0 -83 42.5 -140t133.5 -57t133.5 57t42.5 140v440h99v-446q0 -117 -71 -198.5t-204 -81.5z" />
    <glyph glyph-name="Uacute" unicode="&#xda;" horiz-adv-x="712" 
d="M508 908l-137 -144h-76l99 144h114zM356 -18q-133 0 -204 81.5t-71 198.5v446h99v-440q0 -83 42.5 -140t133.5 -57t133.5 57t42.5 140v440h99v-446q0 -117 -71 -198.5t-204 -81.5z" />
    <glyph glyph-name="Ucircumflex" unicode="&#xdb;" horiz-adv-x="712" 
d="M408 908l112 -144h-91l-75 99l-76 -99h-90l112 144h108zM356 -18q-133 0 -204 81.5t-71 198.5v446h99v-440q0 -83 42.5 -140t133.5 -57t133.5 57t42.5 140v440h99v-446q0 -117 -71 -198.5t-204 -81.5z" />
    <glyph glyph-name="Udieresis" unicode="&#xdc;" horiz-adv-x="712" 
d="M391 845q0 25 18 43t44 18t44 -17.5t18 -43.5q0 -25 -18 -42.5t-44 -17.5t-44 18t-18 42zM197 845q0 25 18 43t44 18t44 -17.5t18 -43.5q0 -25 -18 -42.5t-44 -17.5t-44 18t-18 42zM356 -18q-133 0 -204 81.5t-71 198.5v446h99v-440q0 -83 42.5 -140t133.5 -57t133.5 57
t42.5 140v440h99v-446q0 -117 -71 -198.5t-204 -81.5z" />
    <glyph glyph-name="Yacute" unicode="&#xdd;" horiz-adv-x="624" 
d="M482 908l-137 -144h-76l99 144h114zM362 306v-306h-100v306l-265 402h122l196 -320l197 320h115z" />
    <glyph glyph-name="Thorn" unicode="&#xde;" horiz-adv-x="595" 
d="M185 477v-227h102q165 0 165 114q0 113 -163 113h-104zM86 0v708h99v-146h117q118 0 185.5 -50t67.5 -147q0 -103 -70 -151.5t-188 -48.5h-112v-165h-99z" />
    <glyph glyph-name="germandbls" unicode="&#xdf;" horiz-adv-x="612" 
d="M174 521v-521h-94v525q0 48 12 89.5t37 77t70.5 56t107.5 20.5q87 0 145 -52t58 -134q0 -56 -29.5 -96.5t-81.5 -57.5v-2q76 -12 121.5 -67t45.5 -137q0 -105 -66 -169.5t-177 -64.5q-31 0 -71 8v79q26 -7 59 -7q73 0 115.5 42t42.5 116q0 76 -47.5 115.5t-125.5 39.5
h-11v82h11q55 0 87.5 28.5t32.5 81.5q0 49 -31 80.5t-82 31.5q-38 0 -65 -15t-40 -40.5t-18.5 -52t-5.5 -56.5z" />
    <glyph glyph-name="agrave" unicode="&#xe0;" horiz-adv-x="542" 
d="M256 564l-136 144h113l100 -144h-77zM376 226h-23q-211 0 -211 -90q0 -39 28 -56.5t69 -17.5q64 0 100.5 38.5t36.5 100.5v25zM376 294v13q0 52 -31 78t-86 26q-80 0 -135 -55l-50 60q76 71 194 71q98 0 148 -51.5t50 -134.5v-207q0 -62 7 -94h-85q-8 37 -8 68h-3
q-55 -80 -159 -80q-30 0 -59 8t-55 24t-42 45.5t-16 68.5q0 41 19.5 71.5t49.5 47t76.5 26t88 12.5t96.5 3z" />
    <glyph glyph-name="aacute" unicode="&#xe1;" horiz-adv-x="542" 
d="M440 708l-136 -144h-77l100 144h113zM376 226h-23q-211 0 -211 -90q0 -39 28 -56.5t69 -17.5q64 0 100.5 38.5t36.5 100.5v25zM376 294v13q0 52 -31 78t-86 26q-80 0 -135 -55l-50 60q76 71 194 71q98 0 148 -51.5t50 -134.5v-207q0 -62 7 -94h-85q-8 37 -8 68h-3
q-55 -80 -159 -80q-30 0 -59 8t-55 24t-42 45.5t-16 68.5q0 41 19.5 71.5t49.5 47t76.5 26t88 12.5t96.5 3z" />
    <glyph glyph-name="acircumflex" unicode="&#xe2;" horiz-adv-x="542" 
d="M322 708l112 -144h-91l-75 99l-76 -99h-90l112 144h108zM376 226h-23q-211 0 -211 -90q0 -39 28 -56.5t69 -17.5q64 0 100.5 38.5t36.5 100.5v25zM376 294v13q0 52 -31 78t-86 26q-80 0 -135 -55l-50 60q76 71 194 71q98 0 148 -51.5t50 -134.5v-207q0 -62 7 -94h-85
q-8 37 -8 68h-3q-55 -80 -159 -80q-30 0 -59 8t-55 24t-42 45.5t-16 68.5q0 41 19.5 71.5t49.5 47t76.5 26t88 12.5t96.5 3z" />
    <glyph glyph-name="atilde" unicode="&#xe3;" horiz-adv-x="542" 
d="M150 572h-55q20 116 102 116q33 0 75 -20q50 -22 67 -22q34 0 48 46h54q-20 -116 -102 -116q-31 0 -77 21q-42 21 -65 21q-33 0 -47 -46zM376 226h-23q-211 0 -211 -90q0 -39 28 -56.5t69 -17.5q64 0 100.5 38.5t36.5 100.5v25zM376 294v13q0 52 -31 78t-86 26
q-80 0 -135 -55l-50 60q76 71 194 71q98 0 148 -51.5t50 -134.5v-207q0 -62 7 -94h-85q-8 37 -8 68h-3q-55 -80 -159 -80q-30 0 -59 8t-55 24t-42 45.5t-16 68.5q0 41 19.5 71.5t49.5 47t76.5 26t88 12.5t96.5 3z" />
    <glyph glyph-name="adieresis" unicode="&#xe4;" horiz-adv-x="542" 
d="M304 645q0 25 18 43t44 18t44 -17.5t18 -43.5q0 -25 -18 -42.5t-44 -17.5t-44 18t-18 42zM110 645q0 25 18 43t44 18t44 -17.5t18 -43.5q0 -25 -18 -42.5t-44 -17.5t-44 18t-18 42zM376 226h-23q-211 0 -211 -90q0 -39 28 -56.5t69 -17.5q64 0 100.5 38.5t36.5 100.5v25z
M376 294v13q0 52 -31 78t-86 26q-80 0 -135 -55l-50 60q76 71 194 71q98 0 148 -51.5t50 -134.5v-207q0 -62 7 -94h-85q-8 37 -8 68h-3q-55 -80 -159 -80q-30 0 -59 8t-55 24t-42 45.5t-16 68.5q0 41 19.5 71.5t49.5 47t76.5 26t88 12.5t96.5 3z" />
    <glyph glyph-name="aring" unicode="&#xe5;" horiz-adv-x="542" 
d="M327 653q0 24 -17.5 40t-41.5 16t-41 -16t-17 -40t17 -40.5t41 -16.5t41.5 16.5t17.5 40.5zM369 653q0 -42 -29.5 -70.5t-71.5 -28.5t-71 28t-29 70t29 70.5t71 28.5t71.5 -28t29.5 -70zM376 226h-23q-211 0 -211 -90q0 -39 28 -56.5t69 -17.5q64 0 100.5 38.5
t36.5 100.5v25zM376 294v13q0 52 -31 78t-86 26q-80 0 -135 -55l-50 60q76 71 194 71q98 0 148 -51.5t50 -134.5v-207q0 -62 7 -94h-85q-8 37 -8 68h-3q-55 -80 -159 -80q-30 0 -59 8t-55 24t-42 45.5t-16 68.5q0 41 19.5 71.5t49.5 47t76.5 26t88 12.5t96.5 3z" />
    <glyph glyph-name="ae" unicode="&#xe6;" horiz-adv-x="877" 
d="M419 85q-53 -97 -201 -97q-68 0 -120 31.5t-52 101.5q0 41 16.5 70t42.5 46t71 26.5t90 12.5t110 3v11q0 121 -117 121q-80 0 -135 -55l-50 60q76 71 194 71q128 0 166 -88q63 88 173 88q102 0 161.5 -66t59.5 -180q0 -21 -1 -32h-364q2 -61 45.5 -102.5t103.5 -41.5
q85 0 134 72l63 -53q-71 -97 -197 -97q-64 0 -114.5 25.5t-78.5 72.5zM462 279h272q0 58 -34 96t-94 38q-57 0 -99.5 -39t-44.5 -95zM374 209h-24q-49 0 -82.5 -2.5t-64.5 -10t-46 -23.5t-15 -40q0 -72 98 -72q65 0 99.5 32.5t34.5 90.5v25z" />
    <glyph glyph-name="ccedilla" unicode="&#xe7;" horiz-adv-x="494" 
d="M481 409l-68 -55q-15 24 -45.5 39t-63.5 15q-71 0 -113 -50t-42 -121t42 -121t114 -50q73 0 114 52l63 -57q-62 -70 -165 -74l-37 -56q6 2 27 2q38 0 66 -18.5t28 -59.5q0 -48 -38 -69t-89 -21q-60 0 -103 23l20 42q39 -17 77 -17q22 0 41.5 9.5t19.5 32.5q0 38 -54 38
q-18 0 -41 -7l-20 20l55 83q-98 12 -158.5 79t-60.5 169q0 111 71.5 180.5t181.5 69.5q52 0 101 -20.5t77 -57.5z" />
    <glyph glyph-name="egrave" unicode="&#xe8;" horiz-adv-x="573" 
d="M270 564l-136 144h113l100 -144h-77zM523 241q0 -21 -1 -32h-376q2 -61 47 -102.5t107 -41.5q89 0 138 72l66 -53q-74 -97 -204 -97q-109 0 -179.5 69t-70.5 180q0 110 69.5 180.5t175.5 70.5q105 0 166.5 -66t61.5 -180zM146 279h282q-2 60 -36 97t-97 37
q-60 0 -102.5 -38.5t-46.5 -95.5z" />
    <glyph glyph-name="eacute" unicode="&#xe9;" horiz-adv-x="573" 
d="M458 708l-136 -144h-77l100 144h113zM523 241q0 -21 -1 -32h-376q2 -61 47 -102.5t107 -41.5q89 0 138 72l66 -53q-74 -97 -204 -97q-109 0 -179.5 69t-70.5 180q0 110 69.5 180.5t175.5 70.5q105 0 166.5 -66t61.5 -180zM146 279h282q-2 60 -36 97t-97 37
q-60 0 -102.5 -38.5t-46.5 -95.5z" />
    <glyph glyph-name="ecircumflex" unicode="&#xea;" horiz-adv-x="573" 
d="M355 708l112 -144h-91l-75 99l-76 -99h-90l112 144h108zM523 241q0 -21 -1 -32h-376q2 -61 47 -102.5t107 -41.5q89 0 138 72l66 -53q-74 -97 -204 -97q-109 0 -179.5 69t-70.5 180q0 110 69.5 180.5t175.5 70.5q105 0 166.5 -66t61.5 -180zM146 279h282q-2 60 -36 97
t-97 37q-60 0 -102.5 -38.5t-46.5 -95.5z" />
    <glyph glyph-name="edieresis" unicode="&#xeb;" horiz-adv-x="573" 
d="M335 645q0 25 18 43t44 18t44 -17.5t18 -43.5q0 -25 -18 -42.5t-44 -17.5t-44 18t-18 42zM141 645q0 25 18 43t44 18t44 -17.5t18 -43.5q0 -25 -18 -42.5t-44 -17.5t-44 18t-18 42zM523 241q0 -21 -1 -32h-376q2 -61 47 -102.5t107 -41.5q89 0 138 72l66 -53
q-74 -97 -204 -97q-109 0 -179.5 69t-70.5 180q0 110 69.5 180.5t175.5 70.5q105 0 166.5 -66t61.5 -180zM146 279h282q-2 60 -36 97t-97 37q-60 0 -102.5 -38.5t-46.5 -95.5z" />
    <glyph glyph-name="igrave" unicode="&#xec;" horiz-adv-x="259" 
d="M100 564l-136 144h113l100 -144h-77zM176 474v-474h-94v474h94z" />
    <glyph glyph-name="iacute" unicode="&#xed;" horiz-adv-x="259" 
d="M295 708l-136 -144h-77l100 144h113zM176 474v-474h-94v474h94z" />
    <glyph glyph-name="icircumflex" unicode="&#xee;" horiz-adv-x="259" 
d="M184 708l112 -144h-91l-75 99l-76 -99h-90l112 144h108zM176 474v-474h-94v474h94z" />
    <glyph glyph-name="idieresis" unicode="&#xef;" horiz-adv-x="259" 
d="M165 645q0 25 18 43t44 18t44 -17.5t18 -43.5q0 -25 -18 -42.5t-44 -17.5t-44 18t-18 42zM-29 645q0 25 18 43t44 18t44 -17.5t18 -43.5q0 -25 -18 -42.5t-44 -17.5t-44 18t-18 42zM176 474v-474h-94v474h94z" />
    <glyph glyph-name="eth" unicode="&#xf0;" horiz-adv-x="610" 
d="M142 237q0 -71 43 -120.5t116 -49.5t115.5 49.5t42.5 120.5t-42.5 120.5t-115.5 49.5t-116 -49.5t-43 -120.5zM481 713l-110 -54q185 -190 185 -397q0 -116 -65 -195.5t-190 -79.5q-111 0 -183 70t-72 180q0 109 72 179.5t179 70.5q75 0 130 -49l2 2q-57 109 -141 180
l-110 -53l-48 47l110 53q-30 28 -89 70l77 47q49 -38 93 -78l108 53z" />
    <glyph glyph-name="ntilde" unicode="&#xf1;" horiz-adv-x="582" 
d="M176 572h-55q20 116 102 116q33 0 75 -20q50 -22 67 -22q34 0 48 46h54q-20 -116 -102 -116q-31 0 -77 21q-42 21 -65 21q-33 0 -47 -46zM77 474h89q4 -32 4 -78h3q18 39 60.5 65t93.5 26q87 0 132 -54t45 -139v-294h-94v263q0 145 -108 145q-57 0 -92 -42.5t-35 -113.5
v-252h-94v372q0 61 -4 102z" />
    <glyph glyph-name="ograve" unicode="&#xf2;" horiz-adv-x="610" 
d="M283 564l-136 144h113l100 -144h-77zM463 238q0 72 -42.5 121.5t-115.5 49.5t-115.5 -49.5t-42.5 -121.5t42.5 -122t115.5 -50t115.5 50t42.5 122zM561 238q0 -109 -73 -180t-183 -71t-182.5 70.5t-72.5 180.5q0 109 72.5 179t182.5 70t183 -70t73 -179z" />
    <glyph glyph-name="oacute" unicode="&#xf3;" horiz-adv-x="610" 
d="M461 708l-136 -144h-77l100 144h113zM463 238q0 72 -42.5 121.5t-115.5 49.5t-115.5 -49.5t-42.5 -121.5t42.5 -122t115.5 -50t115.5 50t42.5 122zM561 238q0 -109 -73 -180t-183 -71t-182.5 70.5t-72.5 180.5q0 109 72.5 179t182.5 70t183 -70t73 -179z" />
    <glyph glyph-name="ocircumflex" unicode="&#xf4;" horiz-adv-x="610" 
d="M360 708l112 -144h-91l-75 99l-76 -99h-90l112 144h108zM463 238q0 72 -42.5 121.5t-115.5 49.5t-115.5 -49.5t-42.5 -121.5t42.5 -122t115.5 -50t115.5 50t42.5 122zM561 238q0 -109 -73 -180t-183 -71t-182.5 70.5t-72.5 180.5q0 109 72.5 179t182.5 70t183 -70
t73 -179z" />
    <glyph glyph-name="otilde" unicode="&#xf5;" horiz-adv-x="610" 
d="M188 572h-55q20 116 102 116q33 0 75 -20q50 -22 67 -22q34 0 48 46h54q-20 -116 -102 -116q-31 0 -77 21q-42 21 -65 21q-33 0 -47 -46zM463 238q0 72 -42.5 121.5t-115.5 49.5t-115.5 -49.5t-42.5 -121.5t42.5 -122t115.5 -50t115.5 50t42.5 122zM561 238
q0 -109 -73 -180t-183 -71t-182.5 70.5t-72.5 180.5q0 109 72.5 179t182.5 70t183 -70t73 -179z" />
    <glyph glyph-name="odieresis" unicode="&#xf6;" horiz-adv-x="610" 
d="M341 645q0 25 18 43t44 18t44 -17.5t18 -43.5q0 -25 -18 -42.5t-44 -17.5t-44 18t-18 42zM147 645q0 25 18 43t44 18t44 -17.5t18 -43.5q0 -25 -18 -42.5t-44 -17.5t-44 18t-18 42zM463 238q0 72 -42.5 121.5t-115.5 49.5t-115.5 -49.5t-42.5 -121.5t42.5 -122t115.5 -50
t115.5 50t42.5 122zM561 238q0 -109 -73 -180t-183 -71t-182.5 70.5t-72.5 180.5q0 109 72.5 179t182.5 70t183 -70t73 -179z" />
    <glyph glyph-name="divide" unicode="&#xf7;" horiz-adv-x="666" 
d="M398 469q0 -27 -19 -46t-46 -19t-46 19t-19 46t19 46t46 19t46 -19t19 -46zM398 132q0 -27 -19 -46t-46 -19t-46 19t-19 46t19 46t46 19t46 -19t19 -46zM596 344v-82h-526v82h526z" />
    <glyph glyph-name="oslash" unicode="&#xf8;" horiz-adv-x="610" 
d="M438 338l-235 -240q41 -35 101 -35q76 0 119.5 51t43.5 124q0 62 -29 100zM172 136l234 241q-37 35 -101 35q-75 0 -118 -51.5t-43 -123.5q0 -64 28 -101zM568 471l-67 -70q60 -70 60 -164q0 -109 -73 -179.5t-183 -70.5q-90 0 -159 51l-68 -69l-36 36l66 68
q-58 67 -58 164q0 109 72.5 179.5t182.5 70.5q93 0 158 -51l68 70z" />
    <glyph glyph-name="ugrave" unicode="&#xf9;" horiz-adv-x="582" 
d="M267 564l-136 144h113l100 -144h-77zM504 0h-89q-4 32 -4 78h-2q-18 -39 -61 -65t-94 -26q-88 0 -132.5 54t-44.5 139v294h94v-262q0 -146 108 -146q57 0 92 42.5t35 113.5v252h94v-372q0 -61 4 -102z" />
    <glyph glyph-name="uacute" unicode="&#xfa;" horiz-adv-x="582" 
d="M452 708l-136 -144h-77l100 144h113zM504 0h-89q-4 32 -4 78h-2q-18 -39 -61 -65t-94 -26q-88 0 -132.5 54t-44.5 139v294h94v-262q0 -146 108 -146q57 0 92 42.5t35 113.5v252h94v-372q0 -61 4 -102z" />
    <glyph glyph-name="ucircumflex" unicode="&#xfb;" horiz-adv-x="582" 
d="M345 708l112 -144h-91l-75 99l-76 -99h-90l112 144h108zM504 0h-89q-4 32 -4 78h-2q-18 -39 -61 -65t-94 -26q-88 0 -132.5 54t-44.5 139v294h94v-262q0 -146 108 -146q57 0 92 42.5t35 113.5v252h94v-372q0 -61 4 -102z" />
    <glyph glyph-name="udieresis" unicode="&#xfc;" horiz-adv-x="582" 
d="M325 645q0 25 18 43t44 18t44 -17.5t18 -43.5q0 -25 -18 -42.5t-44 -17.5t-44 18t-18 42zM131 645q0 25 18 43t44 18t44 -17.5t18 -43.5q0 -25 -18 -42.5t-44 -17.5t-44 18t-18 42zM504 0h-89q-4 32 -4 78h-2q-18 -39 -61 -65t-94 -26q-88 0 -132.5 54t-44.5 139v294h94
v-262q0 -146 108 -146q57 0 92 42.5t35 113.5v252h94v-372q0 -61 4 -102z" />
    <glyph glyph-name="yacute" unicode="&#xfd;" horiz-adv-x="504" 
d="M422 708l-136 -144h-77l100 144h113zM114 474l147 -372h2l131 372h100l-230 -586q-25 -65 -61.5 -96.5t-102.5 -31.5q-33 0 -62 7l9 83q26 -8 47 -8q35 0 54 19t34 60l30 79l-203 474h105z" />
    <glyph glyph-name="thorn" unicode="&#xfe;" horiz-adv-x="636" 
d="M487 238q0 71 -42 121t-116 50q-70 0 -115 -51t-45 -121t45 -120.5t115 -50.5q74 0 116 50.5t42 121.5zM175 71v-311h-93v996h93v-356h3q22 39 66.5 63t102.5 24q104 0 170.5 -71.5t66.5 -177.5q0 -107 -66 -179t-173 -72q-51 0 -96 22.5t-71 61.5h-3z" />
    <glyph glyph-name="ydieresis" unicode="&#xff;" horiz-adv-x="504" 
d="M295 645q0 25 18 43t44 18t44 -17.5t18 -43.5q0 -25 -18 -42.5t-44 -17.5t-44 18t-18 42zM101 645q0 25 18 43t44 18t44 -17.5t18 -43.5q0 -25 -18 -42.5t-44 -17.5t-44 18t-18 42zM114 474l147 -372h2l131 372h100l-230 -586q-25 -65 -61.5 -96.5t-102.5 -31.5
q-33 0 -62 7l9 83q26 -8 47 -8q35 0 54 19t34 60l30 79l-203 474h105z" />
    <glyph glyph-name="Amacron" unicode="&#x100;" horiz-adv-x="711" 
d="M502 864v-67h-296v67h296zM354 593l-133 -332h265zM186 174l-71 -174h-110l307 708h90l304 -708h-112l-72 174h-336z" />
    <glyph glyph-name="amacron" unicode="&#x101;" horiz-adv-x="542" 
d="M418 664v-67h-296v67h296zM376 226h-23q-211 0 -211 -90q0 -39 28 -56.5t69 -17.5q64 0 100.5 38.5t36.5 100.5v25zM376 294v13q0 52 -31 78t-86 26q-80 0 -135 -55l-50 60q76 71 194 71q98 0 148 -51.5t50 -134.5v-207q0 -62 7 -94h-85q-8 37 -8 68h-3q-55 -80 -159 -80
q-30 0 -59 8t-55 24t-42 45.5t-16 68.5q0 41 19.5 71.5t49.5 47t76.5 26t88 12.5t96.5 3z" />
    <glyph glyph-name="Abreve" unicode="&#x102;" horiz-adv-x="711" 
d="M458 908h55q-6 -67 -48.5 -102.5t-110.5 -35.5q-69 0 -111.5 35.5t-47.5 102.5h56q13 -72 103 -72q88 0 104 72zM354 593l-133 -332h265zM186 174l-71 -174h-110l307 708h90l304 -708h-112l-72 174h-336z" />
    <glyph glyph-name="abreve" unicode="&#x103;" horiz-adv-x="542" 
d="M373 708h55q-6 -67 -48.5 -102.5t-110.5 -35.5q-69 0 -111.5 35.5t-47.5 102.5h56q13 -72 103 -72q88 0 104 72zM376 226h-23q-211 0 -211 -90q0 -39 28 -56.5t69 -17.5q64 0 100.5 38.5t36.5 100.5v25zM376 294v13q0 52 -31 78t-86 26q-80 0 -135 -55l-50 60
q76 71 194 71q98 0 148 -51.5t50 -134.5v-207q0 -62 7 -94h-85q-8 37 -8 68h-3q-55 -80 -159 -80q-30 0 -59 8t-55 24t-42 45.5t-16 68.5q0 41 19.5 71.5t49.5 47t76.5 26t88 12.5t96.5 3z" />
    <glyph glyph-name="Aogonek" unicode="&#x104;" horiz-adv-x="711" 
d="M354 593l-133 -332h265zM671 -144l22 -45q-43 -37 -95 -37q-40 0 -68.5 24t-28.5 63q0 69 91 142l-70 171h-336l-71 -174h-110l307 708h90l304 -708h-63q-73 -71 -73 -119q0 -20 14 -33.5t34 -13.5q28 0 53 22z" />
    <glyph glyph-name="aogonek" unicode="&#x105;" horiz-adv-x="542" 
d="M376 226h-23q-211 0 -211 -90q0 -39 28 -56.5t69 -17.5q64 0 100.5 38.5t36.5 100.5v25zM465 -144l22 -45q-43 -37 -95 -37q-40 0 -68.5 24t-28.5 63q0 38 27.5 76.5t64.5 65.5q-7 28 -7 65h-3q-55 -80 -159 -80q-30 0 -59 8t-55 24t-42 45.5t-16 68.5q0 41 19.5 71.5
t49.5 47t76.5 26t88 12.5t96.5 3v13q0 52 -31 78t-86 26q-80 0 -135 -55l-50 60q76 71 194 71q98 0 148 -51.5t50 -134.5v-207q0 -62 7 -94h-36q-73 -71 -73 -119q0 -20 14 -33.5t34 -13.5q28 0 53 22z" />
    <glyph glyph-name="Cacute" unicode="&#x106;" horiz-adv-x="708" 
d="M568 908l-137 -144h-76l99 144h114zM614 164l79 -54q-94 -128 -270 -128q-163 0 -268 104.5t-105 268.5t106.5 267.5t270.5 103.5q76 0 145.5 -29t108.5 -81l-78 -60q-27 37 -74.5 60t-101.5 23q-120 0 -194.5 -82t-74.5 -202q0 -123 73 -204t193 -81q124 0 190 94z" />
    <glyph glyph-name="cacute" unicode="&#x107;" horiz-adv-x="494" 
d="M456 708l-136 -144h-77l100 144h113zM481 409l-68 -55q-15 24 -45.5 39t-63.5 15q-71 0 -113 -50t-42 -121t42 -121t114 -50q73 0 114 52l63 -57q-63 -74 -177 -74q-111 0 -183 69t-72 181q0 111 71.5 180.5t181.5 69.5q52 0 101 -20.5t77 -57.5z" />
    <glyph glyph-name="Ccircumflex" unicode="&#x108;" horiz-adv-x="708" 
d="M477 908l112 -144h-91l-75 99l-76 -99h-90l112 144h108zM614 164l79 -54q-94 -128 -270 -128q-163 0 -268 104.5t-105 268.5t106.5 267.5t270.5 103.5q76 0 145.5 -29t108.5 -81l-78 -60q-27 37 -74.5 60t-101.5 23q-120 0 -194.5 -82t-74.5 -202q0 -123 73 -204t193 -81
q124 0 190 94z" />
    <glyph glyph-name="ccircumflex" unicode="&#x109;" horiz-adv-x="494" 
d="M357 708l112 -144h-91l-75 99l-76 -99h-90l112 144h108zM481 409l-68 -55q-15 24 -45.5 39t-63.5 15q-71 0 -113 -50t-42 -121t42 -121t114 -50q73 0 114 52l63 -57q-63 -74 -177 -74q-111 0 -183 69t-72 181q0 111 71.5 180.5t181.5 69.5q52 0 101 -20.5t77 -57.5z" />
    <glyph glyph-name="Cdotaccent" unicode="&#x10a;" horiz-adv-x="708" 
d="M486 845q0 -26 -18 -43t-45 -17q-26 0 -44 17.5t-18 42.5q0 26 18 43.5t44 17.5t44.5 -17.5t18.5 -43.5zM614 164l79 -54q-94 -128 -270 -128q-163 0 -268 104.5t-105 268.5t106.5 267.5t270.5 103.5q76 0 145.5 -29t108.5 -81l-78 -60q-27 37 -74.5 60t-101.5 23
q-120 0 -194.5 -82t-74.5 -202q0 -123 73 -204t193 -81q124 0 190 94z" />
    <glyph glyph-name="cdotaccent" unicode="&#x10b;" horiz-adv-x="494" 
d="M363 645q0 -26 -18 -43t-45 -17q-26 0 -44 17.5t-18 42.5q0 26 18 43.5t44 17.5t44.5 -17.5t18.5 -43.5zM481 409l-68 -55q-15 24 -45.5 39t-63.5 15q-71 0 -113 -50t-42 -121t42 -121t114 -50q73 0 114 52l63 -57q-63 -74 -177 -74q-111 0 -183 69t-72 181
q0 111 71.5 180.5t181.5 69.5q52 0 101 -20.5t77 -57.5z" />
    <glyph glyph-name="Ccaron" unicode="&#x10c;" horiz-adv-x="708" 
d="M588 908l-112 -144h-107l-111 144h90l76 -99l76 99h88zM614 164l79 -54q-94 -128 -270 -128q-163 0 -268 104.5t-105 268.5t106.5 267.5t270.5 103.5q76 0 145.5 -29t108.5 -81l-78 -60q-27 37 -74.5 60t-101.5 23q-120 0 -194.5 -82t-74.5 -202q0 -123 73 -204t193 -81
q124 0 190 94z" />
    <glyph glyph-name="ccaron" unicode="&#x10d;" horiz-adv-x="494" 
d="M469 708l-112 -144h-107l-111 144h90l76 -99l76 99h88zM481 409l-68 -55q-15 24 -45.5 39t-63.5 15q-71 0 -113 -50t-42 -121t42 -121t114 -50q73 0 114 52l63 -57q-63 -74 -177 -74q-111 0 -183 69t-72 181q0 111 71.5 180.5t181.5 69.5q52 0 101 -20.5t77 -57.5z" />
    <glyph glyph-name="Dcaron" unicode="&#x10e;" horiz-adv-x="761" 
d="M509 908l-112 -144h-107l-111 144h90l76 -99l76 99h88zM185 622v-535h124q132 0 214 71.5t82 195.5q0 128 -81.5 198t-214.5 70h-124zM86 0v708h243q71 0 136.5 -20.5t121.5 -61.5t90 -111.5t34 -160.5q0 -87 -34 -157t-89.5 -111.5t-122 -63.5t-136.5 -22h-243z" />
    <glyph glyph-name="dcaron" unicode="&#x10f;" horiz-adv-x="635" 
d="M743 708l-78 -190h-79l64 190h93zM147 238q0 -71 42 -121.5t115 -50.5q70 0 115 50.5t45 120.5t-45 121t-115 51q-74 0 -115.5 -50t-41.5 -121zM461 75h-2q-26 -42 -72.5 -65t-98.5 -23q-107 0 -173 72t-66 179t66.5 178t171.5 71q110 0 169 -84h2v353h94v-756h-91v75z
" />
    <glyph glyph-name="Dcroat" unicode="&#x110;" horiz-adv-x="761" 
d="M182 335v-245h117q139 0 220 72t81 192q0 121 -77 192.5t-214 71.5h-127v-213h237v-70h-237zM82 0v335h-69v70h69v303h258q94 0 175.5 -38t136 -120.5t54.5 -195.5q0 -86 -34 -156t-88.5 -112t-119.5 -64t-132 -22h-250z" />
    <glyph glyph-name="dcroat" unicode="&#x111;" horiz-adv-x="635" 
d="M147 238q0 -71 42 -121.5t115 -50.5q70 0 115 50.5t45 120.5t-45 121t-115 51q-74 0 -115.5 -50t-41.5 -121zM295 633h163v123h94v-123h56v-63h-56v-570h-91v75h-2q-26 -42 -72.5 -65t-98.5 -23q-107 0 -173 72t-66 179t66.5 178t171.5 71q110 0 169 -84h2v167h-163v63z
" />
    <glyph glyph-name="Emacron" unicode="&#x112;" horiz-adv-x="601" 
d="M462 864v-67h-296v67h296zM185 324v-236h370v-88h-469v708h454v-87h-355v-212h334v-85h-334z" />
    <glyph glyph-name="emacron" unicode="&#x113;" horiz-adv-x="573" 
d="M444 664v-67h-296v67h296zM523 241q0 -21 -1 -32h-376q2 -61 47 -102.5t107 -41.5q89 0 138 72l66 -53q-74 -97 -204 -97q-109 0 -179.5 69t-70.5 180q0 110 69.5 180.5t175.5 70.5q105 0 166.5 -66t61.5 -180zM146 279h282q-2 60 -36 97t-97 37q-60 0 -102.5 -38.5
t-46.5 -95.5z" />
    <glyph glyph-name="Ebreve" unicode="&#x114;" horiz-adv-x="601" 
d="M421 908h55q-6 -67 -48.5 -102.5t-110.5 -35.5q-69 0 -111.5 35.5t-47.5 102.5h56q13 -72 103 -72q88 0 104 72zM185 324v-236h370v-88h-469v708h454v-87h-355v-212h334v-85h-334z" />
    <glyph glyph-name="ebreve" unicode="&#x115;" horiz-adv-x="573" 
d="M403 708h55q-6 -67 -48.5 -102.5t-110.5 -35.5q-69 0 -111.5 35.5t-47.5 102.5h56q13 -72 103 -72q88 0 104 72zM523 241q0 -21 -1 -32h-376q2 -61 47 -102.5t107 -41.5q89 0 138 72l66 -53q-74 -97 -204 -97q-109 0 -179.5 69t-70.5 180q0 110 69.5 180.5t175.5 70.5
q105 0 166.5 -66t61.5 -180zM146 279h282q-2 60 -36 97t-97 37q-60 0 -102.5 -38.5t-46.5 -95.5z" />
    <glyph glyph-name="Edotaccent" unicode="&#x116;" horiz-adv-x="601" 
d="M377 845q0 -26 -18 -43t-45 -17q-26 0 -44 17.5t-18 42.5q0 26 18 43.5t44 17.5t44.5 -17.5t18.5 -43.5zM185 324v-236h370v-88h-469v708h454v-87h-355v-212h334v-85h-334z" />
    <glyph glyph-name="edotaccent" unicode="&#x117;" horiz-adv-x="573" 
d="M359 645q0 -26 -18 -43t-45 -17q-26 0 -44 17.5t-18 42.5q0 26 18 43.5t44 17.5t44.5 -17.5t18.5 -43.5zM523 241q0 -21 -1 -32h-376q2 -61 47 -102.5t107 -41.5q89 0 138 72l66 -53q-74 -97 -204 -97q-109 0 -179.5 69t-70.5 180q0 110 69.5 180.5t175.5 70.5
q105 0 166.5 -66t61.5 -180zM146 279h282q-2 60 -36 97t-97 37q-60 0 -102.5 -38.5t-46.5 -95.5z" />
    <glyph glyph-name="Eogonek" unicode="&#x118;" horiz-adv-x="601" 
d="M568 -144l22 -45q-43 -37 -95 -37q-40 0 -68.5 24t-28.5 63q0 69 87 139h-399v708h454v-87h-355v-212h334v-85h-334v-236h370v-88h-15q-73 -71 -73 -119q0 -20 14 -33.5t34 -13.5q28 0 53 22z" />
    <glyph glyph-name="eogonek" unicode="&#x119;" horiz-adv-x="573" 
d="M146 279h282q-2 60 -36 97t-97 37q-60 0 -102.5 -38.5t-46.5 -95.5zM378 -144l22 -45q-43 -37 -95 -37q-40 0 -68.5 24t-28.5 63q0 62 73 127q-102 6 -166.5 74t-64.5 174q0 110 69.5 180.5t175.5 70.5q105 0 166.5 -66t61.5 -180q0 -21 -1 -32h-376q2 -61 47 -102.5
t107 -41.5q89 0 138 72l66 -53q-64 -82 -164 -94q-63 -67 -63 -109q0 -20 14 -33.5t34 -13.5q28 0 53 22z" />
    <glyph glyph-name="Ecaron" unicode="&#x11a;" horiz-adv-x="601" 
d="M482 908l-112 -144h-107l-111 144h90l76 -99l76 99h88zM185 324v-236h370v-88h-469v708h454v-87h-355v-212h334v-85h-334z" />
    <glyph glyph-name="ecaron" unicode="&#x11b;" horiz-adv-x="573" 
d="M461 708l-112 -144h-107l-111 144h90l76 -99l76 99h88zM523 241q0 -21 -1 -32h-376q2 -61 47 -102.5t107 -41.5q89 0 138 72l66 -53q-74 -97 -204 -97q-109 0 -179.5 69t-70.5 180q0 110 69.5 180.5t175.5 70.5q105 0 166.5 -66t61.5 -180zM146 279h282q-2 60 -36 97
t-97 37q-60 0 -102.5 -38.5t-46.5 -95.5z" />
    <glyph glyph-name="Gcircumflex" unicode="&#x11c;" horiz-adv-x="778" 
d="M481 908l112 -144h-91l-75 99l-76 -99h-90l112 144h108zM689 634l-69 -72q-70 77 -192 77q-121 0 -195.5 -82t-74.5 -202q0 -122 74.5 -203t198.5 -81q103 0 165 35v197h-157v84h255v-343q-116 -62 -266 -62q-166 0 -272 104.5t-106 268.5t106.5 267.5t270.5 103.5
q165 0 262 -92z" />
    <glyph glyph-name="gcircumflex" unicode="&#x11d;" horiz-adv-x="632" 
d="M364 708l112 -144h-91l-75 99l-76 -99h-90l112 144h108zM147 242q0 -69 43 -118t114 -49t116 48t45 119q0 69 -45.5 118t-115.5 49q-72 0 -114.5 -48t-42.5 -119zM58 -154l60 73q31 -35 77.5 -56t95.5 -21q167 0 167 175v61h-2q-26 -39 -70.5 -60.5t-96.5 -21.5
q-107 0 -173 70t-66 174t66 175.5t172 71.5q53 0 99 -23t72 -66h2v76h91v-450q0 -54 -13.5 -99.5t-43 -83.5t-82 -59.5t-123.5 -21.5q-63 0 -125.5 22.5t-106.5 63.5z" />
    <glyph glyph-name="Gbreve" unicode="&#x11e;" horiz-adv-x="778" 
d="M531 908h55q-6 -67 -48.5 -102.5t-110.5 -35.5q-69 0 -111.5 35.5t-47.5 102.5h56q13 -72 103 -72q88 0 104 72zM689 634l-69 -72q-70 77 -192 77q-121 0 -195.5 -82t-74.5 -202q0 -122 74.5 -203t198.5 -81q103 0 165 35v197h-157v84h255v-343q-116 -62 -266 -62
q-166 0 -272 104.5t-106 268.5t106.5 267.5t270.5 103.5q165 0 262 -92z" />
    <glyph glyph-name="gbreve" unicode="&#x11f;" horiz-adv-x="632" 
d="M410 708h55q-6 -67 -48.5 -102.5t-110.5 -35.5q-69 0 -111.5 35.5t-47.5 102.5h56q13 -72 103 -72q88 0 104 72zM147 242q0 -69 43 -118t114 -49t116 48t45 119q0 69 -45.5 118t-115.5 49q-72 0 -114.5 -48t-42.5 -119zM58 -154l60 73q31 -35 77.5 -56t95.5 -21
q167 0 167 175v61h-2q-26 -39 -70.5 -60.5t-96.5 -21.5q-107 0 -173 70t-66 174t66 175.5t172 71.5q53 0 99 -23t72 -66h2v76h91v-450q0 -54 -13.5 -99.5t-43 -83.5t-82 -59.5t-123.5 -21.5q-63 0 -125.5 22.5t-106.5 63.5z" />
    <glyph glyph-name="Gdotaccent" unicode="&#x120;" horiz-adv-x="778" 
d="M489 845q0 -26 -18 -43t-45 -17q-26 0 -44 17.5t-18 42.5q0 26 18 43.5t44 17.5t44.5 -17.5t18.5 -43.5zM689 634l-69 -72q-70 77 -192 77q-121 0 -195.5 -82t-74.5 -202q0 -122 74.5 -203t198.5 -81q103 0 165 35v197h-157v84h255v-343q-116 -62 -266 -62
q-166 0 -272 104.5t-106 268.5t106.5 267.5t270.5 103.5q165 0 262 -92z" />
    <glyph glyph-name="gdotaccent" unicode="&#x121;" horiz-adv-x="632" 
d="M380 645q0 -26 -18 -43t-45 -17q-26 0 -44 17.5t-18 42.5q0 26 18 43.5t44 17.5t44.5 -17.5t18.5 -43.5zM147 242q0 -69 43 -118t114 -49t116 48t45 119q0 69 -45.5 118t-115.5 49q-72 0 -114.5 -48t-42.5 -119zM58 -154l60 73q31 -35 77.5 -56t95.5 -21q167 0 167 175
v61h-2q-26 -39 -70.5 -60.5t-96.5 -21.5q-107 0 -173 70t-66 174t66 175.5t172 71.5q53 0 99 -23t72 -66h2v76h91v-450q0 -54 -13.5 -99.5t-43 -83.5t-82 -59.5t-123.5 -21.5q-63 0 -125.5 22.5t-106.5 63.5z" />
    <glyph glyph-name="Gcommaaccent" unicode="&#x122;" horiz-adv-x="778" 
d="M490 -45l-78 -190h-79l64 190h93zM689 634l-69 -72q-70 77 -192 77q-121 0 -195.5 -82t-74.5 -202q0 -122 74.5 -203t198.5 -81q103 0 165 35v197h-157v84h255v-343q-116 -62 -266 -62q-166 0 -272 104.5t-106 268.5t106.5 267.5t270.5 103.5q165 0 262 -92z" />
    <glyph glyph-name="gcommaaccent" unicode="&#x123;" horiz-adv-x="632" 
d="M272 564l78 190h79l-64 -190h-93zM147 242q0 -69 43 -118t114 -49t116 48t45 119q0 69 -45.5 118t-115.5 49q-72 0 -114.5 -48t-42.5 -119zM58 -154l60 73q31 -35 77.5 -56t95.5 -21q167 0 167 175v61h-2q-26 -39 -70.5 -60.5t-96.5 -21.5q-107 0 -173 70t-66 174
t66 175.5t172 71.5q53 0 99 -23t72 -66h2v76h91v-450q0 -54 -13.5 -99.5t-43 -83.5t-82 -59.5t-123.5 -21.5q-63 0 -125.5 22.5t-106.5 63.5z" />
    <glyph glyph-name="Hcircumflex" unicode="&#x124;" horiz-adv-x="729" 
d="M418 908l112 -144h-91l-75 99l-76 -99h-90l112 144h108zM86 0v708h99v-296h358v296h100v-708h-100v324h-358v-324h-99z" />
    <glyph glyph-name="hcircumflex" unicode="&#x125;" horiz-adv-x="584" 
d="M349 940l112 -144h-91l-75 99l-76 -99h-90l112 144h108zM177 402h2q18 36 59 60.5t91 24.5q87 0 132 -54t45 -139v-294h-94v262q0 145 -107 145q-57 0 -92.5 -42.5t-35.5 -113.5v-251h-94v756h94v-354z" />
    <glyph glyph-name="Hbar" unicode="&#x126;" horiz-adv-x="729" 
d="M185 412h358v88h-358v-88zM86 0v708h99v-145h358v145h100v-708h-100v324h-358v-324h-99z" />
    <glyph glyph-name="hbar" unicode="&#x127;" horiz-adv-x="584" 
d="M29 633h54v123h94v-123h164v-63h-164v-168h2q18 36 59 60.5t91 24.5q88 0 133 -54t45 -139v-294h-95v262q0 145 -107 145q-57 0 -92.5 -42.5t-35.5 -113.5v-251h-94v570h-54v63z" />
    <glyph glyph-name="Itilde" unicode="&#x128;" horiz-adv-x="271" 
d="M17 772h-55q20 116 102 116q33 0 75 -20q50 -22 67 -22q34 0 48 46h54q-20 -116 -102 -116q-31 0 -77 21q-42 21 -65 21q-33 0 -47 -46zM185 708v-708h-99v708h99z" />
    <glyph glyph-name="itilde" unicode="&#x129;" horiz-adv-x="259" 
d="M13 572h-55q20 116 102 116q33 0 75 -20q49 -22 67 -22q34 0 48 46h54q-20 -116 -102 -116q-31 0 -77 21q-42 21 -65 21q-33 0 -47 -46zM176 474v-474h-94v474h94z" />
    <glyph glyph-name="Imacron" unicode="&#x12a;" horiz-adv-x="271" 
d="M282 864v-67h-296v67h296zM185 708v-708h-99v708h99z" />
    <glyph glyph-name="imacron" unicode="&#x12b;" horiz-adv-x="259" 
d="M278 664v-67h-296v67h296zM176 474v-474h-94v474h94z" />
    <glyph glyph-name="Ibreve" unicode="&#x12c;" horiz-adv-x="271" 
d="M185 708v-708h-99v708h99zM239 921h55q-6 -67 -48.5 -102.5t-110.5 -35.5q-69 0 -111.5 35.5t-47.5 102.5h56q13 -72 103 -72q88 0 104 72z" />
    <glyph glyph-name="ibreve" unicode="&#x12d;" horiz-adv-x="259" 
d="M176 474v-474h-94v474h94zM233 688h55q-6 -67 -48.5 -102.5t-110.5 -35.5q-69 0 -111.5 35.5t-47.5 102.5h56q13 -72 103 -72q88 0 104 72z" />
    <glyph glyph-name="Iogonek" unicode="&#x12e;" horiz-adv-x="271" 
d="M205 -144l22 -45q-43 -37 -95 -37q-40 0 -68.5 24t-28.5 63q0 69 87 139h-36v708h99v-708h-8q-73 -71 -73 -119q0 -20 14 -33.5t34 -13.5q28 0 53 22z" />
    <glyph glyph-name="iogonek" unicode="&#x12f;" horiz-adv-x="259" 
d="M192 645q0 -26 -18 -43t-45 -17q-26 0 -44 17.5t-18 42.5q0 26 18 43.5t44 17.5t44.5 -17.5t18.5 -43.5zM193 -144l22 -45q-43 -37 -95 -37q-40 0 -68.5 24t-28.5 63q0 69 87 139h-28v474h94v-474h-11q-73 -71 -73 -119q0 -20 14 -33.5t34 -13.5q28 0 53 22z" />
    <glyph glyph-name="Idotaccent" unicode="&#x130;" horiz-adv-x="271" 
d="M200 845q0 -26 -18 -43t-45 -17q-26 0 -44 17.5t-18 42.5q0 26 18 43.5t44 17.5t44.5 -17.5t18.5 -43.5zM185 708v-708h-99v708h99z" />
    <glyph glyph-name="dotlessi" unicode="&#x131;" horiz-adv-x="259" 
d="M176 474v-474h-94v474h94z" />
    <glyph glyph-name="IJ" unicode="&#x132;" horiz-adv-x="758" 
d="M278 132l92 26q8 -39 35.5 -63.5t66.5 -24.5q107 0 107 151v487h99v-491q0 -32 -5 -62t-18.5 -62.5t-35 -56t-58 -39t-84.5 -15.5q-79 0 -131 41t-68 109zM185 708v-708h-99v708h99z" />
    <glyph glyph-name="ij" unicode="&#x133;" horiz-adv-x="515" 
d="M448 645q0 -26 -18 -43t-45 -17q-26 0 -44.5 17.5t-18.5 42.5q0 26 18.5 43.5t44.5 17.5t44.5 -17.5t18.5 -43.5zM224 -234l10 80q22 -5 38 -5q39 0 52.5 26.5t13.5 74.5v532h94v-535q0 -179 -154 -179q-24 0 -54 6zM192 645q0 -26 -18 -43t-45 -17q-26 0 -44 17.5
t-18 42.5q0 26 18 43.5t44 17.5t44.5 -17.5t18.5 -43.5zM176 474v-474h-94v474h94z" />
    <glyph glyph-name="Jcircumflex" unicode="&#x134;" horiz-adv-x="495" 
d="M419 908l112 -144h-91l-75 99l-76 -99h-90l112 144h108zM15 132l92 26q8 -39 35.5 -63.5t66.5 -24.5q107 0 107 151v487h99v-491q0 -32 -5 -62t-18.5 -62.5t-35 -56t-58 -39t-84.5 -15.5q-79 0 -131 41t-68 109z" />
    <glyph glyph-name="jcircumflex" unicode="&#x135;" horiz-adv-x="260" 
d="M182 708l112 -144h-91l-75 99l-76 -99h-90l112 144h108zM-31 -234l10 80q22 -5 38 -5q39 0 52.5 26.5t13.5 74.5v532h94v-535q0 -179 -154 -179q-24 0 -54 6z" />
    <glyph glyph-name="Kcommaaccent" unicode="&#x136;" horiz-adv-x="659" 
d="M400 -45l-78 -190h-79l64 190h93zM185 708v-312h2l316 312h137l-344 -324l365 -384h-142l-332 366h-2v-366h-99v708h99z" />
    <glyph glyph-name="kcommaaccent" unicode="&#x137;" horiz-adv-x="527" 
d="M333 -45l-78 -190h-79l64 190h93zM177 756v-488h3l199 206h126l-222 -215l241 -259h-130l-214 246h-3v-246h-94v756h94z" />
    <glyph glyph-name="Lacute" unicode="&#x139;" horiz-adv-x="511" 
d="M303 908l-137 -144h-76l99 144h114zM185 708v-620h316v-88h-415v708h99z" />
    <glyph glyph-name="lacute" unicode="&#x13a;" horiz-adv-x="260" 
d="M296 936l-136 -144h-77l100 144h113zM177 756v-756h-94v756h94z" />
    <glyph glyph-name="Lcommaaccent" unicode="&#x13b;" horiz-adv-x="511" 
d="M355 -45l-78 -190h-79l64 190h93zM185 708v-620h316v-88h-415v708h99z" />
    <glyph glyph-name="lcommaaccent" unicode="&#x13c;" horiz-adv-x="260" 
d="M193 -45l-78 -190h-79l64 190h93zM177 756v-756h-94v756h94z" />
    <glyph glyph-name="Lcaron" unicode="&#x13d;" horiz-adv-x="511" 
d="M386 708l-78 -190h-79l64 190h93zM185 708v-620h316v-88h-415v708h99z" />
    <glyph glyph-name="lcaron" unicode="&#x13e;" horiz-adv-x="260" 
d="M369 708l-78 -190h-79l64 190h93zM177 756v-756h-94v756h94z" />
    <glyph glyph-name="Ldot" unicode="&#x13f;" horiz-adv-x="511" 
d="M449 335q0 -26 -18 -43t-45 -17q-26 0 -44 17.5t-18 42.5q0 26 18 43.5t44 17.5t44.5 -17.5t18.5 -43.5zM185 708v-620h316v-88h-415v708h99z" />
    <glyph glyph-name="ldot" unicode="&#x140;" horiz-adv-x="350" 
d="M364 335q0 -26 -18 -43t-45 -17q-26 0 -44 17.5t-18 42.5q0 26 18 43.5t44 17.5t44.5 -17.5t18.5 -43.5zM177 756v-756h-94v756h94z" />
    <glyph glyph-name="Lslash" unicode="&#x141;" horiz-adv-x="511" 
d="M185 708v-323l211 184v-90l-211 -184v-207h316v-88h-415v221l-76 -66v91l76 65v397h99z" />
    <glyph glyph-name="lslash" unicode="&#x142;" horiz-adv-x="260" 
d="M176 756v-276l75 76v-90l-75 -75v-391h-93v314l-75 -76v92l75 75v351h93z" />
    <glyph glyph-name="Nacute" unicode="&#x143;" horiz-adv-x="772" 
d="M528 908l-137 -144h-76l99 144h114zM215 708l370 -566h2v566h99v-708h-125l-374 578h-2v-578h-99v708h129z" />
    <glyph glyph-name="nacute" unicode="&#x144;" horiz-adv-x="582" 
d="M446 708l-136 -144h-77l100 144h113zM77 474h89q4 -32 4 -78h3q18 39 60.5 65t93.5 26q87 0 132 -54t45 -139v-294h-94v263q0 145 -108 145q-57 0 -92 -42.5t-35 -113.5v-252h-94v372q0 61 -4 102z" />
    <glyph glyph-name="Ncommaaccent" unicode="&#x145;" horiz-adv-x="772" 
d="M455 -45l-78 -190h-79l64 190h93zM215 708l370 -566h2v566h99v-708h-125l-374 578h-2v-578h-99v708h129z" />
    <glyph glyph-name="ncommaaccent" unicode="&#x146;" horiz-adv-x="582" 
d="M355 -45l-78 -190h-79l64 190h93zM77 474h89q4 -32 4 -78h3q18 39 60.5 65t93.5 26q87 0 132 -54t45 -139v-294h-94v263q0 145 -108 145q-57 0 -92 -42.5t-35 -113.5v-252h-94v372q0 61 -4 102z" />
    <glyph glyph-name="Ncaron" unicode="&#x147;" horiz-adv-x="772" 
d="M554 908l-112 -144h-107l-111 144h90l76 -99l76 99h88zM215 708l370 -566h2v566h99v-708h-125l-374 578h-2v-578h-99v708h129z" />
    <glyph glyph-name="ncaron" unicode="&#x148;" horiz-adv-x="582" 
d="M457 708l-112 -144h-107l-111 144h90l76 -99l76 99h88zM77 474h89q4 -32 4 -78h3q18 39 60.5 65t93.5 26q87 0 132 -54t45 -139v-294h-94v263q0 145 -108 145q-57 0 -92 -42.5t-35 -113.5v-252h-94v372q0 61 -4 102z" />
    <glyph glyph-name="napostrophe" unicode="&#x149;" horiz-adv-x="602" 
d="M145 708l-78 -190h-79l64 190h93zM97 474h89q4 -32 4 -78h3q18 39 60.5 65t93.5 26q87 0 132 -54t45 -139v-294h-94v263q0 145 -108 145q-57 0 -92 -42.5t-35 -113.5v-252h-94v372q0 61 -4 102z" />
    <glyph glyph-name="Omacron" unicode="&#x14c;" horiz-adv-x="849" 
d="M573 864v-67h-296v67h296zM693 355q0 120 -74.5 202t-194.5 82q-119 0 -193 -82t-74 -202q0 -121 74 -202.5t193 -81.5q121 0 195 81.5t74 202.5zM800 355q0 -163 -106.5 -268t-269.5 -105t-268.5 104.5t-105.5 268.5q0 165 105.5 268t268.5 103t269.5 -103.5
t106.5 -267.5z" />
    <glyph glyph-name="omacron" unicode="&#x14d;" horiz-adv-x="610" 
d="M454 664v-67h-296v67h296zM463 238q0 72 -42.5 121.5t-115.5 49.5t-115.5 -49.5t-42.5 -121.5t42.5 -122t115.5 -50t115.5 50t42.5 122zM561 238q0 -109 -73 -180t-183 -71t-182.5 70.5t-72.5 180.5q0 109 72.5 179t182.5 70t183 -70t73 -179z" />
    <glyph glyph-name="Obreve" unicode="&#x14e;" horiz-adv-x="849" 
d="M528 908h55q-6 -67 -48.5 -102.5t-110.5 -35.5q-69 0 -111.5 35.5t-47.5 102.5h56q13 -72 103 -72q88 0 104 72zM693 355q0 120 -74.5 202t-194.5 82q-119 0 -193 -82t-74 -202q0 -121 74 -202.5t193 -81.5q121 0 195 81.5t74 202.5zM800 355q0 -163 -106.5 -268
t-269.5 -105t-268.5 104.5t-105.5 268.5q0 165 105.5 268t268.5 103t269.5 -103.5t106.5 -267.5z" />
    <glyph glyph-name="obreve" unicode="&#x14f;" horiz-adv-x="610" 
d="M410 708h55q-6 -67 -48.5 -102.5t-110.5 -35.5q-69 0 -111.5 35.5t-47.5 102.5h56q13 -72 103 -72q88 0 104 72zM463 238q0 72 -42.5 121.5t-115.5 49.5t-115.5 -49.5t-42.5 -121.5t42.5 -122t115.5 -50t115.5 50t42.5 122zM561 238q0 -109 -73 -180t-183 -71
t-182.5 70.5t-72.5 180.5q0 109 72.5 179t182.5 70t183 -70t73 -179z" />
    <glyph glyph-name="Ohungarumlaut" unicode="&#x150;" horiz-adv-x="849" 
d="M682 908l-136 -144h-77l100 144h113zM500 908l-137 -144h-77l100 144h114zM693 355q0 120 -74.5 202t-194.5 82q-119 0 -193 -82t-74 -202q0 -121 74 -202.5t193 -81.5q121 0 195 81.5t74 202.5zM800 355q0 -163 -106.5 -268t-269.5 -105t-268.5 104.5t-105.5 268.5
q0 165 105.5 268t268.5 103t269.5 -103.5t106.5 -267.5z" />
    <glyph glyph-name="ohungarumlaut" unicode="&#x151;" horiz-adv-x="610" 
d="M568 708l-136 -144h-77l100 144h113zM386 708l-137 -144h-77l100 144h114zM463 238q0 72 -42.5 121.5t-115.5 49.5t-115.5 -49.5t-42.5 -121.5t42.5 -122t115.5 -50t115.5 50t42.5 122zM561 238q0 -109 -73 -180t-183 -71t-182.5 70.5t-72.5 180.5q0 109 72.5 179
t182.5 70t183 -70t73 -179z" />
    <glyph glyph-name="OE" unicode="&#x152;" horiz-adv-x="1003" 
d="M512 621h-60q-133 0 -214.5 -69.5t-81.5 -197.5q0 -124 82 -195t214 -71h60v533zM432 708h510v-87h-331v-212h310v-85h-310v-236h346v-88h-525q-70 0 -136.5 22t-122 63.5t-89.5 111.5t-34 157q0 90 34 160.5t90 111.5t121.5 61.5t136.5 20.5z" />
    <glyph glyph-name="oe" unicode="&#x153;" horiz-adv-x="975" 
d="M549 279h283q-2 59 -36.5 96.5t-97.5 37.5q-60 0 -102.5 -38.5t-46.5 -95.5zM463 238q0 72 -42.5 121.5t-115.5 49.5q-74 0 -116.5 -49.5t-42.5 -121.5t43 -122t116 -50t115.5 50t42.5 122zM698 487q105 0 166.5 -66t61.5 -180q0 -21 -1 -32h-377q4 -62 48 -103t107 -41
q89 0 138 72l65 -53q-75 -97 -204 -97q-65 0 -117 27t-82 75q-31 -48 -83.5 -75t-117.5 -27q-109 0 -180.5 70.5t-71.5 180.5q0 109 71.5 179t180.5 70q65 0 118 -27.5t84 -75.5q32 47 82 75t112 28z" />
    <glyph glyph-name="Racute" unicode="&#x154;" horiz-adv-x="614" 
d="M435 908l-137 -144h-76l99 144h114zM185 624v-226h114q75 0 120.5 27.5t45.5 86.5q0 112 -159 112h-121zM185 315v-315h-99v708h227q112 0 182 -47t70 -149q0 -76 -47 -125t-125 -62l198 -325h-120l-180 315h-106z" />
    <glyph glyph-name="racute" unicode="&#x155;" horiz-adv-x="362" 
d="M317 708l-136 -144h-77l100 144h113zM81 0v372q0 61 -4 102h89q4 -32 4 -80h3q21 43 59.5 68t85.5 25q24 0 37 -4l-4 -87q-22 5 -43 5q-65 0 -99 -43.5t-34 -108.5v-249h-94z" />
    <glyph glyph-name="Rcommaaccent" unicode="&#x156;" horiz-adv-x="614" 
d="M379 -45l-78 -190h-79l64 190h93zM185 624v-226h114q75 0 120.5 27.5t45.5 86.5q0 112 -159 112h-121zM185 315v-315h-99v708h227q112 0 182 -47t70 -149q0 -76 -47 -125t-125 -62l198 -325h-120l-180 315h-106z" />
    <glyph glyph-name="rcommaaccent" unicode="&#x157;" horiz-adv-x="362" 
d="M192 -45l-78 -190h-79l64 190h93zM81 0v372q0 61 -4 102h89q4 -32 4 -80h3q21 43 59.5 68t85.5 25q24 0 37 -4l-4 -87q-22 5 -43 5q-65 0 -99 -43.5t-34 -108.5v-249h-94z" />
    <glyph glyph-name="Rcaron" unicode="&#x158;" horiz-adv-x="614" 
d="M459 908l-112 -144h-107l-111 144h90l76 -99l76 99h88zM185 624v-226h114q75 0 120.5 27.5t45.5 86.5q0 112 -159 112h-121zM185 315v-315h-99v708h227q112 0 182 -47t70 -149q0 -76 -47 -125t-125 -62l198 -325h-120l-180 315h-106z" />
    <glyph glyph-name="rcaron" unicode="&#x159;" horiz-adv-x="362" 
d="M378 708l-112 -144h-107l-111 144h90l76 -99l76 99h88zM81 0v372q0 61 -4 102h89q4 -32 4 -80h3q21 43 59.5 68t85.5 25q24 0 37 -4l-4 -87q-22 5 -43 5q-65 0 -99 -43.5t-34 -108.5v-249h-94z" />
    <glyph glyph-name="Sacute" unicode="&#x15a;" horiz-adv-x="569" 
d="M443 908l-137 -144h-76l99 144h114zM508 645l-70 -68q-47 66 -138 66q-54 0 -96 -29.5t-42 -85.5q0 -23 8.5 -41t18.5 -29t33.5 -22t37.5 -16t47 -16q38 -12 59.5 -20t54 -25.5t50 -37t31 -52t13.5 -72.5q0 -104 -71.5 -159.5t-173.5 -55.5q-69 0 -131 26.5t-102 76.5
l77 65q25 -37 67.5 -60t90.5 -23q56 0 99 31.5t43 89.5q0 25 -10 45t-22 32t-38.5 24.5t-43.5 18.5t-54 17q-40 12 -68 25.5t-57 35.5t-44 57t-15 81q0 67 37 114.5t90.5 67.5t115.5 20q61 0 115.5 -22t87.5 -59z" />
    <glyph glyph-name="sacute" unicode="&#x15b;" horiz-adv-x="444" 
d="M372 708l-136 -144h-77l100 144h113zM402 409l-65 -55q-16 27 -45.5 43t-64.5 16q-37 0 -62.5 -15.5t-25.5 -46.5q0 -28 25 -43t83 -28q76 -18 117.5 -49.5t41.5 -90.5q0 -78 -54.5 -115.5t-134.5 -37.5q-56 0 -107 22t-84 63l67 57q19 -29 53.5 -47.5t72.5 -18.5
q40 0 67 16.5t27 52.5q0 31 -28 46.5t-96 32.5q-28 7 -49 15t-43 22.5t-34 38t-12 55.5q0 71 52.5 108t126.5 37q53 0 99.5 -20.5t72.5 -57.5z" />
    <glyph glyph-name="Scircumflex" unicode="&#x15c;" horiz-adv-x="569" 
d="M357 908l112 -144h-91l-75 99l-76 -99h-90l112 144h108zM508 645l-70 -68q-47 66 -138 66q-54 0 -96 -29.5t-42 -85.5q0 -23 8.5 -41t18.5 -29t33.5 -22t37.5 -16t47 -16q38 -12 59.5 -20t54 -25.5t50 -37t31 -52t13.5 -72.5q0 -104 -71.5 -159.5t-173.5 -55.5
q-69 0 -131 26.5t-102 76.5l77 65q25 -37 67.5 -60t90.5 -23q56 0 99 31.5t43 89.5q0 25 -10 45t-22 32t-38.5 24.5t-43.5 18.5t-54 17q-40 12 -68 25.5t-57 35.5t-44 57t-15 81q0 67 37 114.5t90.5 67.5t115.5 20q61 0 115.5 -22t87.5 -59z" />
    <glyph glyph-name="scircumflex" unicode="&#x15d;" horiz-adv-x="444" 
d="M287 708l112 -144h-91l-75 99l-76 -99h-90l112 144h108zM402 409l-65 -55q-16 27 -45.5 43t-64.5 16q-37 0 -62.5 -15.5t-25.5 -46.5q0 -28 25 -43t83 -28q76 -18 117.5 -49.5t41.5 -90.5q0 -78 -54.5 -115.5t-134.5 -37.5q-56 0 -107 22t-84 63l67 57q19 -29 53.5 -47.5
t72.5 -18.5q40 0 67 16.5t27 52.5q0 31 -28 46.5t-96 32.5q-28 7 -49 15t-43 22.5t-34 38t-12 55.5q0 71 52.5 108t126.5 37q53 0 99.5 -20.5t72.5 -57.5z" />
    <glyph glyph-name="Scedilla" unicode="&#x15e;" horiz-adv-x="569" 
d="M508 645l-70 -68q-47 66 -138 66q-54 0 -96 -29.5t-42 -85.5q0 -23 8.5 -41t18.5 -29t33.5 -22t37.5 -16t47 -16q38 -12 59.5 -20t54 -25.5t50 -37t31 -52t13.5 -72.5q0 -94 -58 -148.5t-148 -64.5l-35 -53q6 2 27 2q38 0 66 -18.5t28 -59.5q0 -48 -38 -69t-89 -21
q-60 0 -103 23l20 42q39 -17 77 -17q22 0 41.5 9.5t19.5 32.5q0 38 -54 38q-18 0 -41 -7l-20 20l50 76q-66 2 -125 29t-96 74l77 65q25 -37 67.5 -60t90.5 -23q56 0 99 31.5t43 89.5q0 25 -10 45t-22 32t-38.5 24.5t-43.5 18.5t-54 17q-40 12 -68 25.5t-57 35.5t-44 57
t-15 81q0 67 37 114.5t90.5 67.5t115.5 20q61 0 115.5 -22t87.5 -59z" />
    <glyph glyph-name="scedilla" unicode="&#x15f;" horiz-adv-x="444" 
d="M402 409l-65 -55q-16 27 -45.5 43t-64.5 16q-37 0 -62.5 -15.5t-25.5 -46.5q0 -28 25 -43t83 -28q76 -18 117.5 -49.5t41.5 -90.5q0 -71 -46 -108t-118 -44l-38 -57q6 2 27 2q38 0 66 -18.5t28 -59.5q0 -48 -38 -69t-89 -21q-60 0 -103 23l20 42q39 -17 77 -17
q22 0 41.5 9.5t19.5 32.5q0 38 -54 38q-18 0 -41 -7l-20 20l54 83q-107 8 -166 83l67 57q19 -29 53.5 -47.5t72.5 -18.5q40 0 67 16.5t27 52.5q0 31 -28 46.5t-96 32.5q-28 7 -49 15t-43 22.5t-34 38t-12 55.5q0 71 52.5 108t126.5 37q53 0 99.5 -20.5t72.5 -57.5z" />
    <glyph glyph-name="Scaron" unicode="&#x160;" horiz-adv-x="569" 
d="M463 908l-112 -144h-107l-111 144h90l76 -99l76 99h88zM508 645l-70 -68q-47 66 -138 66q-54 0 -96 -29.5t-42 -85.5q0 -23 8.5 -41t18.5 -29t33.5 -22t37.5 -16t47 -16q38 -12 59.5 -20t54 -25.5t50 -37t31 -52t13.5 -72.5q0 -104 -71.5 -159.5t-173.5 -55.5
q-69 0 -131 26.5t-102 76.5l77 65q25 -37 67.5 -60t90.5 -23q56 0 99 31.5t43 89.5q0 25 -10 45t-22 32t-38.5 24.5t-43.5 18.5t-54 17q-40 12 -68 25.5t-57 35.5t-44 57t-15 81q0 67 37 114.5t90.5 67.5t115.5 20q61 0 115.5 -22t87.5 -59z" />
    <glyph glyph-name="scaron" unicode="&#x161;" horiz-adv-x="444" 
d="M396 708l-112 -144h-107l-111 144h90l76 -99l76 99h88zM402 409l-65 -55q-16 27 -45.5 43t-64.5 16q-37 0 -62.5 -15.5t-25.5 -46.5q0 -28 25 -43t83 -28q76 -18 117.5 -49.5t41.5 -90.5q0 -78 -54.5 -115.5t-134.5 -37.5q-56 0 -107 22t-84 63l67 57q19 -29 53.5 -47.5
t72.5 -18.5q40 0 67 16.5t27 52.5q0 31 -28 46.5t-96 32.5q-28 7 -49 15t-43 22.5t-34 38t-12 55.5q0 71 52.5 108t126.5 37q53 0 99.5 -20.5t72.5 -57.5z" />
    <glyph glyph-name="Tcommaaccent" unicode="&#x162;" horiz-adv-x="569" 
d="M314 0l-46 -69q6 2 27 2q38 0 66 -18.5t28 -59.5q0 -48 -38 -69t-89 -21q-60 0 -103 23l20 42q39 -17 77 -17q22 0 41.5 9.5t19.5 32.5q0 38 -54 38q-18 0 -41 -7l-20 20l62 94h50zM334 621v-621h-99v621h-227v87h553v-87h-227z" />
    <glyph glyph-name="tcommaaccent" unicode="&#x163;" horiz-adv-x="329" 
d="M259 0l-46 -69q6 2 27 2q38 0 66 -18.5t28 -59.5q0 -48 -38 -69t-89 -21q-60 0 -103 23l20 42q39 -17 77 -17q22 0 41.5 9.5t19.5 32.5q0 38 -54 38q-18 0 -41 -7l-20 20l62 94h50zM313 474v-77h-126v-247q0 -43 16 -61.5t51 -18.5q31 0 55 12l3 -77q-37 -13 -80 -13
q-138 0 -138 148v257h-91v77h91v136h93v-136h126z" />
    <glyph glyph-name="Tcaron" unicode="&#x164;" horiz-adv-x="569" 
d="M448 908l-112 -144h-107l-111 144h90l76 -99l76 99h88zM334 621v-621h-99v621h-227v87h553v-87h-227z" />
    <glyph glyph-name="tcaron" unicode="&#x165;" horiz-adv-x="329" 
d="M375 731l-78 -190h-79l64 190h93zM313 474v-77h-126v-247q0 -43 16 -61.5t51 -18.5q31 0 55 12l3 -77q-37 -13 -80 -13q-138 0 -138 148v257h-91v77h91v136h93v-136h126z" />
    <glyph glyph-name="Tbar" unicode="&#x166;" horiz-adv-x="569" 
d="M72 525h163v96h-227v87h553v-87h-227v-96h163v-63h-163v-462h-99v462h-163v63z" />
    <glyph glyph-name="tbar" unicode="&#x167;" horiz-adv-x="329" 
d="M12 304h82v93h-91v77h91v136h93v-136h126v-77h-126v-93h112v-63h-112v-91q0 -43 16 -61.5t51 -18.5q31 0 55 12l3 -77q-37 -13 -80 -13q-138 0 -138 148v101h-82v63z" />
    <glyph glyph-name="Utilde" unicode="&#x168;" horiz-adv-x="712" 
d="M234 772h-55q20 116 102 116q33 0 75 -20q49 -22 67 -22q34 0 48 46h54q-20 -116 -102 -116q-31 0 -77 21q-42 21 -65 21q-33 0 -47 -46zM356 -18q-133 0 -204 81.5t-71 198.5v446h99v-440q0 -83 42.5 -140t133.5 -57t133.5 57t42.5 140v440h99v-446q0 -117 -71 -198.5
t-204 -81.5z" />
    <glyph glyph-name="utilde" unicode="&#x169;" horiz-adv-x="582" 
d="M171 572h-55q20 116 102 116q33 0 75 -20q49 -22 67 -22q34 0 48 46h54q-20 -116 -102 -116q-31 0 -77 21q-42 21 -65 21q-33 0 -47 -46zM504 0h-89q-4 32 -4 78h-2q-18 -39 -61 -65t-94 -26q-88 0 -132.5 54t-44.5 139v294h94v-262q0 -146 108 -146q57 0 92 42.5
t35 113.5v252h94v-372q0 -61 4 -102z" />
    <glyph glyph-name="Umacron" unicode="&#x16a;" horiz-adv-x="712" 
d="M500 864v-67h-296v67h296zM356 -18q-133 0 -204 81.5t-71 198.5v446h99v-440q0 -83 42.5 -140t133.5 -57t133.5 57t42.5 140v440h99v-446q0 -117 -71 -198.5t-204 -81.5z" />
    <glyph glyph-name="umacron" unicode="&#x16b;" horiz-adv-x="582" 
d="M437 664v-67h-296v67h296zM504 0h-89q-4 32 -4 78h-2q-18 -39 -61 -65t-94 -26q-88 0 -132.5 54t-44.5 139v294h94v-262q0 -146 108 -146q57 0 92 42.5t35 113.5v252h94v-372q0 -61 4 -102z" />
    <glyph glyph-name="Ubreve" unicode="&#x16c;" horiz-adv-x="712" 
d="M461 908h55q-6 -67 -48.5 -102.5t-110.5 -35.5q-69 0 -111.5 35.5t-47.5 102.5h56q13 -72 103 -72q88 0 104 72zM356 -18q-133 0 -204 81.5t-71 198.5v446h99v-440q0 -83 42.5 -140t133.5 -57t133.5 57t42.5 140v440h99v-446q0 -117 -71 -198.5t-204 -81.5z" />
    <glyph glyph-name="ubreve" unicode="&#x16d;" horiz-adv-x="582" 
d="M394 708h55q-6 -67 -48.5 -102.5t-110.5 -35.5q-69 0 -111.5 35.5t-47.5 102.5h56q13 -72 103 -72q88 0 104 72zM504 0h-89q-4 32 -4 78h-2q-18 -39 -61 -65t-94 -26q-88 0 -132.5 54t-44.5 139v294h94v-262q0 -146 108 -146q57 0 92 42.5t35 113.5v252h94v-372
q0 -61 4 -102z" />
    <glyph glyph-name="Uring" unicode="&#x16e;" horiz-adv-x="712" 
d="M412 853q0 25 -17.5 41.5t-42.5 16.5t-42 -17t-17 -42q0 -24 17 -40.5t42 -16.5t42.5 16.5t17.5 41.5zM453 853q0 -42 -29.5 -70.5t-71.5 -28.5t-71 28t-29 70t29 70.5t71 28.5t71.5 -28t29.5 -70zM356 -18q-133 0 -204 81.5t-71 198.5v446h99v-440q0 -83 42.5 -140
t133.5 -57t133.5 57t42.5 140v440h99v-446q0 -117 -71 -198.5t-204 -81.5z" />
    <glyph glyph-name="uring" unicode="&#x16f;" horiz-adv-x="582" 
d="M347 653q0 24 -17.5 40t-41.5 16t-41 -16t-17 -40t17 -40.5t41 -16.5t41.5 16.5t17.5 40.5zM389 653q0 -42 -29.5 -70.5t-71.5 -28.5t-71 28t-29 70t29 70.5t71 28.5t71.5 -28t29.5 -70zM504 0h-89q-4 32 -4 78h-2q-18 -39 -61 -65t-94 -26q-88 0 -132.5 54t-44.5 139
v294h94v-262q0 -146 108 -146q57 0 92 42.5t35 113.5v252h94v-372q0 -61 4 -102z" />
    <glyph glyph-name="Uhungarumlaut" unicode="&#x170;" horiz-adv-x="712" 
d="M610 908l-136 -144h-77l100 144h113zM428 908l-137 -144h-77l100 144h114zM356 -18q-133 0 -204 81.5t-71 198.5v446h99v-440q0 -83 42.5 -140t133.5 -57t133.5 57t42.5 140v440h99v-446q0 -117 -71 -198.5t-204 -81.5z" />
    <glyph glyph-name="uhungarumlaut" unicode="&#x171;" horiz-adv-x="582" 
d="M550 708l-136 -144h-77l100 144h113zM368 708l-137 -144h-77l100 144h114zM504 0h-89q-4 32 -4 78h-2q-18 -39 -61 -65t-94 -26q-88 0 -132.5 54t-44.5 139v294h94v-262q0 -146 108 -146q57 0 92 42.5t35 113.5v252h94v-372q0 -61 4 -102z" />
    <glyph glyph-name="Uogonek" unicode="&#x172;" horiz-adv-x="712" 
d="M448 -144l22 -45q-43 -37 -95 -37q-40 0 -68.5 24t-28.5 63q0 59 67 122q-128 4 -196 83.5t-68 195.5v446h99v-440q0 -83 42.5 -140t133.5 -57t133.5 57t42.5 140v440h99v-446q0 -106 -58 -183.5t-167 -92.5q-59 -63 -59 -105q0 -20 14 -33.5t34 -13.5q28 0 53 22z" />
    <glyph glyph-name="uogonek" unicode="&#x173;" horiz-adv-x="582" 
d="M489 -144l22 -45q-43 -37 -95 -37q-40 0 -68.5 24t-28.5 63q0 38 28.5 77t66.5 68q-3 23 -3 72h-2q-18 -39 -61 -65t-94 -26q-88 0 -132.5 54t-44.5 139v294h94v-262q0 -146 108 -146q57 0 92 42.5t35 113.5v252h94v-372q0 -61 4 -102h-43q-73 -71 -73 -119
q0 -20 14 -33.5t34 -13.5q28 0 53 22z" />
    <glyph glyph-name="Wcircumflex" unicode="&#x174;" horiz-adv-x="988" 
d="M550 908l112 -144h-91l-75 99l-76 -99h-90l112 144h108zM117 708l156 -564h2l166 564h109l165 -564h2l156 564h105l-208 -708h-103l-172 569h-2l-172 -569h-103l-208 708h107z" />
    <glyph glyph-name="wcircumflex" unicode="&#x175;" horiz-adv-x="773" 
d="M440 708l112 -144h-91l-75 99l-76 -99h-90l112 144h108zM14 474h102l107 -362h2l113 362h99l115 -362h2l107 362h99l-157 -474h-98l-117 356h-2l-116 -356h-98z" />
    <glyph glyph-name="Ycircumflex" unicode="&#x176;" horiz-adv-x="624" 
d="M368 908l112 -144h-91l-75 99l-76 -99h-90l112 144h108zM362 306v-306h-100v306l-265 402h122l196 -320l197 320h115z" />
    <glyph glyph-name="ycircumflex" unicode="&#x177;" horiz-adv-x="504" 
d="M314 708l112 -144h-91l-75 99l-76 -99h-90l112 144h108zM114 474l147 -372h2l131 372h100l-230 -586q-25 -65 -61.5 -96.5t-102.5 -31.5q-33 0 -62 7l9 83q26 -8 47 -8q35 0 54 19t34 60l30 79l-203 474h105z" />
    <glyph glyph-name="Ydieresis" unicode="&#x178;" horiz-adv-x="624" 
d="M350 845q0 25 18 43t44 18t44 -17.5t18 -43.5q0 -25 -18 -42.5t-44 -17.5t-44 18t-18 42zM156 845q0 25 18 43t44 18t44 -17.5t18 -43.5q0 -25 -18 -42.5t-44 -17.5t-44 18t-18 42zM362 306v-306h-100v306l-265 402h122l196 -320l197 320h115z" />
    <glyph glyph-name="Zacute" unicode="&#x179;" horiz-adv-x="592" 
d="M439 908l-137 -144h-76l99 144h114zM553 708v-87l-400 -533h406v-88h-526v87l399 534h-391v87h512z" />
    <glyph glyph-name="zacute" unicode="&#x17a;" horiz-adv-x="462" 
d="M377 708l-136 -144h-77l100 144h113zM419 474v-77l-270 -318h281v-79h-397v77l268 320h-255v77h373z" />
    <glyph glyph-name="Zdotaccent" unicode="&#x17b;" horiz-adv-x="592" 
d="M359 845q0 -26 -18 -43t-45 -17q-26 0 -44 17.5t-18 42.5q0 26 18 43.5t44 17.5t44.5 -17.5t18.5 -43.5zM553 708v-87l-400 -533h406v-88h-526v87l399 534h-391v87h512z" />
    <glyph glyph-name="zdotaccent" unicode="&#x17c;" horiz-adv-x="462" 
d="M301 645q0 -26 -18 -43t-45 -17q-26 0 -44 17.5t-18 42.5q0 26 18 43.5t44 17.5t44.5 -17.5t18.5 -43.5zM419 474v-77l-270 -318h281v-79h-397v77l268 320h-255v77h373z" />
    <glyph glyph-name="Zcaron" unicode="&#x17d;" horiz-adv-x="592" 
d="M463 908l-112 -144h-107l-111 144h90l76 -99l76 99h88zM553 708v-87l-400 -533h406v-88h-526v87l399 534h-391v87h512z" />
    <glyph glyph-name="zcaron" unicode="&#x17e;" horiz-adv-x="462" 
d="M402 708l-112 -144h-107l-111 144h90l76 -99l76 99h88zM419 474v-77l-270 -318h281v-79h-397v77l268 320h-255v77h373z" />
    <glyph glyph-name="florin" unicode="&#x192;" horiz-adv-x="595" 
d="M472 423v-73h-129l-62 -319q-32 -170 -171 -170q-52 0 -92 24l38 71q23 -14 50 -14q39 0 56 27t27 78l58 303h-111v73h125l25 127q15 78 53 124t113 46q55 0 106 -30l-40 -71q-26 17 -56 17q-65 0 -85 -109l-20 -104h115z" />
    <glyph glyph-name="Ohorn" unicode="&#x1a0;" horiz-adv-x="849" 
d="M157 355q0 -121 73.5 -202.5t193.5 -81.5q121 0 195 81.5t74 202.5q0 120 -74.5 202t-194.5 82t-193.5 -82t-73.5 -202zM829 742q0 -61 -33 -94t-94 -35q98 -104 98 -258q0 -163 -106.5 -268t-269.5 -105t-268.5 104.5t-105.5 268.5q0 165 105.5 268t268.5 103
q60 0 108.5 -14t82 -28.5t57.5 -14.5q41 0 58.5 18t17.5 55q0 32 -16 59l81 21q16 -31 16 -80z" />
    <glyph glyph-name="ohorn" unicode="&#x1a1;" horiz-adv-x="617" 
d="M147 238q0 -72 42.5 -122t115.5 -50t115.5 50t42.5 122t-42.5 121.5t-115.5 49.5t-115.5 -49.5t-42.5 -121.5zM633 525q0 -124 -126 -129q54 -68 54 -158q0 -109 -73 -180t-183 -71t-182.5 70.5t-72.5 180.5q0 109 72.5 179t182.5 70q49 0 100 -18t70 -18q77 0 77 74
q0 32 -16 59l81 21q16 -31 16 -80z" />
    <glyph glyph-name="Uhorn" unicode="&#x1af;" horiz-adv-x="722" 
d="M631 652v-390q0 -117 -71 -198.5t-204 -81.5t-204 81.5t-71 198.5v446h99v-440q0 -84 42 -140.5t134 -56.5t134 56.5t42 140.5v440h67q77 0 77 74q0 31 -16 59l81 21q16 -32 16 -80q0 -62 -33 -95t-93 -35z" />
    <glyph glyph-name="uhorn" unicode="&#x1b0;" horiz-adv-x="597" 
d="M504 0h-89q-4 32 -4 78h-2q-18 -39 -61 -65t-94 -26q-88 0 -132.5 54t-44.5 139v294h94v-262q0 -146 108 -146q57 0 92 42.5t35 113.5v252h62q78 0 78 74q0 31 -16 59l81 21q16 -32 16 -80q0 -62 -33 -95t-94 -35v-316q0 -61 4 -102z" />
    <glyph glyph-name="clickdental" unicode="&#x1c0;" horiz-adv-x="222" 
d="M70 750h82v-1000h-82v1000z" />
    <glyph glyph-name="clicklateral" unicode="&#x1c1;" horiz-adv-x="444" 
d="M70 750h82v-1000h-82v1000zM292 750h82v-1000h-82v1000z" />
    <glyph glyph-name="clickretroflex" unicode="&#x1c3;" horiz-adv-x="334" 
d="M234 60q0 -27 -19 -46.5t-48 -19.5q-28 0 -47.5 19.5t-19.5 45.5q0 27 19 46.5t48 19.5t48 -19t19 -46zM216 708v-501h-99v501h99z" />
    <glyph glyph-name="DZcaron" unicode="&#x1c4;" horiz-adv-x="1603" 
d="M185 622v-535h124q132 0 214 71.5t82 195.5q0 128 -81.5 198t-214.5 70h-124zM86 0v708h243q71 0 136.5 -20.5t121.5 -61.5t90 -111.5t34 -160.5q0 -87 -34 -157t-89.5 -111.5t-122 -63.5t-136.5 -22h-243zM1314 708v-87l-400 -533h406v-88h-526v87l399 534h-391v87h512z
M1222 927l-112 -144h-107l-111 144h90l76 -99l76 99h88z" />
    <glyph glyph-name="Dzcaron" unicode="&#x1c5;" horiz-adv-x="1473" 
d="M185 622v-535h124q132 0 214 71.5t82 195.5q0 128 -81.5 198t-214.5 70h-124zM86 0v708h243q71 0 136.5 -20.5t121.5 -61.5t90 -111.5t34 -160.5q0 -87 -34 -157t-89.5 -111.5t-122 -63.5t-136.5 -22h-243zM1180 474v-77l-270 -318h281v-79h-397v77l268 320h-255v77h373z
M1157 694l-112 -144h-107l-111 144h90l76 -99l76 99h88z" />
    <glyph glyph-name="dzcaron" unicode="&#x1c6;" horiz-adv-x="1347" 
d="M147 238q0 -71 42 -121.5t115 -50.5q70 0 115 50.5t45 120.5t-45 121t-115 51q-74 0 -115.5 -50t-41.5 -121zM461 75h-2q-26 -42 -72.5 -65t-98.5 -23q-107 0 -173 72t-66 179t66.5 178t171.5 71q110 0 169 -84h2v353h94v-756h-91v75zM1054 474v-77l-270 -318h281v-79
h-397v77l268 320h-255v77h373zM1031 694l-112 -144h-107l-111 144h90l76 -99l76 99h88z" />
    <glyph glyph-name="LJ" unicode="&#x1c7;" horiz-adv-x="1006" 
d="M185 708v-620h316v-88h-415v708h99zM526 132l92 26q8 -39 35.5 -63.5t66.5 -24.5q107 0 107 151v487h99v-491q0 -32 -5 -62t-18.5 -62.5t-35 -56t-58 -39t-84.5 -15.5q-79 0 -131 41t-68 109z" />
    <glyph glyph-name="Lj" unicode="&#x1c8;" horiz-adv-x="771" 
d="M185 708v-620h316v-88h-415v708h99zM704 645q0 -26 -18 -43t-45 -17q-26 0 -44.5 17.5t-18.5 42.5q0 26 18.5 43.5t44.5 17.5t44.5 -17.5t18.5 -43.5zM480 -234l10 80q22 -5 38 -5q39 0 52.5 26.5t13.5 74.5v532h94v-535q0 -179 -154 -179q-24 0 -54 6z" />
    <glyph glyph-name="lj" unicode="&#x1c9;" horiz-adv-x="520" 
d="M177 756v-756h-94v756h94zM453 645q0 -26 -18 -43t-45 -17q-26 0 -44.5 17.5t-18.5 42.5q0 26 18.5 43.5t44.5 17.5t44.5 -17.5t18.5 -43.5zM229 -234l10 80q22 -5 38 -5q39 0 52.5 26.5t13.5 74.5v532h94v-535q0 -179 -154 -179q-24 0 -54 6z" />
    <glyph glyph-name="NJ" unicode="&#x1ca;" horiz-adv-x="1267" 
d="M215 708l370 -566h2v566h99v-708h-125l-374 578h-2v-578h-99v708h129zM787 132l92 26q8 -39 35.5 -63.5t66.5 -24.5q107 0 107 151v487h99v-491q0 -32 -5 -62t-18.5 -62.5t-35 -56t-58 -39t-84.5 -15.5q-79 0 -131 41t-68 109z" />
    <glyph glyph-name="Nj" unicode="&#x1cb;" horiz-adv-x="1032" 
d="M215 708l370 -566h2v566h99v-708h-125l-374 578h-2v-578h-99v708h129zM965 645q0 -26 -18 -43t-45 -17q-26 0 -44.5 17.5t-18.5 42.5q0 26 18.5 43.5t44.5 17.5t44.5 -17.5t18.5 -43.5zM741 -234l10 80q22 -5 38 -5q39 0 52.5 26.5t13.5 74.5v532h94v-535
q0 -179 -154 -179q-24 0 -54 6z" />
    <glyph glyph-name="nj" unicode="&#x1cc;" horiz-adv-x="842" 
d="M77 474h89q4 -32 4 -78h3q18 39 60.5 65t93.5 26q87 0 132 -54t45 -139v-294h-94v263q0 145 -108 145q-57 0 -92 -42.5t-35 -113.5v-252h-94v372q0 61 -4 102zM775 645q0 -26 -18 -43t-45 -17q-26 0 -44.5 17.5t-18.5 42.5q0 26 18.5 43.5t44.5 17.5t44.5 -17.5
t18.5 -43.5zM551 -234l10 80q22 -5 38 -5q39 0 52.5 26.5t13.5 74.5v532h94v-535q0 -179 -154 -179q-24 0 -54 6z" />
    <glyph glyph-name="Acaron" unicode="&#x1cd;" horiz-adv-x="711" 
d="M354 593l-133 -332h265zM186 174l-71 -174h-110l307 708h90l304 -708h-112l-72 174h-336zM520 927l-112 -144h-107l-111 144h90l76 -99l76 99h88z" />
    <glyph glyph-name="acaron" unicode="&#x1ce;" horiz-adv-x="542" 
d="M376 226h-23q-211 0 -211 -90q0 -39 28 -56.5t69 -17.5q64 0 100.5 38.5t36.5 100.5v25zM376 294v13q0 52 -31 78t-86 26q-80 0 -135 -55l-50 60q76 71 194 71q98 0 148 -51.5t50 -134.5v-207q0 -62 7 -94h-85q-8 37 -8 68h-3q-55 -80 -159 -80q-30 0 -59 8t-55 24
t-42 45.5t-16 68.5q0 41 19.5 71.5t49.5 47t76.5 26t88 12.5t96.5 3zM424 707l-112 -144h-107l-111 144h90l76 -99l76 99h88z" />
    <glyph glyph-name="Icaron" unicode="&#x1cf;" horiz-adv-x="271" 
d="M185 708v-708h-99v708h99zM300 927l-112 -144h-107l-111 144h90l76 -99l76 99h88z" />
    <glyph glyph-name="icaron" unicode="&#x1d0;" horiz-adv-x="259" 
d="M176 474v-474h-94v474h94zM294 694l-112 -144h-107l-111 144h90l76 -99l76 99h88z" />
    <glyph glyph-name="Ocaron" unicode="&#x1d1;" horiz-adv-x="849" 
d="M693 355q0 120 -74.5 202t-194.5 82q-119 0 -193 -82t-74 -202q0 -121 74 -202.5t193 -81.5q121 0 195 81.5t74 202.5zM800 355q0 -163 -106.5 -268t-269.5 -105t-268.5 104.5t-105.5 268.5q0 165 105.5 268t268.5 103t269.5 -103.5t106.5 -267.5zM590 945l-112 -144
h-107l-111 144h90l76 -99l76 99h88z" />
    <glyph glyph-name="ocaron" unicode="&#x1d2;" horiz-adv-x="610" 
d="M463 238q0 72 -42.5 121.5t-115.5 49.5t-115.5 -49.5t-42.5 -121.5t42.5 -122t115.5 -50t115.5 50t42.5 122zM561 238q0 -109 -73 -180t-183 -71t-182.5 70.5t-72.5 180.5q0 109 72.5 179t182.5 70t183 -70t73 -179zM470 707l-112 -144h-107l-111 144h90l76 -99l76 99h88
z" />
    <glyph glyph-name="Ucaron" unicode="&#x1d3;" horiz-adv-x="712" 
d="M356 -18q-133 0 -204 81.5t-71 198.5v446h99v-440q0 -83 42.5 -140t133.5 -57t133.5 57t42.5 140v440h99v-446q0 -117 -71 -198.5t-204 -81.5zM521 927l-112 -144h-107l-111 144h90l76 -99l76 99h88z" />
    <glyph glyph-name="ucaron" unicode="&#x1d4;" horiz-adv-x="582" 
d="M504 0h-89q-4 32 -4 78h-2q-18 -39 -61 -65t-94 -26q-88 0 -132.5 54t-44.5 139v294h94v-262q0 -146 108 -146q57 0 92 42.5t35 113.5v252h94v-372q0 -61 4 -102zM455 694l-112 -144h-107l-111 144h90l76 -99l76 99h88z" />
    <glyph glyph-name="Udieresismacron" unicode="&#x1d5;" horiz-adv-x="712" 
d="M356 -18q-133 0 -204 81.5t-71 198.5v446h99v-440q0 -83 42.5 -140t133.5 -57t133.5 57t42.5 140v440h99v-446q0 -117 -71 -198.5t-204 -81.5zM391 843q0 25 18 43t44 18t44 -17.5t18 -43.5q0 -25 -18 -42.5t-44 -17.5t-44 18t-18 42zM197 843q0 25 18 43t44 18t44 -17.5
t18 -43.5q0 -25 -18 -42.5t-44 -17.5t-44 18t-18 42zM504 1046v-67h-296v67h296z" />
    <glyph glyph-name="udieresismacron" unicode="&#x1d6;" horiz-adv-x="582" 
d="M504 0h-89q-4 32 -4 78h-2q-18 -39 -61 -65t-94 -26q-88 0 -132.5 54t-44.5 139v294h94v-262q0 -146 108 -146q57 0 92 42.5t35 113.5v252h94v-372q0 -61 4 -102zM325 610q0 25 18 43t44 18t44 -17.5t18 -43.5q0 -25 -18 -42.5t-44 -17.5t-44 18t-18 42zM131 610
q0 25 18 43t44 18t44 -17.5t18 -43.5q0 -25 -18 -42.5t-44 -17.5t-44 18t-18 42zM438 812v-67h-296v67h296z" />
    <glyph glyph-name="Udieresisacute" unicode="&#x1d7;" horiz-adv-x="712" 
d="M356 -18q-133 0 -204 81.5t-71 198.5v446h99v-440q0 -83 42.5 -140t133.5 -57t133.5 57t42.5 140v440h99v-446q0 -117 -71 -198.5t-204 -81.5zM391 843q0 25 18 43t44 18t44 -17.5t18 -43.5q0 -25 -18 -42.5t-44 -17.5t-44 18t-18 42zM197 843q0 25 18 43t44 18t44 -17.5
t18 -43.5q0 -25 -18 -42.5t-44 -17.5t-44 18t-18 42zM463 1123l-136 -144h-77l100 144h113z" />
    <glyph glyph-name="udieresisacute" unicode="&#x1d8;" horiz-adv-x="582" 
d="M504 0h-89q-4 32 -4 78h-2q-18 -39 -61 -65t-94 -26q-88 0 -132.5 54t-44.5 139v294h94v-262q0 -146 108 -146q57 0 92 42.5t35 113.5v252h94v-372q0 -61 4 -102zM325 610q0 25 18 43t44 18t44 -17.5t18 -43.5q0 -25 -18 -42.5t-44 -17.5t-44 18t-18 42zM131 610
q0 25 18 43t44 18t44 -17.5t18 -43.5q0 -25 -18 -42.5t-44 -17.5t-44 18t-18 42zM397 889l-136 -144h-77l100 144h113z" />
    <glyph glyph-name="Udieresiscaron" unicode="&#x1d9;" horiz-adv-x="712" 
d="M356 -18q-133 0 -204 81.5t-71 198.5v446h99v-440q0 -83 42.5 -140t133.5 -57t133.5 57t42.5 140v440h99v-446q0 -117 -71 -198.5t-204 -81.5zM391 843q0 25 18 43t44 18t44 -17.5t18 -43.5q0 -25 -18 -42.5t-44 -17.5t-44 18t-18 42zM197 843q0 25 18 43t44 18t44 -17.5
t18 -43.5q0 -25 -18 -42.5t-44 -17.5t-44 18t-18 42zM521 1123l-112 -144h-107l-111 144h90l76 -99l76 99h88z" />
    <glyph glyph-name="udieresiscaron" unicode="&#x1da;" horiz-adv-x="582" 
d="M504 0h-89q-4 32 -4 78h-2q-18 -39 -61 -65t-94 -26q-88 0 -132.5 54t-44.5 139v294h94v-262q0 -146 108 -146q57 0 92 42.5t35 113.5v252h94v-372q0 -61 4 -102zM325 610q0 25 18 43t44 18t44 -17.5t18 -43.5q0 -25 -18 -42.5t-44 -17.5t-44 18t-18 42zM131 610
q0 25 18 43t44 18t44 -17.5t18 -43.5q0 -25 -18 -42.5t-44 -17.5t-44 18t-18 42zM455 889l-112 -144h-107l-111 144h90l76 -99l76 99h88z" />
    <glyph glyph-name="Udieresisgrave" unicode="&#x1db;" horiz-adv-x="712" 
d="M356 -18q-133 0 -204 81.5t-71 198.5v446h99v-440q0 -83 42.5 -140t133.5 -57t133.5 57t42.5 140v440h99v-446q0 -117 -71 -198.5t-204 -81.5zM391 843q0 25 18 43t44 18t44 -17.5t18 -43.5q0 -25 -18 -42.5t-44 -17.5t-44 18t-18 42zM197 843q0 25 18 43t44 18t44 -17.5
t18 -43.5q0 -25 -18 -42.5t-44 -17.5t-44 18t-18 42zM386 979l-136 144h113l100 -144h-77z" />
    <glyph glyph-name="udieresisgrave" unicode="&#x1dc;" horiz-adv-x="582" 
d="M504 0h-89q-4 32 -4 78h-2q-18 -39 -61 -65t-94 -26q-88 0 -132.5 54t-44.5 139v294h94v-262q0 -146 108 -146q57 0 92 42.5t35 113.5v252h94v-372q0 -61 4 -102zM325 610q0 25 18 43t44 18t44 -17.5t18 -43.5q0 -25 -18 -42.5t-44 -17.5t-44 18t-18 42zM131 610
q0 25 18 43t44 18t44 -17.5t18 -43.5q0 -25 -18 -42.5t-44 -17.5t-44 18t-18 42zM320 745l-136 144h113l100 -144h-77z" />
    <glyph glyph-name="Adieresismacron" unicode="&#x1de;" horiz-adv-x="711" 
d="M354 593l-133 -332h265zM186 174l-71 -174h-110l307 708h90l304 -708h-112l-72 174h-336zM390 843q0 25 18 43t44 18t44 -17.5t18 -43.5q0 -25 -18 -42.5t-44 -17.5t-44 18t-18 42zM196 843q0 25 18 43t44 18t44 -17.5t18 -43.5q0 -25 -18 -42.5t-44 -17.5t-44 18t-18 42
zM503 1046v-67h-296v67h296z" />
    <glyph glyph-name="adieresismacron" unicode="&#x1df;" horiz-adv-x="542" 
d="M376 226h-23q-211 0 -211 -90q0 -39 28 -56.5t69 -17.5q64 0 100.5 38.5t36.5 100.5v25zM376 294v13q0 52 -31 78t-86 26q-80 0 -135 -55l-50 60q76 71 194 71q98 0 148 -51.5t50 -134.5v-207q0 -62 7 -94h-85q-8 37 -8 68h-3q-55 -80 -159 -80q-30 0 -59 8t-55 24
t-42 45.5t-16 68.5q0 41 19.5 71.5t49.5 47t76.5 26t88 12.5t96.5 3zM294 623q0 25 18 43t44 18t44 -17.5t18 -43.5q0 -25 -18 -42.5t-44 -17.5t-44 18t-18 42zM100 623q0 25 18 43t44 18t44 -17.5t18 -43.5q0 -25 -18 -42.5t-44 -17.5t-44 18t-18 42zM407 825v-67h-296v67
h296z" />
    <glyph glyph-name="Adotmacron" unicode="&#x1e0;" horiz-adv-x="711" 
d="M354 593l-133 -332h265zM186 174l-71 -174h-110l307 708h90l304 -708h-112l-72 174h-336zM418 843q0 -26 -18 -43t-45 -17q-26 0 -44 17.5t-18 42.5q0 26 18 43.5t44 17.5t44.5 -17.5t18.5 -43.5zM503 1046v-67h-296v67h296z" />
    <glyph glyph-name="adotmacron" unicode="&#x1e1;" horiz-adv-x="542" 
d="M376 226h-23q-211 0 -211 -90q0 -39 28 -56.5t69 -17.5q64 0 100.5 38.5t36.5 100.5v25zM376 294v13q0 52 -31 78t-86 26q-80 0 -135 -55l-50 60q76 71 194 71q98 0 148 -51.5t50 -134.5v-207q0 -62 7 -94h-85q-8 37 -8 68h-3q-55 -80 -159 -80q-30 0 -59 8t-55 24
t-42 45.5t-16 68.5q0 41 19.5 71.5t49.5 47t76.5 26t88 12.5t96.5 3zM322 623q0 -26 -18 -43t-45 -17q-26 0 -44 17.5t-18 42.5q0 26 18 43.5t44 17.5t44.5 -17.5t18.5 -43.5zM407 825v-67h-296v67h296z" />
    <glyph glyph-name="AEmacron" unicode="&#x1e2;" horiz-adv-x="1015" 
d="M293 278h231v343h-14zM623 324v-236h346v-88h-445v192h-283l-121 -192h-118l457 708h495v-87h-331v-212h310v-85h-310zM633 850v-67h-296v67h296z" />
    <glyph glyph-name="aemacron" unicode="&#x1e3;" horiz-adv-x="877" 
d="M419 85q-53 -97 -201 -97q-68 0 -120 31.5t-52 101.5q0 41 16.5 70t42.5 46t71 26.5t90 12.5t110 3v11q0 121 -117 121q-80 0 -135 -55l-50 60q76 71 194 71q128 0 166 -88q63 88 173 88q102 0 161.5 -66t59.5 -180q0 -21 -1 -32h-364q2 -61 45.5 -102.5t103.5 -41.5
q85 0 134 72l63 -53q-71 -97 -197 -97q-64 0 -114.5 25.5t-78.5 72.5zM462 279h272q0 58 -34 96t-94 38q-57 0 -99.5 -39t-44.5 -95zM374 209h-24q-49 0 -82.5 -2.5t-64.5 -10t-46 -23.5t-15 -40q0 -72 98 -72q65 0 99.5 32.5t34.5 90.5v25zM585 630v-67h-296v67h296z" />
    <glyph glyph-name="Gcaron" unicode="&#x1e6;" horiz-adv-x="778" 
d="M689 634l-69 -72q-70 77 -192 77q-121 0 -195.5 -82t-74.5 -202q0 -122 74.5 -203t198.5 -81q103 0 165 35v197h-157v84h255v-343q-116 -62 -266 -62q-166 0 -272 104.5t-106 268.5t106.5 267.5t270.5 103.5q165 0 262 -92zM537 945l-112 -144h-107l-111 144h90l76 -99
l76 99h88z" />
    <glyph glyph-name="gcaron" unicode="&#x1e7;" horiz-adv-x="632" 
d="M147 242q0 -69 43 -118t114 -49t116 48t45 119q0 69 -45.5 118t-115.5 49q-72 0 -114.5 -48t-42.5 -119zM58 -154l60 73q31 -35 77.5 -56t95.5 -21q167 0 167 175v61h-2q-26 -39 -70.5 -60.5t-96.5 -21.5q-107 0 -173 70t-66 174t66 175.5t172 71.5q53 0 99 -23t72 -66h2
v76h91v-450q0 -54 -13.5 -99.5t-43 -83.5t-82 -59.5t-123.5 -21.5q-63 0 -125.5 22.5t-106.5 63.5zM466 707l-112 -144h-107l-111 144h90l76 -99l76 99h88z" />
    <glyph glyph-name="Kcaron" unicode="&#x1e8;" horiz-adv-x="659" 
d="M185 708v-312h2l316 312h137l-344 -324l365 -384h-142l-332 366h-2v-366h-99v708h99zM538 927l-112 -144h-107l-111 144h90l76 -99l76 99h88z" />
    <glyph glyph-name="kcaron" unicode="&#x1e9;" horiz-adv-x="527" 
d="M177 756v-488h3l199 206h126l-222 -215l241 -259h-130l-214 246h-3v-246h-94v756h94zM468 975l-112 -144h-107l-111 144h90l76 -99l76 99h88z" />
    <glyph glyph-name="Oogonek" unicode="&#x1ea;" horiz-adv-x="849" 
d="M693 355q0 120 -74.5 202t-194.5 82q-119 0 -193 -82t-74 -202q0 -121 74 -202.5t193 -81.5q121 0 195 81.5t74 202.5zM800 355q0 -163 -106.5 -268t-269.5 -105t-268.5 104.5t-105.5 268.5q0 165 105.5 268t268.5 103t269.5 -103.5t106.5 -267.5zM499 -167l22 -45
q-43 -37 -95 -37q-40 0 -68.5 24t-28.5 63q0 38 28.5 77t66.5 68h54q-80 -76 -80 -125q0 -20 14 -33.5t34 -13.5q28 0 53 22z" />
    <glyph glyph-name="oogonek" unicode="&#x1eb;" horiz-adv-x="610" 
d="M463 238q0 72 -42.5 121.5t-115.5 49.5t-115.5 -49.5t-42.5 -121.5t42.5 -122t115.5 -50t115.5 50t42.5 122zM561 238q0 -109 -73 -180t-183 -71t-182.5 70.5t-72.5 180.5q0 109 72.5 179t182.5 70t183 -70t73 -179zM379 -162l22 -45q-43 -37 -95 -37q-40 0 -68.5 24
t-28.5 63q0 38 28.5 77t66.5 68h54q-80 -76 -80 -125q0 -20 14 -33.5t34 -13.5q28 0 53 22z" />
    <glyph glyph-name="Oogonekmacron" unicode="&#x1ec;" horiz-adv-x="849" 
d="M693 355q0 120 -74.5 202t-194.5 82q-119 0 -193 -82t-74 -202q0 -121 74 -202.5t193 -81.5q121 0 195 81.5t74 202.5zM800 355q0 -163 -106.5 -268t-269.5 -105t-268.5 104.5t-105.5 268.5q0 165 105.5 268t268.5 103t269.5 -103.5t106.5 -267.5zM499 -167l22 -45
q-43 -37 -95 -37q-40 0 -68.5 24t-28.5 63q0 38 28.5 77t66.5 68h54q-80 -76 -80 -125q0 -20 14 -33.5t34 -13.5q28 0 53 22zM573 868v-67h-296v67h296z" />
    <glyph glyph-name="oogonekmacron" unicode="&#x1ed;" horiz-adv-x="610" 
d="M463 238q0 72 -42.5 121.5t-115.5 49.5t-115.5 -49.5t-42.5 -121.5t42.5 -122t115.5 -50t115.5 50t42.5 122zM561 238q0 -109 -73 -180t-183 -71t-182.5 70.5t-72.5 180.5q0 109 72.5 179t182.5 70t183 -70t73 -179zM379 -162l22 -45q-43 -37 -95 -37q-40 0 -68.5 24
t-28.5 63q0 38 28.5 77t66.5 68h54q-80 -76 -80 -125q0 -20 14 -33.5t34 -13.5q28 0 53 22zM453 630v-67h-296v67h296z" />
    <glyph glyph-name="DZ" unicode="&#x1f1;" horiz-adv-x="1353" 
d="M185 622v-535h124q132 0 214 71.5t82 195.5q0 128 -81.5 198t-214.5 70h-124zM86 0v708h243q71 0 136.5 -20.5t121.5 -61.5t90 -111.5t34 -160.5q0 -87 -34 -157t-89.5 -111.5t-122 -63.5t-136.5 -22h-243zM1314 708v-87l-400 -533h406v-88h-526v87l399 534h-391v87h512z
" />
    <glyph glyph-name="Dz" unicode="&#x1f2;" horiz-adv-x="1223" 
d="M185 622v-535h124q132 0 214 71.5t82 195.5q0 128 -81.5 198t-214.5 70h-124zM86 0v708h243q71 0 136.5 -20.5t121.5 -61.5t90 -111.5t34 -160.5q0 -87 -34 -157t-89.5 -111.5t-122 -63.5t-136.5 -22h-243zM1180 474v-77l-270 -318h281v-79h-397v77l268 320h-255v77h373z
" />
    <glyph glyph-name="dz" unicode="&#x1f3;" horiz-adv-x="1097" 
d="M147 238q0 -71 42 -121.5t115 -50.5q70 0 115 50.5t45 120.5t-45 121t-115 51q-74 0 -115.5 -50t-41.5 -121zM461 75h-2q-26 -42 -72.5 -65t-98.5 -23q-107 0 -173 72t-66 179t66.5 178t171.5 71q110 0 169 -84h2v353h94v-756h-91v75zM1054 474v-77l-270 -318h281v-79
h-397v77l268 320h-255v77h373z" />
    <glyph glyph-name="Gacute" unicode="&#x1f4;" horiz-adv-x="778" 
d="M689 634l-69 -72q-70 77 -192 77q-121 0 -195.5 -82t-74.5 -202q0 -122 74.5 -203t198.5 -81q103 0 165 35v197h-157v84h255v-343q-116 -62 -266 -62q-166 0 -272 104.5t-106 268.5t106.5 267.5t270.5 103.5q165 0 262 -92zM479 945l-136 -144h-77l100 144h113z" />
    <glyph glyph-name="gacute" unicode="&#x1f5;" horiz-adv-x="632" 
d="M147 242q0 -69 43 -118t114 -49t116 48t45 119q0 69 -45.5 118t-115.5 49q-72 0 -114.5 -48t-42.5 -119zM58 -154l60 73q31 -35 77.5 -56t95.5 -21q167 0 167 175v61h-2q-26 -39 -70.5 -60.5t-96.5 -21.5q-107 0 -173 70t-66 174t66 175.5t172 71.5q53 0 99 -23t72 -66h2
v76h91v-450q0 -54 -13.5 -99.5t-43 -83.5t-82 -59.5t-123.5 -21.5q-63 0 -125.5 22.5t-106.5 63.5zM408 707l-136 -144h-77l100 144h113z" />
    <glyph glyph-name="Ngrave" unicode="&#x1f8;" horiz-adv-x="772" 
d="M215 708l370 -566h2v566h99v-708h-125l-374 578h-2v-578h-99v708h129zM416 783l-136 144h113l100 -144h-77z" />
    <glyph glyph-name="ngrave" unicode="&#x1f9;" horiz-adv-x="582" 
d="M77 474h89q4 -32 4 -78h3q18 39 60.5 65t93.5 26q87 0 132 -54t45 -139v-294h-94v263q0 145 -108 145q-57 0 -92 -42.5t-35 -113.5v-252h-94v372q0 61 -4 102zM320 563l-136 144h113l100 -144h-77z" />
    <glyph glyph-name="Aringacute" unicode="&#x1fa;" horiz-adv-x="711" 
d="M354 593l-133 -332h265zM186 174l-71 -174h-110l307 708h90l304 -708h-112l-72 174h-336zM414 882q0 24 -17.5 40t-41.5 16t-41 -16t-17 -40t17 -40.5t41 -16.5t41.5 16.5t17.5 40.5zM456 882q0 -42 -29.5 -70.5t-71.5 -28.5t-71 28t-29 70t29 70.5t71 28.5t71.5 -28
t29.5 -70zM462 1199l-136 -144h-77l100 144h113z" />
    <glyph glyph-name="aringacute" unicode="&#x1fb;" horiz-adv-x="542" 
d="M376 226h-23q-211 0 -211 -90q0 -39 28 -56.5t69 -17.5q64 0 100.5 38.5t36.5 100.5v25zM376 294v13q0 52 -31 78t-86 26q-80 0 -135 -55l-50 60q76 71 194 71q98 0 148 -51.5t50 -134.5v-207q0 -62 7 -94h-85q-8 37 -8 68h-3q-55 -80 -159 -80q-30 0 -59 8t-55 24
t-42 45.5t-16 68.5q0 41 19.5 71.5t49.5 47t76.5 26t88 12.5t96.5 3zM318 661q0 24 -17.5 40t-41.5 16t-41 -16t-17 -40t17 -40.5t41 -16.5t41.5 16.5t17.5 40.5zM360 661q0 -42 -29.5 -70.5t-71.5 -28.5t-71 28t-29 70t29 70.5t71 28.5t71.5 -28t29.5 -70zM366 978
l-136 -144h-77l100 144h113z" />
    <glyph glyph-name="AEacute" unicode="&#x1fc;" horiz-adv-x="1015" 
d="M293 278h231v343h-14zM623 324v-236h346v-88h-445v192h-283l-121 -192h-118l457 708h495v-87h-331v-212h310v-85h-310zM592 927l-136 -144h-77l100 144h113z" />
    <glyph glyph-name="aeacute" unicode="&#x1fd;" horiz-adv-x="877" 
d="M419 85q-53 -97 -201 -97q-68 0 -120 31.5t-52 101.5q0 41 16.5 70t42.5 46t71 26.5t90 12.5t110 3v11q0 121 -117 121q-80 0 -135 -55l-50 60q76 71 194 71q128 0 166 -88q63 88 173 88q102 0 161.5 -66t59.5 -180q0 -21 -1 -32h-364q2 -61 45.5 -102.5t103.5 -41.5
q85 0 134 72l63 -53q-71 -97 -197 -97q-64 0 -114.5 25.5t-78.5 72.5zM462 279h272q0 58 -34 96t-94 38q-57 0 -99.5 -39t-44.5 -95zM374 209h-24q-49 0 -82.5 -2.5t-64.5 -10t-46 -23.5t-15 -40q0 -72 98 -72q65 0 99.5 32.5t34.5 90.5v25zM544 707l-136 -144h-77l100 144
h113z" />
    <glyph glyph-name="Oslashacute" unicode="&#x1fe;" horiz-adv-x="849" 
d="M634 544l-383 -414q69 -61 173 -61q122 0 197 82t75 204q0 112 -62 189zM211 174l381 411q-64 55 -168 55q-123 0 -196.5 -82t-73.5 -203q0 -109 57 -181zM778 703l-79 -86q101 -103 101 -262q0 -163 -106.5 -267t-269.5 -106q-137 -1 -238 79l-81 -87l-43 39l81 88
q-93 99 -93 254q0 165 105.5 268t268.5 103q135 0 230 -71l81 87zM532 961l-136 -144h-77l100 144h113z" />
    <glyph glyph-name="oslashacute" unicode="&#x1ff;" horiz-adv-x="610" 
d="M438 338l-235 -240q41 -35 101 -35q76 0 119.5 51t43.5 124q0 62 -29 100zM172 136l234 241q-37 35 -101 35q-75 0 -118 -51.5t-43 -123.5q0 -64 28 -101zM568 471l-67 -70q60 -70 60 -164q0 -109 -73 -179.5t-183 -70.5q-90 0 -159 51l-68 -69l-36 36l66 68
q-58 67 -58 164q0 109 72.5 179.5t182.5 70.5q93 0 158 -51l68 70zM412 725l-136 -144h-77l100 144h113z" />
    <glyph glyph-name="Adblgrave" unicode="&#x200;" horiz-adv-x="711" 
d="M354 593l-133 -332h265zM186 174l-71 -174h-110l307 708h90l304 -708h-112l-72 174h-336zM290 783l-136 144h113l100 -144h-77zM480 783l-136 144h113l100 -144h-77z" />
    <glyph glyph-name="adblgrave" unicode="&#x201;" horiz-adv-x="542" 
d="M376 226h-23q-211 0 -211 -90q0 -39 28 -56.5t69 -17.5q64 0 100.5 38.5t36.5 100.5v25zM376 294v13q0 52 -31 78t-86 26q-80 0 -135 -55l-50 60q76 71 194 71q98 0 148 -51.5t50 -134.5v-207q0 -62 7 -94h-85q-8 37 -8 68h-3q-55 -80 -159 -80q-30 0 -59 8t-55 24
t-42 45.5t-16 68.5q0 41 19.5 71.5t49.5 47t76.5 26t88 12.5t96.5 3zM194 563l-136 144h113l100 -144h-77zM384 563l-136 144h113l100 -144h-77z" />
    <glyph glyph-name="Ainvertedbreve" unicode="&#x202;" horiz-adv-x="711" 
d="M354 593l-133 -332h265zM186 174l-71 -174h-110l307 708h90l304 -708h-112l-72 174h-336zM459 921h55q-6 -67 -48.5 -102.5t-110.5 -35.5q-69 0 -111.5 35.5t-47.5 102.5h56q13 -72 103 -72q88 0 104 72z" />
    <glyph glyph-name="ainvertedbreve" unicode="&#x203;" horiz-adv-x="542" 
d="M376 226h-23q-211 0 -211 -90q0 -39 28 -56.5t69 -17.5q64 0 100.5 38.5t36.5 100.5v25zM376 294v13q0 52 -31 78t-86 26q-80 0 -135 -55l-50 60q76 71 194 71q98 0 148 -51.5t50 -134.5v-207q0 -62 7 -94h-85q-8 37 -8 68h-3q-55 -80 -159 -80q-30 0 -59 8t-55 24
t-42 45.5t-16 68.5q0 41 19.5 71.5t49.5 47t76.5 26t88 12.5t96.5 3zM363 701h55q-6 -67 -48.5 -102.5t-110.5 -35.5q-69 0 -111.5 35.5t-47.5 102.5h56q13 -72 103 -72q88 0 104 72z" />
    <glyph glyph-name="Edblgrave" unicode="&#x204;" horiz-adv-x="601" 
d="M185 324v-236h370v-88h-469v708h454v-87h-355v-212h334v-85h-334zM255 783l-136 144h113l100 -144h-77zM445 783l-136 144h113l100 -144h-77z" />
    <glyph glyph-name="edblgrave" unicode="&#x205;" horiz-adv-x="573" 
d="M523 241q0 -21 -1 -32h-376q2 -61 47 -102.5t107 -41.5q89 0 138 72l66 -53q-74 -97 -204 -97q-109 0 -179.5 69t-70.5 180q0 110 69.5 180.5t175.5 70.5q105 0 166.5 -66t61.5 -180zM146 279h282q-2 60 -36 97t-97 37q-60 0 -102.5 -38.5t-46.5 -95.5zM221 563l-136 144
h113l100 -144h-77zM411 563l-136 144h113l100 -144h-77z" />
    <glyph glyph-name="Einvertedbreve" unicode="&#x206;" horiz-adv-x="601" 
d="M185 324v-236h370v-88h-469v708h454v-87h-355v-212h334v-85h-334zM424 921h55q-6 -67 -48.5 -102.5t-110.5 -35.5q-69 0 -111.5 35.5t-47.5 102.5h56q13 -72 103 -72q88 0 104 72z" />
    <glyph glyph-name="einvertedbreve" unicode="&#x207;" horiz-adv-x="573" 
d="M523 241q0 -21 -1 -32h-376q2 -61 47 -102.5t107 -41.5q89 0 138 72l66 -53q-74 -97 -204 -97q-109 0 -179.5 69t-70.5 180q0 110 69.5 180.5t175.5 70.5q105 0 166.5 -66t61.5 -180zM146 279h282q-2 60 -36 97t-97 37q-60 0 -102.5 -38.5t-46.5 -95.5zM390 701h55
q-6 -67 -48.5 -102.5t-110.5 -35.5q-69 0 -111.5 35.5t-47.5 102.5h56q13 -72 103 -72q88 0 104 72z" />
    <glyph glyph-name="Idblgrave" unicode="&#x208;" horiz-adv-x="271" 
d="M185 708v-708h-99v708h99zM70 783l-136 144h113l100 -144h-77zM260 783l-136 144h113l100 -144h-77z" />
    <glyph glyph-name="idblgrave" unicode="&#x209;" horiz-adv-x="259" 
d="M176 474v-474h-94v474h94zM64 550l-136 144h113l100 -144h-77zM254 550l-136 144h113l100 -144h-77z" />
    <glyph glyph-name="Iinvertedbreve" unicode="&#x20a;" horiz-adv-x="271" 
d="M185 708v-708h-99v708h99zM239 921h55q-6 -67 -48.5 -102.5t-110.5 -35.5q-69 0 -111.5 35.5t-47.5 102.5h56q13 -72 103 -72q88 0 104 72z" />
    <glyph glyph-name="iinvertedbreve" unicode="&#x20b;" horiz-adv-x="259" 
d="M176 474v-474h-94v474h94zM233 688h55q-6 -67 -48.5 -102.5t-110.5 -35.5q-69 0 -111.5 35.5t-47.5 102.5h56q13 -72 103 -72q88 0 104 72z" />
    <glyph glyph-name="Odblgrave" unicode="&#x20c;" horiz-adv-x="849" 
d="M693 355q0 120 -74.5 202t-194.5 82q-119 0 -193 -82t-74 -202q0 -121 74 -202.5t193 -81.5q121 0 195 81.5t74 202.5zM800 355q0 -163 -106.5 -268t-269.5 -105t-268.5 104.5t-105.5 268.5q0 165 105.5 268t268.5 103t269.5 -103.5t106.5 -267.5zM360 801l-136 144h113
l100 -144h-77zM550 801l-136 144h113l100 -144h-77z" />
    <glyph glyph-name="odblgrave" unicode="&#x20d;" horiz-adv-x="610" 
d="M463 238q0 72 -42.5 121.5t-115.5 49.5t-115.5 -49.5t-42.5 -121.5t42.5 -122t115.5 -50t115.5 50t42.5 122zM561 238q0 -109 -73 -180t-183 -71t-182.5 70.5t-72.5 180.5q0 109 72.5 179t182.5 70t183 -70t73 -179zM240 563l-136 144h113l100 -144h-77zM430 563
l-136 144h113l100 -144h-77z" />
    <glyph glyph-name="Oinvertedbreve" unicode="&#x20e;" horiz-adv-x="849" 
d="M693 355q0 120 -74.5 202t-194.5 82q-119 0 -193 -82t-74 -202q0 -121 74 -202.5t193 -81.5q121 0 195 81.5t74 202.5zM800 355q0 -163 -106.5 -268t-269.5 -105t-268.5 104.5t-105.5 268.5q0 165 105.5 268t268.5 103t269.5 -103.5t106.5 -267.5zM529 939h55
q-6 -67 -48.5 -102.5t-110.5 -35.5q-69 0 -111.5 35.5t-47.5 102.5h56q13 -72 103 -72q88 0 104 72z" />
    <glyph glyph-name="oinvertedbreve" unicode="&#x20f;" horiz-adv-x="610" 
d="M463 238q0 72 -42.5 121.5t-115.5 49.5t-115.5 -49.5t-42.5 -121.5t42.5 -122t115.5 -50t115.5 50t42.5 122zM561 238q0 -109 -73 -180t-183 -71t-182.5 70.5t-72.5 180.5q0 109 72.5 179t182.5 70t183 -70t73 -179zM409 701h55q-6 -67 -48.5 -102.5t-110.5 -35.5
q-69 0 -111.5 35.5t-47.5 102.5h56q13 -72 103 -72q88 0 104 72z" />
    <glyph glyph-name="Rdblgrave" unicode="&#x210;" horiz-adv-x="614" 
d="M185 624v-226h114q75 0 120.5 27.5t45.5 86.5q0 112 -159 112h-121zM185 315v-315h-99v708h227q112 0 182 -47t70 -149q0 -76 -47 -125t-125 -62l198 -325h-120l-180 315h-106zM273 783l-136 144h113l100 -144h-77zM463 783l-136 144h113l100 -144h-77z" />
    <glyph glyph-name="rdblgrave" unicode="&#x211;" horiz-adv-x="362" 
d="M81 0v372q0 61 -4 102h89q4 -32 4 -80h3q21 43 59.5 68t85.5 25q24 0 37 -4l-4 -87q-22 5 -43 5q-65 0 -99 -43.5t-34 -108.5v-249h-94zM151 563l-136 144h113l100 -144h-77zM341 563l-136 144h113l100 -144h-77z" />
    <glyph glyph-name="Rinvertedbreve" unicode="&#x212;" horiz-adv-x="614" 
d="M185 624v-226h114q75 0 120.5 27.5t45.5 86.5q0 112 -159 112h-121zM185 315v-315h-99v708h227q112 0 182 -47t70 -149q0 -76 -47 -125t-125 -62l198 -325h-120l-180 315h-106zM442 921h55q-6 -67 -48.5 -102.5t-110.5 -35.5q-69 0 -111.5 35.5t-47.5 102.5h56
q13 -72 103 -72q88 0 104 72z" />
    <glyph glyph-name="rinvertedbreve" unicode="&#x213;" horiz-adv-x="362" 
d="M81 0v372q0 61 -4 102h89q4 -32 4 -80h3q21 43 59.5 68t85.5 25q24 0 37 -4l-4 -87q-22 5 -43 5q-65 0 -99 -43.5t-34 -108.5v-249h-94zM320 701h55q-6 -67 -48.5 -102.5t-110.5 -35.5q-69 0 -111.5 35.5t-47.5 102.5h56q13 -72 103 -72q88 0 104 72z" />
    <glyph glyph-name="Udblgrave" unicode="&#x214;" horiz-adv-x="712" 
d="M356 -18q-133 0 -204 81.5t-71 198.5v446h99v-440q0 -83 42.5 -140t133.5 -57t133.5 57t42.5 140v440h99v-446q0 -117 -71 -198.5t-204 -81.5zM291 783l-136 144h113l100 -144h-77zM481 783l-136 144h113l100 -144h-77z" />
    <glyph glyph-name="udblgrave" unicode="&#x215;" horiz-adv-x="582" 
d="M504 0h-89q-4 32 -4 78h-2q-18 -39 -61 -65t-94 -26q-88 0 -132.5 54t-44.5 139v294h94v-262q0 -146 108 -146q57 0 92 42.5t35 113.5v252h94v-372q0 -61 4 -102zM225 550l-136 144h113l100 -144h-77zM415 550l-136 144h113l100 -144h-77z" />
    <glyph glyph-name="Uinvertedbreve" unicode="&#x216;" horiz-adv-x="712" 
d="M356 -18q-133 0 -204 81.5t-71 198.5v446h99v-440q0 -83 42.5 -140t133.5 -57t133.5 57t42.5 140v440h99v-446q0 -117 -71 -198.5t-204 -81.5zM460 921h55q-6 -67 -48.5 -102.5t-110.5 -35.5q-69 0 -111.5 35.5t-47.5 102.5h56q13 -72 103 -72q88 0 104 72z" />
    <glyph glyph-name="uinvertedbreve" unicode="&#x217;" horiz-adv-x="582" 
d="M504 0h-89q-4 32 -4 78h-2q-18 -39 -61 -65t-94 -26q-88 0 -132.5 54t-44.5 139v294h94v-262q0 -146 108 -146q57 0 92 42.5t35 113.5v252h94v-372q0 -61 4 -102zM394 688h55q-6 -67 -48.5 -102.5t-110.5 -35.5q-69 0 -111.5 35.5t-47.5 102.5h56q13 -72 103 -72
q88 0 104 72z" />
    <glyph glyph-name="Scommaaccent" unicode="&#x218;" horiz-adv-x="569" 
d="M345 -45l-78 -190h-79l64 190h93zM508 645l-70 -68q-47 66 -138 66q-54 0 -96 -29.5t-42 -85.5q0 -23 8.5 -41t18.5 -29t33.5 -22t37.5 -16t47 -16q38 -12 59.5 -20t54 -25.5t50 -37t31 -52t13.5 -72.5q0 -104 -71.5 -159.5t-173.5 -55.5q-69 0 -131 26.5t-102 76.5
l77 65q25 -37 67.5 -60t90.5 -23q56 0 99 31.5t43 89.5q0 25 -10 45t-22 32t-38.5 24.5t-43.5 18.5t-54 17q-40 12 -68 25.5t-57 35.5t-44 57t-15 81q0 67 37 114.5t90.5 67.5t115.5 20q61 0 115.5 -22t87.5 -59z" />
    <glyph glyph-name="scommaaccent" unicode="&#x219;" horiz-adv-x="444" 
d="M282 -45l-78 -190h-79l64 190h93zM402 409l-65 -55q-16 27 -45.5 43t-64.5 16q-37 0 -62.5 -15.5t-25.5 -46.5q0 -28 25 -43t83 -28q76 -18 117.5 -49.5t41.5 -90.5q0 -78 -54.5 -115.5t-134.5 -37.5q-56 0 -107 22t-84 63l67 57q19 -29 53.5 -47.5t72.5 -18.5
q40 0 67 16.5t27 52.5q0 31 -28 46.5t-96 32.5q-28 7 -49 15t-43 22.5t-34 38t-12 55.5q0 71 52.5 108t126.5 37q53 0 99.5 -20.5t72.5 -57.5z" />
    <glyph glyph-name="uni021A" unicode="&#x21a;" horiz-adv-x="569" 
d="M347 -45l-78 -190h-79l64 190h93zM334 621v-621h-99v621h-227v87h553v-87h-227z" />
    <glyph glyph-name="uni021B" unicode="&#x21b;" horiz-adv-x="329" 
d="M261 -45l-78 -190h-79l64 190h93zM313 474v-77h-126v-247q0 -43 16 -61.5t51 -18.5q31 0 55 12l3 -77q-37 -13 -80 -13q-138 0 -138 148v257h-91v77h91v136h93v-136h126z" />
    <glyph glyph-name="Hcaron" unicode="&#x21e;" horiz-adv-x="729" 
d="M86 0v708h99v-296h358v296h100v-708h-100v324h-358v-324h-99zM529 927l-112 -144h-107l-111 144h90l76 -99l76 99h88z" />
    <glyph glyph-name="hcaron" unicode="&#x21f;" horiz-adv-x="584" 
d="M177 402h2q18 36 59 60.5t91 24.5q87 0 132 -54t45 -139v-294h-94v262q0 145 -107 145q-57 0 -92.5 -42.5t-35.5 -113.5v-251h-94v756h94v-354zM459 975l-112 -144h-107l-111 144h90l76 -99l76 99h88z" />
    <glyph glyph-name="Adotaccent" unicode="&#x226;" horiz-adv-x="711" 
d="M354 593l-133 -332h265zM186 174l-71 -174h-110l307 708h90l304 -708h-112l-72 174h-336zM418 843q0 -26 -18 -43t-45 -17q-26 0 -44 17.5t-18 42.5q0 26 18 43.5t44 17.5t44.5 -17.5t18.5 -43.5z" />
    <glyph glyph-name="adotaccent" unicode="&#x227;" horiz-adv-x="542" 
d="M376 226h-23q-211 0 -211 -90q0 -39 28 -56.5t69 -17.5q64 0 100.5 38.5t36.5 100.5v25zM376 294v13q0 52 -31 78t-86 26q-80 0 -135 -55l-50 60q76 71 194 71q98 0 148 -51.5t50 -134.5v-207q0 -62 7 -94h-85q-8 37 -8 68h-3q-55 -80 -159 -80q-30 0 -59 8t-55 24
t-42 45.5t-16 68.5q0 41 19.5 71.5t49.5 47t76.5 26t88 12.5t96.5 3zM322 623q0 -26 -18 -43t-45 -17q-26 0 -44 17.5t-18 42.5q0 26 18 43.5t44 17.5t44.5 -17.5t18.5 -43.5z" />
    <glyph glyph-name="Ecedilla" unicode="&#x228;" horiz-adv-x="601" 
d="M185 324v-236h370v-88h-469v708h454v-87h-355v-212h334v-85h-334zM360 0l-46 -69q6 2 27 2q38 0 66 -18.5t28 -59.5q0 -48 -38 -69t-89 -21q-60 0 -103 23l20 42q39 -17 77 -17q22 0 41.5 9.5t19.5 32.5q0 38 -54 38q-18 0 -41 -7l-20 20l62 94h50z" />
    <glyph glyph-name="ecedilla" unicode="&#x229;" horiz-adv-x="573" 
d="M523 241q0 -21 -1 -32h-376q2 -61 47 -102.5t107 -41.5q89 0 138 72l66 -53q-74 -97 -204 -97q-109 0 -179.5 69t-70.5 180q0 110 69.5 180.5t175.5 70.5q105 0 166.5 -66t61.5 -180zM146 279h282q-2 60 -36 97t-97 37q-60 0 -102.5 -38.5t-46.5 -95.5zM326 -12l-46 -69
q6 2 27 2q38 0 66 -18.5t28 -59.5q0 -48 -38 -69t-89 -21q-60 0 -103 23l20 42q39 -17 77 -17q22 0 41.5 9.5t19.5 32.5q0 38 -54 38q-18 0 -41 -7l-20 20l62 94h50z" />
    <glyph glyph-name="Odieresismacron" unicode="&#x22a;" horiz-adv-x="849" 
d="M693 355q0 120 -74.5 202t-194.5 82q-119 0 -193 -82t-74 -202q0 -121 74 -202.5t193 -81.5q121 0 195 81.5t74 202.5zM800 355q0 -163 -106.5 -268t-269.5 -105t-268.5 104.5t-105.5 268.5q0 165 105.5 268t268.5 103t269.5 -103.5t106.5 -267.5zM460 861q0 25 18 43
t44 18t44 -17.5t18 -43.5q0 -25 -18 -42.5t-44 -17.5t-44 18t-18 42zM266 861q0 25 18 43t44 18t44 -17.5t18 -43.5q0 -25 -18 -42.5t-44 -17.5t-44 18t-18 42zM573 1064v-67h-296v67h296z" />
    <glyph glyph-name="odieresismacron" unicode="&#x22b;" horiz-adv-x="610" 
d="M463 238q0 72 -42.5 121.5t-115.5 49.5t-115.5 -49.5t-42.5 -121.5t42.5 -122t115.5 -50t115.5 50t42.5 122zM561 238q0 -109 -73 -180t-183 -71t-182.5 70.5t-72.5 180.5q0 109 72.5 179t182.5 70t183 -70t73 -179zM340 623q0 25 18 43t44 18t44 -17.5t18 -43.5
q0 -25 -18 -42.5t-44 -17.5t-44 18t-18 42zM146 623q0 25 18 43t44 18t44 -17.5t18 -43.5q0 -25 -18 -42.5t-44 -17.5t-44 18t-18 42zM453 825v-67h-296v67h296z" />
    <glyph glyph-name="Otildemacron" unicode="&#x22c;" horiz-adv-x="849" 
d="M693 355q0 120 -74.5 202t-194.5 82q-119 0 -193 -82t-74 -202q0 -121 74 -202.5t193 -81.5q121 0 195 81.5t74 202.5zM800 355q0 -163 -106.5 -268t-269.5 -105t-268.5 104.5t-105.5 268.5q0 165 105.5 268t268.5 103t269.5 -103.5t106.5 -267.5zM307 801h-55
q20 116 102 116q33 0 75 -20q50 -22 67 -22q34 0 48 46h54q-20 -116 -102 -116q-31 0 -77 21q-42 21 -65 21q-33 0 -47 -46zM573 1063v-67h-296v67h296z" />
    <glyph glyph-name="otildemacron" unicode="&#x22d;" horiz-adv-x="610" 
d="M463 238q0 72 -42.5 121.5t-115.5 49.5t-115.5 -49.5t-42.5 -121.5t42.5 -122t115.5 -50t115.5 50t42.5 122zM561 238q0 -109 -73 -180t-183 -71t-182.5 70.5t-72.5 180.5q0 109 72.5 179t182.5 70t183 -70t73 -179zM187 563h-55q20 116 102 116q33 0 75 -20
q49 -22 67 -22q34 0 48 46h54q-20 -116 -102 -116q-31 0 -77 21q-42 21 -65 21q-33 0 -47 -46zM453 824v-67h-296v67h296z" />
    <glyph glyph-name="Odotaccent" unicode="&#x22e;" horiz-adv-x="849" 
d="M693 355q0 120 -74.5 202t-194.5 82q-119 0 -193 -82t-74 -202q0 -121 74 -202.5t193 -81.5q121 0 195 81.5t74 202.5zM800 355q0 -163 -106.5 -268t-269.5 -105t-268.5 104.5t-105.5 268.5q0 165 105.5 268t268.5 103t269.5 -103.5t106.5 -267.5zM488 861q0 -26 -18 -43
t-45 -17q-26 0 -44 17.5t-18 42.5q0 26 18 43.5t44 17.5t44.5 -17.5t18.5 -43.5z" />
    <glyph glyph-name="odotaccent" unicode="&#x22f;" horiz-adv-x="610" 
d="M463 238q0 72 -42.5 121.5t-115.5 49.5t-115.5 -49.5t-42.5 -121.5t42.5 -122t115.5 -50t115.5 50t42.5 122zM561 238q0 -109 -73 -180t-183 -71t-182.5 70.5t-72.5 180.5q0 109 72.5 179t182.5 70t183 -70t73 -179zM368 623q0 -26 -18 -43t-45 -17q-26 0 -44 17.5
t-18 42.5q0 26 18 43.5t44 17.5t44.5 -17.5t18.5 -43.5z" />
    <glyph glyph-name="Odotaccentmacron" unicode="&#x230;" horiz-adv-x="849" 
d="M693 355q0 120 -74.5 202t-194.5 82q-119 0 -193 -82t-74 -202q0 -121 74 -202.5t193 -81.5q121 0 195 81.5t74 202.5zM800 355q0 -163 -106.5 -268t-269.5 -105t-268.5 104.5t-105.5 268.5q0 165 105.5 268t268.5 103t269.5 -103.5t106.5 -267.5zM488 861q0 -26 -18 -43
t-45 -17q-26 0 -44 17.5t-18 42.5q0 26 18 43.5t44 17.5t44.5 -17.5t18.5 -43.5zM573 1064v-67h-296v67h296z" />
    <glyph glyph-name="odotaccentmacron" unicode="&#x231;" horiz-adv-x="610" 
d="M463 238q0 72 -42.5 121.5t-115.5 49.5t-115.5 -49.5t-42.5 -121.5t42.5 -122t115.5 -50t115.5 50t42.5 122zM561 238q0 -109 -73 -180t-183 -71t-182.5 70.5t-72.5 180.5q0 109 72.5 179t182.5 70t183 -70t73 -179zM368 623q0 -26 -18 -43t-45 -17q-26 0 -44 17.5
t-18 42.5q0 26 18 43.5t44 17.5t44.5 -17.5t18.5 -43.5zM453 825v-67h-296v67h296z" />
    <glyph glyph-name="Ymacron" unicode="&#x232;" horiz-adv-x="624" 
d="M362 306v-306h-100v306l-265 402h122l196 -320l197 320h115zM460 850v-67h-296v67h296z" />
    <glyph glyph-name="ymacron" unicode="&#x233;" horiz-adv-x="504" 
d="M114 474l147 -372h2l131 372h100l-230 -586q-25 -65 -61.5 -96.5t-102.5 -31.5q-33 0 -62 7l9 83q26 -8 47 -8q35 0 54 19t34 60l30 79l-203 474h105zM399 617v-67h-296v67h296z" />
    <glyph glyph-name="commaturnedmod" unicode="&#x2bb;" horiz-adv-x="246" 
d="M42 458l83 250h79l-68 -250h-94z" />
    <glyph glyph-name="afii57929" unicode="&#x2bc;" horiz-adv-x="246" 
d="M204 708l-83 -250h-79l69 250h93z" />
    <glyph glyph-name="circumflex" unicode="&#x2c6;" 
d="M179 708l112 -144h-91l-75 99l-76 -99h-90l112 144h108z" />
    <glyph glyph-name="caron" unicode="&#x2c7;" 
d="M290 708l-112 -144h-107l-111 144h90l76 -99l76 99h88z" />
    <glyph glyph-name="uni02C9" unicode="&#x2c9;" 
d="M273 864v-67h-296v67h296z" />
    <glyph glyph-name="breve" unicode="&#x2d8;" 
d="M229 708h55q-6 -67 -48.5 -102.5t-110.5 -35.5q-69 0 -111.5 35.5t-47.5 102.5h56q13 -72 103 -72q88 0 104 72z" />
    <glyph glyph-name="dotaccent" unicode="&#x2d9;" 
d="M188 645q0 -26 -18 -43t-45 -17q-26 0 -44 17.5t-18 42.5q0 26 18 43.5t44 17.5t44.5 -17.5t18.5 -43.5z" />
    <glyph glyph-name="ring" unicode="&#x2da;" 
d="M184 653q0 24 -17.5 40t-41.5 16t-41 -16t-17 -40t17 -40.5t41 -16.5t41.5 16.5t17.5 40.5zM226 653q0 -42 -29.5 -70.5t-71.5 -28.5t-71 28t-29 70t29 70.5t71 28.5t71.5 -28t29.5 -70z" />
    <glyph glyph-name="ogonek" unicode="&#x2db;" 
d="M184 -144l22 -45q-43 -37 -95 -37q-40 0 -68.5 24t-28.5 63q0 38 28.5 77t66.5 68h54q-80 -76 -80 -125q0 -20 14 -33.5t34 -13.5q28 0 53 22z" />
    <glyph glyph-name="tilde" unicode="&#x2dc;" 
d="M7 572h-55q20 116 102 116q33 0 75 -20q50 -22 67 -22q34 0 48 46h54q-20 -116 -102 -116q-31 0 -77 21q-42 21 -65 21q-33 0 -47 -46z" />
    <glyph glyph-name="hungarumlaut" unicode="&#x2dd;" 
d="M358 708l-136 -144h-77l100 144h113zM176 708l-137 -144h-77l100 144h114z" />
    <glyph glyph-name="uni02EE" unicode="&#x2ee;" horiz-adv-x="426" 
d="M204 708l-83 -250h-79l69 250h93zM384 708l-83 -250h-79l69 250h93z" />
    <glyph glyph-name="gravecmb" unicode="&#x300;" horiz-adv-x="0" 
d="M-114 564l-136 144h113l100 -144h-77z" />
    <glyph glyph-name="acutecmb" unicode="&#x301;" horiz-adv-x="0" 
d="M-37 708l-136 -144h-77l100 144h113z" />
    <glyph glyph-name="circumflexcmb" unicode="&#x302;" horiz-adv-x="0" 
d="M-30 708l112 -144h-91l-75 99l-76 -99h-90l112 144h108z" />
    <glyph glyph-name="tildecmb" unicode="&#x303;" horiz-adv-x="0" 
d="M-195 572h-55q20 116 102 116q33 0 75 -20q49 -22 67 -22q34 0 48 46h54q-20 -116 -102 -116q-31 0 -77 21q-42 21 -65 21q-33 0 -47 -46z" />
    <glyph glyph-name="macroncmb" unicode="&#x304;" horiz-adv-x="0" 
d="M46 664v-67h-296v67h296z" />
    <glyph glyph-name="brevecmb" unicode="&#x306;" horiz-adv-x="0" 
d="M13 708h55q-6 -67 -48.5 -102.5t-110.5 -35.5q-69 0 -111.5 35.5t-47.5 102.5h56q13 -72 103 -72q88 0 104 72z" />
    <glyph glyph-name="dotaccentcmb" unicode="&#x307;" horiz-adv-x="0" 
d="M-125 645q0 -26 -18 -43t-45 -17q-26 0 -44 17.5t-18 42.5q0 26 18 43.5t44 17.5t44.5 -17.5t18.5 -43.5z" />
    <glyph glyph-name="dieresiscmb" unicode="&#x308;" horiz-adv-x="0" 
d="M-56 645q0 25 18 43t44 18t44 -17.5t18 -43.5q0 -25 -18 -42.5t-44 -17.5t-44 18t-18 42zM-250 645q0 25 18 43t44 18t44 -17.5t18 -43.5q0 -25 -18 -42.5t-44 -17.5t-44 18t-18 42z" />
    <glyph glyph-name="hookabovecomb" unicode="&#x309;" 
d="M154 555h-62q0 47 46 70q31 16 31 40q0 36 -40 36q-42 0 -49 -49l-66 8q16 91 117 91q48 0 76 -23.5t28 -59.5q0 -54 -51 -76q-30 -14 -30 -37z" />
    <glyph glyph-name="ringcmb" unicode="&#x30a;" horiz-adv-x="0" 
d="M-91 653q0 24 -17.5 40t-41.5 16t-41 -16t-17 -40t17 -40.5t41 -16.5t41.5 16.5t17.5 40.5zM-49 653q0 -42 -29.5 -70.5t-71.5 -28.5t-71 28t-29 70t29 70.5t71 28.5t71.5 -28t29.5 -70z" />
    <glyph glyph-name="hungarumlautcmb" unicode="&#x30b;" horiz-adv-x="0" 
d="M146 708l-136 -144h-77l100 144h113zM-36 708l-137 -144h-77l100 144h114z" />
    <glyph glyph-name="caroncmb" unicode="&#x30c;" horiz-adv-x="0" 
d="M80 708l-112 -144h-107l-111 144h90l76 -99l76 99h88z" />
    <glyph glyph-name="doublegravecmb" unicode="&#x30f;" horiz-adv-x="0" 
d="M-304 564l-136 144h113l100 -144h-77zM-114 564l-136 144h113l100 -144h-77z" />
    <glyph glyph-name="invertedbrevecmb" unicode="&#x311;" horiz-adv-x="0" 
d="M-55 708h55q-6 -67 -48.5 -102.5t-110.5 -35.5q-69 0 -111.5 35.5t-47.5 102.5h56q13 -72 103 -72q88 0 104 72z" />
    <glyph glyph-name="horncmb" unicode="&#x31b;" horiz-adv-x="0" 
d="M-312 474h92q78 0 78 74q0 31 -16 59l81 21q16 -32 16 -80q0 -62 -33 -95t-94 -35q-52 -1 -92 16q-18 8 -33 18z" />
    <glyph glyph-name="dotbelowcmb" unicode="&#x323;" horiz-adv-x="0" 
d="M-126 -135q0 -27 -19 -46.5t-48 -19.5q-28 0 -47.5 19.5t-19.5 45.5q0 27 19 46.5t48 19.5t48 -19t19 -46z" />
    <glyph glyph-name="dieresisbelowcmb" unicode="&#x324;" horiz-adv-x="0" 
d="M-56 -131q0 25 18 43t44 18t44 -17.5t18 -43.5q0 -25 -18 -42.5t-44 -17.5t-44 18t-18 42zM-250 -131q0 25 18 43t44 18t44 -17.5t18 -43.5q0 -25 -18 -42.5t-44 -17.5t-44 18t-18 42z" />
    <glyph glyph-name="ringbelowcmb" unicode="&#x325;" horiz-adv-x="0" 
d="M-91 -168q0 24 -17.5 40t-41.5 16t-41 -16t-17 -40t17 -40.5t41 -16.5t41.5 16.5t17.5 40.5zM-49 -168q0 -42 -29.5 -70.5t-71.5 -28.5t-71 28t-29 70t29 70.5t71 28.5t71.5 -28t29.5 -70z" />
    <glyph glyph-name="commabelowcmb" unicode="&#x326;" horiz-adv-x="0" 
d="M-97 -70l-83 -250h-80l69 250h94z" />
    <glyph glyph-name="cedillacmb" unicode="&#x327;" horiz-adv-x="0" 
d="M-95 0l-46 -69q6 2 27 2q38 0 66 -18.5t28 -59.5q0 -48 -38 -69t-89 -21q-60 0 -103 23l20 42q39 -17 77 -17q22 0 41.5 9.5t19.5 32.5q0 38 -54 38q-18 0 -41 -7l-20 20l62 94h50z" />
    <glyph glyph-name="ogonekcmb" unicode="&#x328;" horiz-adv-x="0" 
d="M-80 -144l22 -45q-43 -37 -95 -37q-40 0 -68.5 24t-28.5 63q0 38 28.5 77t66.5 68h54q-80 -76 -80 -125q0 -20 14 -33.5t34 -13.5q28 0 53 22z" />
    <glyph glyph-name="circumflexbelowcmb" unicode="&#x32d;" horiz-adv-x="0" 
d="M-30 -70l112 -144h-91l-75 99l-76 -99h-90l112 144h108z" />
    <glyph glyph-name="brevebelowcmb" unicode="&#x32e;" horiz-adv-x="0" 
d="M13 -70h55q-6 -67 -48.5 -102.5t-110.5 -35.5q-69 0 -111.5 35.5t-47.5 102.5h56q13 -72 103 -72q88 0 104 72z" />
    <glyph glyph-name="tildebelowcmb" unicode="&#x330;" horiz-adv-x="0" 
d="M-195 -190h-55q20 116 102 116q33 0 75 -20q50 -22 67 -22q34 0 48 46h54q-20 -116 -102 -116q-31 0 -77 21q-42 21 -65 21q-33 0 -47 -46z" />
    <glyph glyph-name="macronbelowcmb" unicode="&#x331;" horiz-adv-x="0" 
d="M46 -70v-67h-296v67h296z" />
    <glyph glyph-name="gravetonecmb" unicode="&#x340;" horiz-adv-x="0" 
d="M-114 564l-136 144h113l100 -144h-77z" />
    <glyph glyph-name="acutetonecmb" unicode="&#x341;" horiz-adv-x="0" 
d="M-37 708l-136 -144h-77l100 144h113z" />
    <glyph glyph-name="dialytikatonoscmb" unicode="&#x344;" horiz-adv-x="0" 
d="M-56 645q0 25 18 43t44 18t44 -17.5t18 -43.5q0 -25 -18 -42.5t-44 -17.5t-44 18t-18 42zM-250 645q0 25 18 43t44 18t44 -17.5t18 -43.5q0 -25 -18 -42.5t-44 -17.5t-44 18t-18 42zM16 925l-136 -144h-77l100 144h113z" />
    <glyph glyph-name="combininggraphemejoiner" unicode="&#x34f;" horiz-adv-x="500" 
 />
    <glyph glyph-name="uni037E" unicode="&#x37e;" horiz-adv-x="300" 
d="M206 117l-83 -250h-80l69 250h94zM217 415q0 -27 -19 -46.5t-48 -19.5q-28 0 -47.5 19t-19.5 46t19 46.5t48 19.5t48 -19t19 -46z" />
    <glyph glyph-name="u0384" unicode="&#x384;" horiz-adv-x="260" 
d="M99 539l-11 186h83l-10 -186h-62z" />
    <glyph glyph-name="u0385" unicode="&#x385;" horiz-adv-x="240" 
d="M95 537l-11 208h78l-10 -208h-57zM213 582q0 19 14.5 34t34.5 15q21 0 35.5 -15t14.5 -34q0 -21 -14.5 -35.5t-35.5 -14.5t-35 14.5t-14 35.5zM-66 582q0 19 14.5 34t35.5 15q20 0 34.5 -15t14.5 -34q0 -21 -14 -35.5t-35 -14.5t-35.5 14.5t-14.5 35.5z" />
    <glyph glyph-name="u0386" unicode="&#x386;" horiz-adv-x="714" 
d="M359 600l-139 -342h277zM187 174l-71 -174h-106l304 708h94l302 -708h-108l-73 174h-342zM79 569l-11 186h83l-10 -186h-62z" />
    <glyph glyph-name="anoteleia" unicode="&#x387;" horiz-adv-x="260" 
d="M198 303q0 -27 -19 -46.5t-48 -19.5t-48.5 19t-19.5 46t19.5 47t48.5 20q28 0 47.5 -19.5t19.5 -46.5z" />
    <glyph glyph-name="u0388" unicode="&#x388;" horiz-adv-x="665" 
d="M254 326v-241h366v-85h-462v708h449v-85h-353v-215h330v-82h-330zM11 569l-11 186h82l-10 -186h-61z" />
    <glyph glyph-name="u0389" unicode="&#x389;" horiz-adv-x="785" 
d="M143 0v708h98v-297h358v297h97v-708h-97v325h-358v-325h-98zM11 569l-11 186h82l-10 -186h-61z" />
    <glyph glyph-name="u038A" unicode="&#x38a;" horiz-adv-x="337" 
d="M248 708v-708h-98v708h98zM11 569l-11 186h82l-10 -186h-61z" />
    <glyph glyph-name="u038C" unicode="&#x38c;" horiz-adv-x="891" 
d="M736 355q0 119 -75 202t-195 83t-195 -83t-75 -202q0 -121 74.5 -203.5t195.5 -82.5t195.5 82.5t74.5 203.5zM839 355q0 -163 -106 -268t-267 -105t-267 105t-106 268t106 267t267 104t267 -104t106 -267zM11 569l-11 186h82l-10 -186h-61z" />
    <glyph glyph-name="u038E" unicode="&#x38e;" horiz-adv-x="754" 
d="M492 304v-304h-97v304l-265 404h120l197 -322l199 322h113zM11 569l-11 186h82l-10 -186h-61z" />
    <glyph glyph-name="u038F" unicode="&#x38f;" horiz-adv-x="835" 
d="M779 0h-277v192q90 17 139.5 73.5t49.5 143.5q0 108 -66 167.5t-174 59.5t-175 -60t-67 -167q0 -90 52 -147.5t140 -69.5v-192h-278v81h196v58q-95 21 -154 95t-59 178q0 142 100 226t247 84q145 0 243 -84.5t98 -224.5q0 -99 -62 -177.5t-151 -96.5v-58h198v-81zM11 552
l-11 186h82l-10 -186h-61z" />
    <glyph glyph-name="u0390" unicode="&#x390;" horiz-adv-x="313" 
d="M202 476v-476h-92v476h92zM131 542l-11 208h77l-10 -208h-56zM248 587q0 19 14.5 34t35.5 15q20 0 34.5 -15t14.5 -34t-14.5 -34.5t-34.5 -15.5q-21 0 -35.5 15.5t-14.5 34.5zM-31 587q0 19 14.5 34t35.5 15t35.5 -15t14.5 -34t-14.5 -34.5t-35.5 -15.5t-35.5 15.5
t-14.5 34.5z" />
    <glyph glyph-name="u0391" unicode="&#x391;" horiz-adv-x="707" 
d="M353 600l-140 -342h278zM181 174l-71 -174h-106l304 708h94l302 -708h-109l-72 174h-342z" />
    <glyph glyph-name="u0392" unicode="&#x392;" horiz-adv-x="643" 
d="M184 329v-248h125q76 0 126 30.5t50 94.5q0 123 -167 123h-134zM184 627v-222h132q58 0 97.5 27t39.5 85q0 56 -42 83t-112 27h-115zM89 0v708h229q44 0 82.5 -9t73 -28.5t55 -56.5t20.5 -87q0 -57 -33 -98t-90 -55v-2q70 -9 113.5 -54.5t43.5 -118.5q0 -94 -73 -146.5
t-193 -52.5h-228z" />
    <glyph glyph-name="u0393" unicode="&#x393;" horiz-adv-x="512" 
d="M186 622v-622h-97v708h413v-86h-316z" />
    <glyph glyph-name="u0394" unicode="&#x394;" horiz-adv-x="710" 
d="M565 83l-214 521l-213 -521h427zM674 0h-639v76l269 632h98l272 -631v-77z" />
    <glyph glyph-name="u0395" unicode="&#x395;" horiz-adv-x="596" 
d="M184 326v-241h367v-85h-462v708h448v-85h-353v-215h331v-82h-331z" />
    <glyph glyph-name="u0396" unicode="&#x396;" horiz-adv-x="588" 
d="M549 708v-80l-396 -542h402v-86h-522v83l394 540h-384v85h506z" />
    <glyph glyph-name="u0397" unicode="&#x397;" horiz-adv-x="730" 
d="M89 0v708h97v-297h358v297h97v-708h-97v325h-358v-325h-97z" />
    <glyph glyph-name="u0398" unicode="&#x398;" horiz-adv-x="850" 
d="M695 355q0 119 -75 202t-195 83t-195 -83t-75 -202q0 -121 74.5 -203.5t195.5 -82.5t195.5 82.5t74.5 203.5zM798 355q0 -163 -106 -268t-267 -105t-267 105t-106 268t106 267t267 104t267 -104t106 -267zM197 399h455v-79h-455v79z" />
    <glyph glyph-name="u0399" unicode="&#x399;" horiz-adv-x="275" 
d="M186 708v-708h-97v708h97z" />
    <glyph glyph-name="u039A" unicode="&#x39a;" horiz-adv-x="649" 
d="M185 708v-310h2l315 310h132l-344 -322l363 -386h-136l-331 364h-1v-364h-96v708h96z" />
    <glyph glyph-name="u039B" unicode="&#x39b;" horiz-adv-x="707" 
d="M353 581l-240 -581h-106l298 708h97l298 -708h-107z" />
    <glyph glyph-name="u039C" unicode="&#x39c;" horiz-adv-x="904" 
d="M233 708l219 -552h2l216 552h145v-708h-96l1 586h-3l-237 -586h-59l-236 586h-3l1 -586h-94v708h144z" />
    <glyph glyph-name="u039D" unicode="&#x39d;" horiz-adv-x="771" 
d="M206 708l379 -567h2l-1 567h96v-708h-117l-379 572h-2l1 -572h-96v708h117z" />
    <glyph glyph-name="u039E" unicode="&#x39e;" horiz-adv-x="590" 
d="M45 86h499v-86h-499v86zM73 407h431v-82h-431v82zM45 708h490v-86h-490v86z" />
    <glyph glyph-name="u039F" unicode="&#x39f;" horiz-adv-x="850" 
d="M695 355q0 119 -75 202t-195 83t-195 -83t-75 -202q0 -121 74.5 -203.5t195.5 -82.5t195.5 82.5t74.5 203.5zM798 355q0 -163 -106 -268t-267 -105t-267 105t-106 268t106 267t267 104t267 -104t106 -267z" />
    <glyph glyph-name="u03A0" unicode="&#x3a0;" horiz-adv-x="710" 
d="M89 708h533v-708h-97v622h-339v-622h-97v708z" />
    <glyph glyph-name="u03A1" unicode="&#x3a1;" horiz-adv-x="595" 
d="M186 627v-234h109q77 0 118.5 29.5t41.5 88.5q0 116 -159 116h-110zM89 0v708h215q116 0 182.5 -48.5t66.5 -147.5q0 -98 -69 -148.5t-183 -50.5h-115v-313h-97z" />
    <glyph glyph-name="u03A3" unicode="&#x3a3;" horiz-adv-x="607" 
d="M562 0h-506v64l298 290v6l-298 283v65h496v-83h-357l287 -265v-8l-277 -269h357v-83z" />
    <glyph glyph-name="u03A4" unicode="&#x3a4;" horiz-adv-x="573" 
d="M335 623v-623h-97v623h-228v85h553v-85h-228z" />
    <glyph glyph-name="u03A5" unicode="&#x3a5;" horiz-adv-x="619" 
d="M357 304v-304h-97v304l-265 404h120l197 -322l199 322h113z" />
    <glyph glyph-name="u03A6" unicode="&#x3a6;" horiz-adv-x="867" 
d="M716 354q0 96 -63 163t-171 79v-484q108 12 171 79t63 163zM151 354q0 -97 63 -164t173 -79v485q-110 -12 -173 -79t-63 -163zM482 757v-74q149 -12 243 -101.5t94 -227.5t-94 -228t-243 -102v-80h-95v80q-150 12 -245 102t-95 228t95 227.5t245 101.5v74h95z" />
    <glyph glyph-name="u03A7" unicode="&#x3a7;" horiz-adv-x="663" 
d="M154 708l178 -269l177 269h115l-232 -336l259 -372h-121l-201 301l-198 -301h-119l257 373l-235 335h120z" />
    <glyph glyph-name="u03A8" unicode="&#x3a8;" horiz-adv-x="857" 
d="M477 708v-477h22q80 0 132 46.5t52 135.5v295h97v-306q0 -123 -80 -189.5t-203 -66.5h-20v-146h-97v146h-28q-121 0 -198 66.5t-77 189.5v306h97v-295q0 -89 51 -135.5t132 -46.5h23v477h97z" />
    <glyph glyph-name="u03A9" unicode="&#x3a9;" horiz-adv-x="769" 
d="M714 0h-277v192q89 17 139 73.5t50 143.5q0 108 -66.5 167.5t-174.5 59.5q-107 0 -174 -60t-67 -167q0 -91 51.5 -147.5t140.5 -69.5v-192h-278v81h195v58q-94 20 -153.5 94.5t-59.5 178.5q0 142 100 226t247 84q145 0 243.5 -84.5t98.5 -224.5q0 -99 -62 -177.5
t-152 -96.5v-58h199v-81z" />
    <glyph glyph-name="u03AA" unicode="&#x3aa;" horiz-adv-x="275" 
d="M178 848q0 24 16.5 41t42.5 17t42.5 -17t16.5 -41t-16.5 -41.5t-42.5 -17.5t-42.5 17.5t-16.5 41.5zM-21 848q0 24 16.5 41t42.5 17t43 -17t17 -41t-17 -41.5t-43 -17.5t-42.5 17.5t-16.5 41.5zM186 708v-708h-97v708h97z" />
    <glyph glyph-name="u03AB" unicode="&#x3ab;" horiz-adv-x="619" 
d="M352 848q0 24 16.5 41t42.5 17t42.5 -17t16.5 -41t-16.5 -41.5t-42.5 -17.5t-42.5 17.5t-16.5 41.5zM153 848q0 24 17 41t43 17t42.5 -17t16.5 -41t-16.5 -41.5t-42.5 -17.5t-43 17.5t-17 41.5zM357 304v-304h-97v304l-265 404h120l197 -322l199 322h113z" />
    <glyph glyph-name="u03AC" unicode="&#x3ac;" horiz-adv-x="634" 
d="M143 238q0 -73 43.5 -123t118.5 -50q72 0 118.5 50t46.5 123t-46.5 123t-118.5 50q-75 0 -118.5 -50t-43.5 -123zM466 75h-2q-29 -41 -75.5 -64.5t-98.5 -23.5q-108 0 -174.5 72.5t-66.5 178.5q0 107 66.5 178.5t174.5 71.5q52 0 97.5 -22.5t72.5 -63.5h2v74h93v-476h-89
v75zM299 559l-11 186h83l-10 -186h-62z" />
    <glyph glyph-name="u03AD" unicode="&#x3ad;" horiz-adv-x="506" 
d="M466 401l-61 -47q-12 16 -30 30q-43 31 -105 31q-50 0 -87.5 -18.5t-37.5 -52.5q0 -35 38 -52.5t98 -17.5h95v-70h-82q-85 0 -123.5 -16t-38.5 -54q0 -34 39.5 -51.5t94.5 -17.5q73 0 127 30q24 15 38 31l51 -54q-85 -85 -223 -85q-95 0 -159 37.5t-64 99.5q0 30 12.5 53
t32.5 36t39 20t39 9v2q-41 7 -74 35t-33 73q0 62 62.5 100.5t153.5 38.5q21 0 40 -2.5t34.5 -6t29.5 -9t24.5 -11t20.5 -12.5t16.5 -12.5t13 -12.5t9.5 -10.5t6 -8.5zM211 745h82l-10 -186h-61z" />
    <glyph glyph-name="u03AE" unicode="&#x3ae;" horiz-adv-x="603" 
d="M80 476h89q3 -25 3 -78h2q20 39 66 64.5t97 25.5q89 0 136.5 -54t47.5 -142v-532h-92v502q0 71 -26.5 110t-92.5 39q-59 0 -96.5 -42.5t-37.5 -120.5v-248h-93v363q0 77 -3 113zM272 559l-11 186h82l-10 -186h-61z" />
    <glyph glyph-name="u03AF" unicode="&#x3af;" horiz-adv-x="247" 
d="M91 576l-11 186h82l-10 -186h-61zM167 476v-476h-93v476h93z" />
    <glyph glyph-name="u03B0" unicode="&#x3b0;" horiz-adv-x="589" 
d="M269 542l-11 208h77l-10 -208h-56zM386 587q0 19 14.5 34t35.5 15q20 0 34.5 -15t14.5 -34t-14.5 -34.5t-34.5 -15.5q-21 0 -35.5 15.5t-14.5 34.5zM107 587q0 19 14.5 34t35.5 15t35.5 -15t14.5 -34t-14.5 -34.5t-35.5 -15.5t-35.5 15.5t-14.5 34.5zM293 -12
q-109 0 -161.5 61t-52.5 150v277h93v-264q0 -62 29 -103.5t93 -41.5t94 41.5t30 103.5v264h92v-277q0 -89 -54 -150t-163 -61z" />
    <glyph glyph-name="u03B1" unicode="&#x3b1;" horiz-adv-x="634" 
d="M143 238q0 -73 43.5 -123t118.5 -50q72 0 118.5 50t46.5 123t-46.5 123t-118.5 50q-75 0 -118.5 -50t-43.5 -123zM466 75h-2q-29 -41 -75.5 -64.5t-98.5 -23.5q-108 0 -174.5 72.5t-66.5 178.5q0 107 66.5 178.5t174.5 71.5q52 0 97.5 -22.5t72.5 -63.5h2v74h93v-476h-89
v75z" />
    <glyph glyph-name="u03B2" unicode="&#x3b2;" horiz-adv-x="638" 
d="M178 85v-325h-93v776q0 105 60 164t153 59q89 0 151.5 -51.5t62.5 -138.5q0 -66 -36 -112t-82 -52v-3q26 0 57 -11.5t61.5 -33t50.5 -61t20 -88.5q0 -96 -67.5 -157.5t-164.5 -61.5q-81 0 -135 48q-25 22 -38 48zM178 526v-292q0 -79 43.5 -122.5t112.5 -43.5
q65 0 108.5 38.5t43.5 106.5q0 69 -46 108t-125 39h-62v75h52q50 0 82.5 31.5t32.5 86.5q0 58 -35 93t-88 35q-54 0 -86.5 -38.5t-32.5 -116.5z" />
    <glyph glyph-name="u03B3" unicode="&#x3b3;" horiz-adv-x="552" 
d="M327 40v-280h-93v280l-224 436h108l164 -351l157 351h102z" />
    <glyph glyph-name="u03B4" unicode="&#x3b4;" horiz-adv-x="615" 
d="M469 236q0 74 -44 121.5t-118 47.5t-117.5 -47.5t-43.5 -121.5q0 -75 43.5 -122.5t117.5 -47.5t118 48t44 122zM85 624q0 61 67 97t178 36q86 0 151 -20q30 -8 56 -20l-25 -81q-25 11 -53 20q-64 20 -137 20q-58 0 -95.5 -14t-37.5 -43q0 -24 27 -41t102 -45
q35 -13 66 -29t65 -42.5t58 -57t40 -74.5t16 -94q0 -107 -71 -178t-185 -71q-111 0 -183 70.5t-72 178.5q0 101 66 166t158 69q7 1 20 1l3 4q-13 3 -17 5q-31 9 -74 27q-69 27 -93 49q-30 29 -30 67z" />
    <glyph glyph-name="u03B5" unicode="&#x3b5;" horiz-adv-x="506" 
d="M466 401l-61 -47q-12 16 -30 30q-43 31 -105 31q-50 0 -87.5 -18.5t-37.5 -52.5q0 -35 38 -52.5t98 -17.5h95v-70h-82q-85 0 -123.5 -16t-38.5 -54q0 -34 39.5 -51.5t94.5 -17.5q73 0 127 30q24 15 38 31l51 -54q-85 -85 -223 -85q-95 0 -159 37.5t-64 99.5q0 30 12.5 53
t32.5 36t39 20t39 9v2q-41 7 -74 35t-33 73q0 62 62.5 100.5t153.5 38.5q21 0 40 -2.5t34.5 -6t29.5 -9t24.5 -11t20.5 -12.5t16.5 -12.5t13 -12.5t9.5 -10.5t6 -8.5z" />
    <glyph glyph-name="u03B6" unicode="&#x3b6;" horiz-adv-x="516" 
d="M292 1q-241 49 -241 262q0 60 19.5 116t47.5 97.5t70.5 82t78 66.5t79.5 54h-266v76h407v-68q-84 -55 -139.5 -98t-105 -95t-73 -108.5t-23.5 -119.5q0 -84 53 -129t167 -72q131 -30 131 -138q0 -37 -18.5 -69t-47 -52.5t-54.5 -33.5t-49 -19l-60 57q54 15 94.5 41.5
t40.5 64.5q0 40 -28 57t-83 28z" />
    <glyph glyph-name="u03B7" unicode="&#x3b7;" horiz-adv-x="600" 
d="M80 476h89q3 -25 3 -78h2q20 39 66 64.5t97 25.5q89 0 136.5 -54t47.5 -142v-532h-92v502q0 71 -26.5 110t-92.5 39q-59 0 -96.5 -42.5t-37.5 -120.5v-248h-93v363q0 77 -3 113z" />
    <glyph glyph-name="u03B8" unicode="&#x3b8;" horiz-adv-x="619" 
d="M473 331l-319 1q4 -126 42.5 -199.5t116.5 -73.5q54 0 90 38t51.5 96.5t18.5 137.5zM313 686q-78 0 -116.5 -74.5t-42.5 -200.5h319q-3 81 -18.5 140t-51.5 97t-90 38zM313 761q128 0 191 -106.5t63 -283.5q0 -115 -25 -199.5t-83 -136.5t-146 -52q-129 0 -190.5 105.5
t-61.5 282.5t62.5 283.5t189.5 106.5z" />
    <glyph glyph-name="u03B9" unicode="&#x3b9;" horiz-adv-x="241" 
d="M167 476v-476h-93v476h93z" />
    <glyph glyph-name="u03BA" unicode="&#x3ba;" horiz-adv-x="551" 
d="M173 476v-209h3l202 209h121l-225 -217l245 -259h-124l-219 244h-3v-244h-92v476h92z" />
    <glyph glyph-name="u03BB" unicode="&#x3bb;" horiz-adv-x="536" 
d="M274 401l-150 -401h-99l202 504l-22 59q-14 37 -18.5 47.5t-17 29t-28 23.5t-39.5 5q-33 0 -63 -16l-16 75q56 21 97 21q24 0 43.5 -4t33.5 -9t27 -18.5t20 -21t17.5 -30t14.5 -32.5l16 -40l233 -593h-99l-150 401h-2z" />
    <glyph glyph-name="u03BC" unicode="&#x3bc;" horiz-adv-x="600" 
d="M80 -240v716h93v-254q0 -84 26.5 -119t92.5 -35q59 0 94.5 43.5t35.5 124.5v240h92v-373q0 -45 5 -103h-95l-2 73h-2q-48 -85 -130 -85q-92 0 -116 80h-2v-308h-92z" />
    <glyph glyph-name="u03BD" unicode="&#x3bd;" horiz-adv-x="508" 
d="M497 476l-192 -476h-101l-192 476h103l139 -378h3l140 378h100z" />
    <glyph glyph-name="u03BE" unicode="&#x3be;" horiz-adv-x="511" 
d="M51 182q0 83 60 128.5t146 56.5q-193 25 -193 160q0 66 42.5 100.5t118.5 50.5v3h-161v73h387v-65q-77 -8 -125.5 -17t-88.5 -26.5t-58 -44.5t-18 -67q0 -61 51 -91.5t136 -30.5h94v-90h-124q-73 0 -121 -33t-48 -89q0 -62 46 -88t168 -51q128 -26 128 -133
q0 -47 -33.5 -86.5t-69.5 -58.5t-69 -27l-63 52q49 10 93 38t44 66t-29 58.5t-92 30.5q-46 7 -81 17.5t-69 30.5t-52.5 53.5t-18.5 79.5z" />
    <glyph glyph-name="u03BF" unicode="&#x3bf;" horiz-adv-x="617" 
d="M471 238q0 74 -45 123.5t-118 49.5q-74 0 -118 -49.5t-44 -123.5q0 -72 44.5 -122.5t117.5 -50.5t118 50.5t45 122.5zM565 238q0 -110 -73 -180.5t-184 -70.5q-110 0 -183 70.5t-73 180.5t73 180.5t183 70.5q111 0 184 -70.5t73 -180.5z" />
    <glyph glyph-name="u03C0" unicode="&#x3c0;" horiz-adv-x="581" 
d="M173 401v-401h-93v476h421v-476h-93v401h-235z" />
    <glyph glyph-name="u03C1" unicode="&#x3c1;" horiz-adv-x="640" 
d="M495 238q0 76 -43 124.5t-119 48.5q-72 0 -117 -49.5t-45 -123.5q0 -77 45.5 -125t116.5 -48q76 0 119 49t43 124zM174 63v-303h-91v474q0 118 73.5 186.5t181.5 68.5q110 0 180 -71.5t70 -180.5t-70 -179.5t-180 -70.5q-49 0 -92 20.5t-69 55.5h-3z" />
    <glyph glyph-name="u03C2" unicode="&#x3c2;" horiz-adv-x="516" 
d="M325 71q148 -30 148 -144q0 -37 -18.5 -69t-47 -52.5t-54.5 -33.5t-49 -19l-60 57q54 15 94.5 41.5t40.5 64.5q0 22 -8 37t-25 23.5t-28.5 12t-32.5 7.5q-29 6 -49 11t-58.5 23t-62.5 41.5t-43.5 67t-19.5 98.5q0 114 72 183t180 69q125 0 186 -81l-63 -56
q-37 59 -121 59q-71 0 -115.5 -46t-44.5 -125q0 -44 14 -75t43 -49.5t55 -27t67 -17.5z" />
    <glyph glyph-name="u03C3" unicode="&#x3c3;" horiz-adv-x="641" 
d="M469 238q0 74 -45 123.5t-118 49.5t-118 -49.5t-45 -123.5t45 -123.5t118 -49.5t118 49.5t45 123.5zM633 400h-131v-3q59 -61 59 -161q0 -107 -72 -178t-183 -71t-182.5 71.5t-71.5 179.5t71.5 179.5t182.5 71.5q33 0 81 -6t91 -6h155v-77z" />
    <glyph glyph-name="u03C4" unicode="&#x3c4;" horiz-adv-x="477" 
d="M8 401v75h461v-75h-185v-401h-92v401h-184z" />
    <glyph glyph-name="u03C5" unicode="&#x3c5;" horiz-adv-x="589" 
d="M293 -12q-109 0 -161.5 61t-52.5 150v277h93v-264q0 -62 29 -103.5t93 -41.5t93.5 41.5t29.5 103.5v264h93v-277q0 -89 -54.5 -150t-162.5 -61z" />
    <glyph glyph-name="u03C6" unicode="&#x3c6;" horiz-adv-x="813" 
d="M52 245q0 96 58 156t138 83l37 -68q-57 -17 -98 -59.5t-41 -109.5q0 -89 59.5 -134t162.5 -47v414h128q112 0 188.5 -64.5t76.5 -169.5q0 -62 -26.5 -112.5t-70 -81.5t-97 -47.5t-111.5 -16.5v-228h-88v228q-140 2 -228 67.5t-88 189.5zM667 247q0 37 -12.5 65.5t-31 45
t-43.5 27.5t-47 14.5t-43 3.5h-34v-337q94 0 152.5 47t58.5 134z" />
    <glyph glyph-name="u03C7" unicode="&#x3c7;" horiz-adv-x="561" 
d="M33 476h100l149 -270l148 270h98l-192 -339l212 -376h-101l-167 307l-166 -307h-100l211 377z" />
    <glyph glyph-name="u03C8" unicode="&#x3c8;" horiz-adv-x="804" 
d="M449 476v-410q91 3 143 54.5t52 150.5v205h93v-222q0 -127 -80.5 -198t-207.5 -71v-225h-93v225q-127 0 -208 71t-81 198v222h93v-205q0 -99 52 -150.5t144 -54.5v410h93z" />
    <glyph glyph-name="u03C9" unicode="&#x3c9;" horiz-adv-x="809" 
d="M247 483l48 -62q-82 -27 -120 -72t-38 -123q0 -71 29 -114.5t81 -43.5q50 0 80.5 41t30.5 117v86h93v-86q0 -76 30.5 -116.5t80.5 -40.5q53 0 81.5 43t28.5 114q0 78 -38 123t-120 72l48 62q87 -25 145 -90t58 -175q0 -101 -53.5 -164t-144.5 -63q-67 0 -109.5 37.5
t-50.5 105.5h-4q-10 -70 -52.5 -107.5t-108.5 -37.5q-92 0 -145 63t-53 166q0 207 203 265z" />
    <glyph glyph-name="u03CA" unicode="&#x3ca;" horiz-adv-x="262" 
d="M172 650q0 24 16.5 41t42.5 17t43 -17t17 -41t-17 -41.5t-43 -17.5t-42.5 17.5t-16.5 41.5zM-26 650q0 24 16.5 41t42.5 17t42.5 -17t16.5 -41t-16.5 -41.5t-42.5 -17.5t-42.5 17.5t-16.5 41.5zM177 476v-476h-92v476h92z" />
    <glyph glyph-name="u03CB" unicode="&#x3cb;" horiz-adv-x="589" 
d="M307 -12q-109 0 -161.5 61t-52.5 150v277h92v-264q0 -62 29.5 -103.5t93.5 -41.5q63 0 93 41.5t30 103.5v264h93v-277q0 -89 -54.5 -150t-162.5 -61zM345 650q0 24 16.5 41t42.5 17t42.5 -17t16.5 -41t-16.5 -41.5t-42.5 -17.5t-42.5 17.5t-16.5 41.5zM146 650
q0 24 16.5 41t42.5 17t43 -17t17 -41t-17 -41.5t-43 -17.5t-42.5 17.5t-16.5 41.5z" />
    <glyph glyph-name="u03CC" unicode="&#x3cc;" horiz-adv-x="617" 
d="M279 547l-11 185h82l-10 -185h-61zM471 238q0 74 -45 123.5t-118 49.5q-74 0 -118 -49.5t-44 -123.5q0 -72 44.5 -122.5t117.5 -50.5t118 50.5t45 122.5zM565 238q0 -110 -73 -180.5t-184 -70.5q-110 0 -183 70.5t-73 180.5t73 180.5t183 70.5q111 0 184 -70.5t73 -180.5
z" />
    <glyph glyph-name="u03CD" unicode="&#x3cd;" horiz-adv-x="589" 
d="M293 -12q-109 0 -161.5 61t-52.5 150v277h93v-264q0 -62 29 -103.5t93 -41.5t94 41.5t30 103.5v264h92v-277q0 -89 -54 -150t-163 -61zM265 539l-11 186h83l-10 -186h-62z" />
    <glyph glyph-name="u03CE" unicode="&#x3ce;" horiz-adv-x="809" 
d="M247 483l48 -62q-82 -27 -120 -72t-38 -123q0 -71 29 -114.5t81 -43.5q50 0 80.5 41t30.5 117v86h93v-86q0 -76 30.5 -116.5t80.5 -40.5q53 0 81.5 43t28.5 114q0 78 -38 123t-120 72l48 62q87 -25 145 -90t58 -175q0 -101 -53.5 -164t-144.5 -63q-67 0 -109.5 37.5
t-50.5 105.5h-4q-10 -70 -52.5 -107.5t-108.5 -37.5q-92 0 -145 63t-53 166q0 207 203 265zM361 725h82l-10 -186h-61z" />
    <glyph glyph-name="u0401" unicode="&#x401;" horiz-adv-x="596" 
d="M356 848q0 24 16.5 41t42.5 17t42.5 -17t16.5 -41t-16.5 -41.5t-42.5 -17.5t-42.5 17.5t-16.5 41.5zM157 848q0 24 16.5 41t42.5 17t43 -17t17 -41t-17 -41.5t-43 -17.5t-42.5 17.5t-16.5 41.5zM184 326v-241h367v-85h-462v708h448v-85h-353v-215h331v-82h-331z" />
    <glyph glyph-name="u0402" unicode="&#x402;" horiz-adv-x="727" 
d="M204 622h-194v86h535v-86h-244v-165h123q125 0 190 -63t65 -166q0 -101 -66 -167t-186 -62l-34 1v86h49q56 0 97 37.5t41 102.5q0 68 -39.5 106t-118.5 38h-121v-370h-97v622z" />
    <glyph glyph-name="u0403" unicode="&#x403;" horiz-adv-x="526" 
d="M186 622v-622h-97v708h413v-86h-316zM341 908h110l-136 -144h-75z" />
    <glyph glyph-name="u0404" unicode="&#x404;" horiz-adv-x="725" 
d="M622 166l70 -54q-38 -58 -107.5 -94t-159.5 -36q-164 0 -268.5 105t-104.5 267q0 161 106 266.5t267 105.5q83 0 150 -28.5t105 -81.5l-72 -64q-25 38 -72.5 63t-109.5 25q-107 0 -179 -66.5t-87 -170.5h398v-81h-400q10 -110 84 -181.5t184 -71.5q128 0 196 97z" />
    <glyph glyph-name="u0405" unicode="&#x405;" horiz-adv-x="571" 
d="M510 640l-70 -64q-50 69 -141 69q-54 0 -96 -30.5t-42 -87.5q0 -28 10 -48.5t34 -35t42.5 -21.5t55.5 -19l43.5 -14.5t41 -16t41.5 -21t33.5 -26t29 -34t17 -42.5t7.5 -55q0 -103 -71.5 -157.5t-169.5 -54.5q-70 0 -131.5 27t-102.5 77l75 64q25 -39 67 -62.5t93 -23.5
q56 0 98.5 32t42.5 90q0 21 -5 38t-18.5 30.5t-24 22t-35.5 19t-37.5 14.5t-45.5 15q-41 13 -69.5 26t-58 35.5t-45 57t-15.5 80.5q0 51 21.5 91t56.5 63.5t76 35.5t85 12q66 0 121 -24t87 -62z" />
    <glyph glyph-name="u0406" unicode="&#x406;" horiz-adv-x="275" 
d="M186 708v-708h-97v708h97z" />
    <glyph glyph-name="u0407" unicode="&#x407;" horiz-adv-x="280" 
d="M182 848q0 24 16.5 41t42.5 17t42.5 -17t16.5 -41t-16.5 -41.5t-42.5 -17.5t-42.5 17.5t-16.5 41.5zM-17 848q0 24 16.5 41t42.5 17t43 -17t17 -41t-17 -41.5t-43 -17.5t-42.5 17.5t-16.5 41.5zM190 708v-708h-97v708h97z" />
    <glyph glyph-name="u0408" unicode="&#x408;" horiz-adv-x="501" 
d="M18 131l88 27q9 -40 36 -65t68 -25q111 0 111 149v491h97v-494q0 -41 -8.5 -78t-29 -73.5t-62 -58.5t-100.5 -22q-79 0 -132 41t-68 108z" />
    <glyph glyph-name="u0409" unicode="&#x409;" horiz-adv-x="955" 
d="M641 329h-91l100 -247q80 0 128 28.5t48 89.5q0 129 -185 129zM347 592l-230 -592h-102l286 708h95l121 -296h128q132 0 205.5 -53.5t73.5 -161.5q0 -88 -72 -142.5t-199 -54.5h-77z" />
    <glyph glyph-name="u040A" unicode="&#x40a;" horiz-adv-x="1004" 
d="M699 330h-106v-245h106q77 0 118.5 31.5t41.5 91.5q0 122 -160 122zM89 708h97v-294h310v294h97v-294h113q113 0 181.5 -54.5t68.5 -156.5q0 -97 -68.5 -150t-181.5 -53h-210v328h-310v-328h-97v708z" />
    <glyph glyph-name="u040B" unicode="&#x40b;" horiz-adv-x="731" 
d="M424 369h-123v-369h-97v622h-194v86h535v-86h-244v-167h148q113 0 168 -64.5t55 -176.5v-214h-97v176q0 99 -32 146t-119 47z" />
    <glyph glyph-name="u040C" unicode="&#x40c;" horiz-adv-x="697" 
d="M506 908l-136 -144h-75l101 144h110zM186 0h-97v708h97v-290q43 0 91 -5l256 295h106l-263 -318q116 -39 182 -134.5t93 -255.5h-107q-30 178 -113.5 257t-244.5 75v-332z" />
    <glyph glyph-name="u040E" unicode="&#x40e;" horiz-adv-x="649" 
d="M145 880l60 30q15 -36 47.5 -58.5t74.5 -22.5q44 0 75.5 22t46.5 59l60 -30q-17 -49 -65.5 -81.5t-116.5 -32.5q-67 0 -115 32.5t-67 81.5zM127 708h-108l265 -547q-25 -47 -48.5 -69t-54.5 -22q-40 0 -73 24l-51 -76q45 -32 113 -32q76 0 124.5 42.5t87.5 125.5l263 554
h-108l-201 -436z" />
    <glyph glyph-name="u040F" unicode="&#x40f;" horiz-adv-x="713" 
d="M186 86h341v622h97v-708h-215v-139h-89v139h-231v708h97v-622z" />
    <glyph glyph-name="u0410" unicode="&#x410;" horiz-adv-x="707" 
d="M353 600l-140 -342h278zM181 174l-71 -174h-106l304 708h94l302 -708h-109l-72 174h-342z" />
    <glyph glyph-name="u0411" unicode="&#x411;" horiz-adv-x="625" 
d="M315 0h-226v708h428v-86h-331v-209h132q113 0 180.5 -53t67.5 -152q0 -100 -69.5 -154t-181.5 -54zM186 86h123q75 0 118.5 32.5t43.5 89.5q0 59 -43 89t-118 30h-124v-241z" />
    <glyph glyph-name="u0412" unicode="&#x412;" horiz-adv-x="643" 
d="M184 329v-248h125q76 0 126 30.5t50 94.5q0 123 -167 123h-134zM184 627v-222h132q58 0 97.5 27t39.5 85q0 56 -42 83t-112 27h-115zM89 0v708h229q44 0 82.5 -9t73 -28.5t55 -56.5t20.5 -87q0 -57 -33 -98t-90 -55v-2q70 -9 113.5 -54.5t43.5 -118.5q0 -94 -73 -146.5
t-193 -52.5h-228z" />
    <glyph glyph-name="u0413" unicode="&#x413;" horiz-adv-x="524" 
d="M186 622v-622h-97v708h413v-86h-316z" />
    <glyph glyph-name="u0414" unicode="&#x414;" horiz-adv-x="753" 
d="M374 599l-180 -513h361zM664 0h-576v-139h-89v225h96l235 622h94l232 -622h98v-225h-90v139z" />
    <glyph glyph-name="u0415" unicode="&#x415;" horiz-adv-x="596" 
d="M184 326v-241h367v-85h-462v708h448v-85h-353v-215h331v-82h-331z" />
    <glyph glyph-name="u0416" unicode="&#x416;" horiz-adv-x="988" 
d="M445 0v331q-251 6 -292 -331h-107q33 296 221 380l-220 328h107l203 -299q46 8 88 8v291h97v-291q44 0 89 -8l203 299h106l-221 -328q189 -86 222 -380h-106q-20 169 -93.5 251.5t-199.5 79.5v-331h-97z" />
    <glyph glyph-name="u0417" unicode="&#x417;" horiz-adv-x="622" 
d="M209 331v76h51q74 0 120 30t46 89q0 56 -37 87t-99 31q-96 0 -135 -91l-80 44q63 129 223 129q102 0 165.5 -50.5t63.5 -141.5q0 -60 -43 -103.5t-99 -56.5v-2q43 -5 80.5 -21t67 -56t29.5 -97q0 -98 -75.5 -157t-189.5 -59q-179 0 -247 158l85 40q23 -57 62.5 -86.5
t105.5 -29.5q76 0 118.5 36.5t42.5 97.5q0 133 -207 133h-48z" />
    <glyph glyph-name="u0418" unicode="&#x418;" horiz-adv-x="775" 
d="M186 139h2l382 569h116v-708h-97v572h-2l-382 -572h-116v708h97v-569z" />
    <glyph glyph-name="u0419" unicode="&#x419;" horiz-adv-x="774" 
d="M188 141l379 567h119v-708h-97v572h-2l-380 -572h-118v708h97q0 -96 -0.5 -284t-0.5 -283h3zM205 880l60 30q15 -36 47.5 -58.5t74.5 -22.5q44 0 75.5 22t46.5 59l60 -30q-17 -49 -65.5 -81.5t-116.5 -32.5q-67 0 -115 32.5t-67 81.5z" />
    <glyph glyph-name="u041A" unicode="&#x41a;" horiz-adv-x="697" 
d="M186 0h-97v708h97v-290q43 0 91 -5l256 295h106l-263 -318q116 -39 182 -134.5t93 -255.5h-107q-30 178 -113.5 257t-244.5 75v-332z" />
    <glyph glyph-name="u041B" unicode="&#x41b;" horiz-adv-x="686" 
d="M349 581l-240 -581h-105l298 708h97l298 -708h-107z" />
    <glyph glyph-name="u041C" unicode="&#x41c;" horiz-adv-x="904" 
d="M233 708l219 -552h2l216 552h145v-708h-96l1 586h-3l-237 -586h-59l-236 586h-3l1 -586h-94v708h144z" />
    <glyph glyph-name="u041D" unicode="&#x41d;" horiz-adv-x="730" 
d="M89 0v708h97v-297h358v297h97v-708h-97v325h-358v-325h-97z" />
    <glyph glyph-name="u041E" unicode="&#x41e;" horiz-adv-x="850" 
d="M695 355q0 119 -75 202t-195 83t-195 -83t-75 -202q0 -121 74.5 -203.5t195.5 -82.5t195.5 82.5t74.5 203.5zM798 355q0 -163 -106 -268t-267 -105t-267 105t-106 268t106 267t267 104t267 -104t106 -267z" />
    <glyph glyph-name="u041F" unicode="&#x41f;" horiz-adv-x="710" 
d="M89 708h533v-708h-97v622h-339v-622h-97v708z" />
    <glyph glyph-name="u0420" unicode="&#x420;" horiz-adv-x="595" 
d="M186 627v-234h109q77 0 118.5 29.5t41.5 88.5q0 116 -159 116h-110zM89 0v708h215q116 0 182.5 -48.5t66.5 -147.5q0 -98 -69 -148.5t-183 -50.5h-115v-313h-97z" />
    <glyph glyph-name="u0421" unicode="&#x421;" horiz-adv-x="714" 
d="M619 165l73 -55q-40 -57 -109.5 -92.5t-158.5 -35.5q-162 0 -267 105t-105 267t106.5 267t266.5 105q77 0 147 -29.5t108 -80.5l-74 -62q-25 36 -73 61t-106 25q-122 0 -196.5 -83t-74.5 -203t74.5 -202.5t195.5 -82.5q128 0 193 96z" />
    <glyph glyph-name="u0422" unicode="&#x422;" horiz-adv-x="573" 
d="M335 623v-623h-97v623h-228v85h553v-85h-228z" />
    <glyph glyph-name="u0423" unicode="&#x423;" horiz-adv-x="649" 
d="M19 708h108l209 -436l201 436h108l-263 -554q-39 -83 -87.5 -125.5t-124.5 -42.5q-68 0 -113 32l51 76q33 -24 73 -24q31 0 54.5 22t48.5 69z" />
    <glyph glyph-name="u0424" unicode="&#x424;" horiz-adv-x="867" 
d="M716 354q0 96 -63 163t-171 79v-484q108 12 171 79t63 163zM151 354q0 -97 63 -164t173 -79v485q-110 -12 -173 -79t-63 -163zM482 757v-74q149 -12 243 -101.5t94 -227.5t-94 -228t-243 -102v-80h-95v80q-150 12 -245 102t-95 228t95 227.5t245 101.5v74h95z" />
    <glyph glyph-name="u0425" unicode="&#x425;" horiz-adv-x="663" 
d="M154 708l178 -269l177 269h115l-232 -336l259 -372h-121l-201 301l-198 -301h-119l257 373l-235 335h120z" />
    <glyph glyph-name="u0426" unicode="&#x426;" horiz-adv-x="737" 
d="M619 0h-530v708h97v-622h341v622h97v-622h84v-225h-89v139z" />
    <glyph glyph-name="u0427" unicode="&#x427;" horiz-adv-x="636" 
d="M450 391v317h97v-708h-96v305h-163q-113 0 -169.5 63t-56.5 175v165h97v-129q0 -96 31 -142t112 -46h148z" />
    <glyph glyph-name="u0428" unicode="&#x428;" horiz-adv-x="994" 
d="M186 86h266v622h97v-622h259v622h97v-708h-816v708h97v-622z" />
    <glyph glyph-name="u0429" unicode="&#x429;" horiz-adv-x="1027" 
d="M909 0h-820v708h97v-622h266v622h97v-622h257v622h98v-622h94v-225h-89v139z" />
    <glyph glyph-name="u042A" unicode="&#x42a;" horiz-adv-x="698" 
d="M293 343v-259h102q77 0 117.5 36.5t40.5 95.5q0 58 -41 92.5t-117 34.5h-102zM10 708h283v-281h104q114 0 183.5 -55t69.5 -155t-80.5 -158.5t-206.5 -58.5h-167v622h-186v86z" />
    <glyph glyph-name="u042B" unicode="&#x42b;" horiz-adv-x="794" 
d="M609 708h97v-708h-97v708zM186 343v-259h102q80 0 118.5 31.5t38.5 99.5q0 59 -40.5 93.5t-116.5 34.5h-102zM89 708h97v-281h103q114 0 184 -58t70 -159q0 -100 -70.5 -155t-185.5 -55h-198v708z" />
    <glyph glyph-name="u042C" unicode="&#x42c;" horiz-adv-x="596" 
d="M294 343h-108v-259h108q76 0 116.5 36t40.5 95q0 60 -40 94t-117 34zM89 0v708h97v-281h109q114 0 184 -55.5t70 -154.5q0 -100 -71 -158.5t-185 -58.5h-204z" />
    <glyph glyph-name="u042D" unicode="&#x42d;" horiz-adv-x="726" 
d="M33 109l70 55q68 -95 208 -95q109 0 179 71t80 182h-402v81h400q-15 107 -84.5 172t-178.5 65q-73 0 -125 -30t-74 -69l-63 62q37 55 109 89t161 34q167 0 264 -103.5t97 -268.5q0 -163 -100.5 -267.5t-263.5 -104.5q-91 0 -165 35.5t-112 91.5z" />
    <glyph glyph-name="u042E" unicode="&#x42e;" horiz-adv-x="1106" 
d="M411 355q0 -121 74.5 -203.5t195.5 -82.5t195.5 82.5t74.5 203.5q0 119 -75 202t-195 83t-195 -83t-75 -202zM89 708h97v-310h124q12 143 116.5 235.5t254.5 92.5q161 0 267 -104t106 -267t-106 -268t-267 -105q-151 0 -255 93t-116 237h-124v-312h-97v708z" />
    <glyph glyph-name="u042F" unicode="&#x42f;" horiz-adv-x="653" 
d="M224 345v2q-74 12 -116.5 54t-42.5 111q-1 95 72.5 145.5t204.5 50.5h222v-708h-97v311h-76q-111 0 -174.5 -73t-78.5 -238h-106q8 125 60.5 217t131.5 128zM467 397v225h-116q-92 0 -137 -27t-45 -85q0 -54 46 -83.5t136 -29.5h116z" />
    <glyph glyph-name="u0430" unicode="&#x430;" horiz-adv-x="542" 
d="M378 230h-20q-218 0 -218 -93q0 -41 29.5 -60t70.5 -19q64 0 101 40.5t37 100.5v31zM377 293v14q0 53 -30 80.5t-86 27.5q-81 0 -135 -54l-50 56q72 72 194 72q87 0 139 -45.5t54 -132.5q1 -19 1 -54v-153q0 -62 6 -104h-84q-5 38 -5 70h-2q-56 -82 -163 -82
q-64 0 -115.5 36t-51.5 110q0 42 19 72t48 46.5t75 26t87.5 12t98.5 2.5z" />
    <glyph glyph-name="u0431" unicode="&#x431;" horiz-adv-x="606" 
d="M462 229q0 72 -42 118t-109 46q-68 0 -113.5 -41t-45.5 -116q0 -76 43.5 -123.5t115.5 -47.5q70 0 110.5 47t40.5 117zM318 470q105 0 171 -66t66 -175q0 -108 -71 -175t-176 -67q-106 0 -172.5 66t-72.5 181q-4 26 -2 66q8 210 88 308.5t250 98.5h142v-75h-144
q-119 0 -173.5 -59.5t-69.5 -177.5q56 75 164 75z" />
    <glyph glyph-name="u0432" unicode="&#x432;" horiz-adv-x="551" 
d="M313 0h-233v476h221q89 0 135 -34.5t46 -93.5q0 -26 -7.5 -44.5t-24.5 -30t-32.5 -18t-41.5 -13.5q57 -4 93 -32t36 -83q0 -58 -50 -92.5t-142 -34.5zM173 210v-140h81q28 0 41.5 0.5t35.5 2t32.5 6t22.5 12t17 20t5 29.5t-4.5 29t-16 19.5t-22.5 12t-32.5 6.5t-36.5 2.5
t-44 0.5h-79zM173 271h114q49 0 74.5 14.5t25.5 53.5q0 18 -7.5 31t-18.5 20t-31 10.5t-37.5 4.5t-45.5 1h-74v-135z" />
    <glyph glyph-name="u0433" unicode="&#x433;" horiz-adv-x="400" 
d="M173 401v-401h-93v476h306v-75h-213z" />
    <glyph glyph-name="u0434" unicode="&#x434;" horiz-adv-x="571" 
d="M291 368l-30 -61l-88 -231h224zM85 0v-139h-84v215h77l164 400h96l152 -400h80v-215h-84v139h-401z" />
    <glyph glyph-name="u0435" unicode="&#x435;" horiz-adv-x="578" 
d="M527 247q0 -22 -1 -34h-381q2 -63 47.5 -107t109.5 -44q47 0 83 21t57 53l67 -48q-75 -101 -207 -101q-108 0 -179 69.5t-71 180.5q0 110 69.5 181t174.5 71q108 0 169.5 -68t61.5 -174zM145 279h292q-2 62 -39 100t-102 38q-60 0 -103.5 -41.5t-47.5 -96.5z" />
    <glyph glyph-name="u0436" unicode="&#x436;" horiz-adv-x="836" 
d="M372 0v212q-92 -4 -146.5 -51t-79.5 -161h-102q25 103 69.5 164.5t117.5 91.5l-165 220h103l142 -194q28 4 61 6v188h92v-188q32 -2 60 -6l143 194h103l-166 -220q74 -30 118.5 -91.5t69.5 -164.5h-103q-25 114 -79 161t-146 51v-212h-92z" />
    <glyph glyph-name="u0437" unicode="&#x437;" horiz-adv-x="471" 
d="M102 354l-63 42q5 10 13.5 21t29 30.5t58 32t84.5 12.5q88 0 135.5 -39.5t47.5 -94.5q0 -47 -32 -78t-80 -36v-3q55 -3 92.5 -30t37.5 -81q0 -67 -56.5 -105.5t-147.5 -38.5q-40 0 -73 8.5t-53 21t-33.5 24.5t-21.5 23l-9 11l59 50l4 -5q4 -5 9 -10.5t12.5 -12.5
t18 -13.5t23.5 -12t30 -9t36 -3.5q52 0 81.5 20.5t29.5 57.5q0 33 -28.5 52.5t-83.5 19.5h-66v64h58q48 0 77 18t29 54q0 33 -26.5 56.5t-76.5 23.5q-57 0 -92 -35q-17 -18 -23 -35z" />
    <glyph glyph-name="u0438" unicode="&#x438;" horiz-adv-x="618" 
d="M444 0v357l-270 -357h-94v476h94v-347l270 347h94v-476h-94z" />
    <glyph glyph-name="u0439" unicode="&#x439;" horiz-adv-x="618" 
d="M152 680l55 27q12 -32 41 -52.5t68 -20.5t68 20.5t41 52.5l55 -27q-17 -44 -60.5 -73.5t-103.5 -29.5t-105 30t-59 73zM444 357v-357h94v476h-94l-270 -347v347h-94v-476h94z" />
    <glyph glyph-name="u043A" unicode="&#x43a;" horiz-adv-x="556" 
d="M173 476v-190q35 0 67 -6l154 196h103l-176 -220q76 -29 120 -90.5t71 -165.5h-103q-25 116 -79 161.5t-157 49.5v-211h-93v476h93z" />
    <glyph glyph-name="u043B" unicode="&#x43b;" horiz-adv-x="521" 
d="M504 0h-97l-142 365l-149 -365h-99l202 476h95z" />
    <glyph glyph-name="u043C" unicode="&#x43c;" horiz-adv-x="707" 
d="M80 476h80l195 -231l192 231h80v-476h-93v344l-166 -212h-28l-167 208v-340h-93v476z" />
    <glyph glyph-name="u043D" unicode="&#x43d;" horiz-adv-x="587" 
d="M173 213v-213h-93v476h93v-188h241v188h93v-476h-93v213h-241z" />
    <glyph glyph-name="u043E" unicode="&#x43e;" horiz-adv-x="617" 
d="M471 238q0 74 -45 123.5t-118 49.5q-74 0 -118 -49.5t-44 -123.5q0 -72 44.5 -122.5t117.5 -50.5t118 50.5t45 122.5zM565 238q0 -110 -73 -180.5t-184 -70.5q-110 0 -183 70.5t-73 180.5t73 180.5t183 70.5q111 0 184 -70.5t73 -180.5z" />
    <glyph glyph-name="u043F" unicode="&#x43f;" horiz-adv-x="579" 
d="M173 401v-401h-93v476h419v-476h-93v401h-233z" />
    <glyph glyph-name="u0440" unicode="&#x440;" horiz-adv-x="641" 
d="M495 238q0 73 -43.5 123t-118.5 50q-72 0 -118.5 -50t-46.5 -123t46.5 -123t118.5 -50q75 0 118.5 50t43.5 123zM176 73v-313h-93v716h91v-76h3q27 42 73.5 65t98.5 23q107 0 173.5 -72t66.5 -178t-66.5 -178.5t-174.5 -72.5q-50 0 -96 22.5t-73 63.5h-3z" />
    <glyph glyph-name="u0441" unicode="&#x441;" horiz-adv-x="501" 
d="M486 411l-64 -56q-16 25 -46.5 40.5t-65.5 15.5q-73 0 -117.5 -49.5t-44.5 -123.5t44.5 -123.5t117.5 -49.5q75 0 117 55l62 -56q-67 -77 -180 -77q-114 0 -185.5 70t-71.5 181t71.5 181t185.5 70q51 0 99.5 -20.5t77.5 -57.5z" />
    <glyph glyph-name="u0442" unicode="&#x442;" horiz-adv-x="444" 
d="M13 401v75h418v-75h-167v-401h-93v401h-158z" />
    <glyph glyph-name="u0443" unicode="&#x443;" horiz-adv-x="508" 
d="M115 476l146 -376h3l133 376h100l-209 -530q-17 -43 -25.5 -62.5t-25.5 -48.5t-33.5 -42t-43 -23t-59.5 -10q-32 0 -69 7l10 82q27 -9 51 -9q33 0 52.5 19t35.5 60l33 84l-202 473h103z" />
    <glyph glyph-name="u0444" unicode="&#x444;" horiz-adv-x="688" 
d="M144 238q0 -74 42.5 -123t113.5 -51v348q-73 -2 -114.5 -50.5t-41.5 -123.5zM543 238q0 74 -42 123t-115 51v-348q73 2 115 50.5t42 123.5zM386 756v-269q109 0 179.5 -71.5t70.5 -177.5q0 -108 -70 -178t-180 -72v-232h-86v232q-106 2 -177 73t-71 177t70 176.5
t178 72.5v269h86z" />
    <glyph glyph-name="u0445" unicode="&#x445;" horiz-adv-x="512" 
d="M11 0l188 247l-175 229h114l119 -167l119 167h109l-173 -227l189 -249h-115l-131 184l-134 -184h-110z" />
    <glyph glyph-name="u0446" unicode="&#x446;" horiz-adv-x="588" 
d="M487 0h-407v476h93v-398h228v398h92v-398h78v-217h-84v139z" />
    <glyph glyph-name="u0447" unicode="&#x447;" horiz-adv-x="539" 
d="M48 363v113h92v-68q0 -52 3 -78t15.5 -50t38.5 -32t71 -8h98v236h92v-476h-92v160l-105 1q-124 1 -168.5 49.5t-44.5 152.5z" />
    <glyph glyph-name="u0448" unicode="&#x448;" horiz-adv-x="820" 
d="M739 0h-659v476h93v-401h190v401h93v-401h191v401h92v-476z" />
    <glyph glyph-name="u0449" unicode="&#x449;" horiz-adv-x="824" 
d="M723 0h-643v476h93v-401h185v401h93v-401h186v401h92v-401h79v-214h-85v139z" />
    <glyph glyph-name="u044A" unicode="&#x44a;" horiz-adv-x="574" 
d="M240 247v-177h82q115 0 115 89q0 88 -118 88h-79zM13 476h227v-160h99q100 0 146 -42.5t46 -114.5q0 -69 -49 -114t-139 -45h-196v401h-134v75z" />
    <glyph glyph-name="u044B" unicode="&#x44b;" horiz-adv-x="694" 
d="M521 476h93v-476h-93v476zM173 247v-177h83q115 0 115 89q0 88 -118 88h-80zM80 476h93v-160h85q207 0 207 -157q0 -76 -52.5 -117.5t-153.5 -41.5h-179v476z" />
    <glyph glyph-name="u044C" unicode="&#x44c;" horiz-adv-x="525" 
d="M173 247v-177h98q116 0 116 89q0 88 -119 88h-95zM80 476h93v-160h115q100 0 146.5 -42.5t46.5 -114.5q0 -69 -49.5 -114t-139.5 -45h-212v476z" />
    <glyph glyph-name="u044D" unicode="&#x44d;" horiz-adv-x="547" 
d="M107 336l-63 54q67 99 206 99q114 0 179.5 -70t65.5 -181q0 -108 -71 -179.5t-179 -71.5q-127 0 -206 101l66 52q20 -32 56.5 -54t83.5 -22q66 0 110.5 42.5t48.5 106.5h-246v65h245q-6 57 -47.5 96t-106.5 39q-97 0 -142 -77z" />
    <glyph glyph-name="u044E" unicode="&#x44e;" horiz-adv-x="824" 
d="M678 238q0 74 -44.5 123.5t-117.5 49.5q-74 0 -118 -49.5t-44 -123.5q0 -72 44.5 -122.5t117.5 -50.5t117.5 50.5t44.5 122.5zM773 238q0 -110 -73 -180.5t-184 -70.5q-104 0 -175.5 64.5t-79.5 164.5h-88v-216h-93v476h93v-185h92q16 88 85.5 143t165.5 55
q111 0 184 -70.5t73 -180.5z" />
    <glyph glyph-name="u044F" unicode="&#x44f;" horiz-adv-x="537" 
d="M163 330q0 -39 31 -52.5t89 -13.5h88v133h-89q-62 0 -90.5 -12.5t-28.5 -54.5zM371 188h-69q-69 0 -106.5 -46t-47.5 -142h-103q10 87 46.5 145t94.5 76v3q-117 12 -117 117q0 67 52.5 101t142.5 34h199v-476h-92v188z" />
    <glyph glyph-name="u0451" unicode="&#x451;" horiz-adv-x="572" 
d="M347 650q0 24 16.5 41t42.5 17t42.5 -17t16.5 -41t-16.5 -41.5t-42.5 -17.5t-42.5 17.5t-16.5 41.5zM148 650q0 24 17 41t43 17t42.5 -17t16.5 -41t-16.5 -41.5t-42.5 -17.5t-43 17.5t-17 41.5zM531 247q0 -22 -1 -34h-381q2 -63 47.5 -107t110.5 -44q46 0 82.5 21
t56.5 53l68 -48q-75 -101 -208 -101q-108 0 -179 69.5t-71 180.5q0 110 70.5 181t173.5 71q108 0 169.5 -68t61.5 -174zM150 279h291q-2 62 -38.5 100t-101.5 38q-61 0 -104 -41t-47 -97z" />
    <glyph glyph-name="u0452" unicode="&#x452;" horiz-adv-x="596" 
d="M217 -179l43 64q22 -17 56 -17q57 0 82 38t25 117v236q0 77 -26.5 114.5t-87.5 37.5q-54 0 -91 -43.5t-37 -122.5v-245h-93v574h-95v60h95v122h93v-122h178v-60h-178v-172h2q18 40 60.5 63t94.5 23q87 0 132 -54t45 -144v-252v-49q0 -87 -50.5 -143t-141.5 -56
q-60 0 -106 31z" />
    <glyph glyph-name="u0453" unicode="&#x453;" horiz-adv-x="403" 
d="M389 688l-135 -144h-76l101 144h110zM173 401v-401h-93v476h306v-75h-213z" />
    <glyph glyph-name="u0454" unicode="&#x454;" horiz-adv-x="564" 
d="M509 390l-64 -54q-43 77 -141 77q-65 0 -107 -39t-48 -96h246v-65h-246q4 -63 49 -106t111 -43q92 0 139 76l66 -52q-79 -101 -212 -101q-105 0 -174.5 71.5t-69.5 179.5q0 111 65.5 181t179.5 70q136 0 206 -99z" />
    <glyph glyph-name="u0455" unicode="&#x455;" horiz-adv-x="462" 
d="M412 408l-61 -53q-39 61 -113 61q-37 0 -63 -16t-26 -48q0 -29 24.5 -45t81.5 -28q81 -17 121.5 -50t40.5 -91q0 -77 -54.5 -114t-131.5 -37q-58 0 -109.5 22t-83.5 65l64 55q20 -30 54 -49.5t74 -19.5q42 0 69.5 17.5t27.5 54.5q0 32 -30 49.5t-98 32.5q-27 6 -47 14
t-42.5 22.5t-35 38.5t-12.5 56q0 70 52 107t125 37q52 0 99.5 -22t73.5 -59z" />
    <glyph glyph-name="u0456" unicode="&#x456;" horiz-adv-x="262" 
d="M191 650q0 -25 -18 -41.5t-42 -16.5t-42 17t-18 41t18 41.5t42 17.5t42 -17t18 -42zM177 476v-476h-92v476h92z" />
    <glyph glyph-name="u0457" unicode="&#x457;" horiz-adv-x="262" 
d="M172 650q0 24 16.5 41t42.5 17t43 -17t17 -41t-17 -41.5t-43 -17.5t-42.5 17.5t-16.5 41.5zM-26 650q0 24 16.5 41t42.5 17t42.5 -17t16.5 -41t-16.5 -41.5t-42.5 -17.5t-42.5 17.5t-16.5 41.5zM177 476v-476h-92v476h92z" />
    <glyph glyph-name="u0458" unicode="&#x458;" horiz-adv-x="263" 
d="M192 650q0 -26 -17.5 -42t-42.5 -16q-24 0 -41.5 17t-17.5 41t17.5 41.5t41.5 17.5q25 0 42.5 -16.5t17.5 -42.5zM-30 -233l11 78q18 -6 41 -6q16 0 27 4t18 15t11 20t5.5 28.5t2 31t0.5 36.5v13v489h93v-496q0 -29 -0.5 -45t-3.5 -42.5t-8.5 -42t-16 -35t-26.5 -30
t-40 -18t-55 -7.5q-32 0 -59 7z" />
    <glyph glyph-name="u0459" unicode="&#x459;" horiz-adv-x="724" 
d="M482 247h-97l66 -177h33q59 0 88 20t29 69t-28.5 68.5t-90.5 19.5zM504 0h-120l-131 365l-137 -365h-95l188 476h93l59 -160h142q102 0 148 -43.5t46 -113.5q0 -73 -51 -116t-142 -43z" />
    <glyph glyph-name="u045A" unicode="&#x45a;" horiz-adv-x="845" 
d="M509 224v-154h82q56 0 86 17t30 59q0 78 -119 78h-79zM80 476h93v-182h243v182h93v-182h99q99 0 146 -41.5t47 -106.5q0 -63 -50 -104.5t-139 -41.5h-196v219h-243v-219h-93v476z" />
    <glyph glyph-name="u045B" unicode="&#x45b;" horiz-adv-x="595" 
d="M181 402h2q18 38 60.5 62t92.5 24q89 0 134 -53.5t45 -142.5v-292h-92v262q0 149 -114 149q-54 0 -91 -43.5t-37 -120.5v-247h-93v574h-95v60h95v122h93v-122h178v-60h-178v-172z" />
    <glyph glyph-name="u045C" unicode="&#x45c;" horiz-adv-x="556" 
d="M435 688l-136 -144h-76l101 144h111zM173 476v-190q35 0 67 -6l154 196h103l-176 -220q76 -29 120 -90.5t71 -165.5h-103q-25 116 -79 161.5t-157 49.5v-211h-93v476h93z" />
    <glyph glyph-name="u045E" unicode="&#x45e;" horiz-adv-x="508" 
d="M261 100l-146 376h-103l202 -473l-33 -84q-16 -41 -35.5 -60t-52.5 -19q-24 0 -51 9l-10 -82q37 -7 69 -7q33 0 59.5 10t43 23t33.5 42t25.5 48.5t25.5 62.5l209 530h-100l-133 -376h-3zM90 680l55 27q12 -32 41 -52.5t68 -20.5t68 20.5t41 52.5l55 -27
q-17 -44 -60.5 -73.5t-103.5 -29.5t-105 30t-59 73z" />
    <glyph glyph-name="u045F" unicode="&#x45f;" horiz-adv-x="574" 
d="M494 0h-160v-139h-83v139h-171v476h93v-400h228v400h93v-476z" />
    <glyph glyph-name="u0490" unicode="&#x490;" horiz-adv-x="529" 
d="M181 622v-622h-98v708h333v151h82v-237h-317z" />
    <glyph glyph-name="u0491" unicode="&#x491;" horiz-adv-x="416" 
d="M173 401v-401h-93v476h229v158h84v-233h-220z" />
    <glyph glyph-name="palochkacyrillic" unicode="&#x4c0;" horiz-adv-x="271" 
d="M185 708v-708h-99v708h99z" />
    <glyph glyph-name="Aiecyrillic" unicode="&#x4d4;" horiz-adv-x="1015" 
d="M293 278h231v343h-14zM623 324v-236h346v-88h-445v192h-283l-121 -192h-118l457 708h495v-87h-331v-212h310v-85h-310z" />
    <glyph glyph-name="aiecyrillic" unicode="&#x4d5;" horiz-adv-x="877" 
d="M419 85q-53 -97 -201 -97q-68 0 -120 31.5t-52 101.5q0 41 16.5 70t42.5 46t71 26.5t90 12.5t110 3v11q0 121 -117 121q-80 0 -135 -55l-50 60q76 71 194 71q128 0 166 -88q63 88 173 88q102 0 161.5 -66t59.5 -180q0 -21 -1 -32h-364q2 -61 45.5 -102.5t103.5 -41.5
q85 0 134 72l63 -53q-71 -97 -197 -97q-64 0 -114.5 25.5t-78.5 72.5zM462 279h272q0 58 -34 96t-94 38q-57 0 -99.5 -39t-44.5 -95zM374 209h-24q-49 0 -82.5 -2.5t-64.5 -10t-46 -23.5t-15 -40q0 -72 98 -72q65 0 99.5 32.5t34.5 90.5v25z" />
    <glyph glyph-name="Aringbelow" unicode="&#x1e00;" horiz-adv-x="711" 
d="M354 593l-133 -332h265zM186 174l-71 -174h-110l307 708h90l304 -708h-112l-72 174h-336zM414 -172q0 24 -17.5 40t-41.5 16t-41 -16t-17 -40t17 -40.5t41 -16.5t41.5 16.5t17.5 40.5zM456 -172q0 -42 -29.5 -70.5t-71.5 -28.5t-71 28t-29 70t29 70.5t71 28.5t71.5 -28
t29.5 -70z" />
    <glyph glyph-name="aringbelow" unicode="&#x1e01;" horiz-adv-x="542" 
d="M376 226h-23q-211 0 -211 -90q0 -39 28 -56.5t69 -17.5q64 0 100.5 38.5t36.5 100.5v25zM376 294v13q0 52 -31 78t-86 26q-80 0 -135 -55l-50 60q76 71 194 71q98 0 148 -51.5t50 -134.5v-207q0 -62 7 -94h-85q-8 37 -8 68h-3q-55 -80 -159 -80q-30 0 -59 8t-55 24
t-42 45.5t-16 68.5q0 41 19.5 71.5t49.5 47t76.5 26t88 12.5t96.5 3zM318 -184q0 24 -17.5 40t-41.5 16t-41 -16t-17 -40t17 -40.5t41 -16.5t41.5 16.5t17.5 40.5zM360 -184q0 -42 -29.5 -70.5t-71.5 -28.5t-71 28t-29 70t29 70.5t71 28.5t71.5 -28t29.5 -70z" />
    <glyph glyph-name="uni1E02" unicode="&#x1e02;" horiz-adv-x="642" 
d="M369 845q0 -26 -18 -43t-45 -17q-26 0 -44 17.5t-18 42.5q0 26 18 43.5t44 17.5t44.5 -17.5t18.5 -43.5zM185 325v-241h124q47 0 84 10t64.5 38.5t27.5 73.5q0 119 -167 119h-133zM185 625v-216h129q61 0 100 28t39 82q0 106 -155 106h-113zM86 0v708h244q93 0 157.5 -43
t64.5 -136q0 -58 -33.5 -98.5t-90.5 -55.5v-2q71 -8 114 -53.5t43 -118.5q0 -98 -75 -149.5t-191 -51.5h-233z" />
    <glyph glyph-name="uni1E03" unicode="&#x1e03;" horiz-adv-x="636" 
d="M380 845q0 -26 -18 -43t-45 -17q-26 0 -44 17.5t-18 42.5q0 26 18 43.5t44 17.5t44.5 -17.5t18.5 -43.5zM489 238q0 71 -42 121t-116 50q-70 0 -115 -51t-45 -121t45 -120.5t115 -50.5q74 0 116 50.5t42 121.5zM176 75h-2v-75h-91v756h94v-353h3q57 84 169 84
q104 0 170.5 -71.5t66.5 -177.5q0 -107 -66 -179t-173 -72q-52 0 -98 23t-73 65z" />
    <glyph glyph-name="Bdotbelow" unicode="&#x1e04;" horiz-adv-x="642" 
d="M185 325v-241h124q47 0 84 10t64.5 38.5t27.5 73.5q0 119 -167 119h-133zM185 625v-216h129q61 0 100 28t39 82q0 106 -155 106h-113zM86 0v708h244q93 0 157.5 -43t64.5 -136q0 -58 -33.5 -98.5t-90.5 -55.5v-2q71 -8 114 -53.5t43 -118.5q0 -98 -75 -149.5t-191 -51.5
h-233zM398 -135q0 -26 -18 -43t-45 -17q-26 0 -44 17.5t-18 42.5q0 26 18 43.5t44 17.5t44.5 -17.5t18.5 -43.5z" />
    <glyph glyph-name="bdotbelow" unicode="&#x1e05;" horiz-adv-x="636" 
d="M489 238q0 71 -42 121t-116 50q-70 0 -115 -51t-45 -121t45 -120.5t115 -50.5q74 0 116 50.5t42 121.5zM176 75h-2v-75h-91v756h94v-353h3q57 84 169 84q104 0 170.5 -71.5t66.5 -177.5q0 -107 -66 -179t-173 -72q-52 0 -98 23t-73 65zM397 -148q0 -26 -18 -43t-45 -17
q-26 0 -44 17.5t-18 42.5q0 26 18 43.5t44 17.5t44.5 -17.5t18.5 -43.5z" />
    <glyph glyph-name="Blinebelow" unicode="&#x1e06;" horiz-adv-x="642" 
d="M185 325v-241h124q47 0 84 10t64.5 38.5t27.5 73.5q0 119 -167 119h-133zM185 625v-216h129q61 0 100 28t39 82q0 106 -155 106h-113zM86 0v708h244q93 0 157.5 -43t64.5 -136q0 -58 -33.5 -98.5t-90.5 -55.5v-2q71 -8 114 -53.5t43 -118.5q0 -98 -75 -149.5t-191 -51.5
h-233zM483 -74v-67h-296v67h296z" />
    <glyph glyph-name="blinebelow" unicode="&#x1e07;" horiz-adv-x="636" 
d="M489 238q0 71 -42 121t-116 50q-70 0 -115 -51t-45 -121t45 -120.5t115 -50.5q74 0 116 50.5t42 121.5zM176 75h-2v-75h-91v756h94v-353h3q57 84 169 84q104 0 170.5 -71.5t66.5 -177.5q0 -107 -66 -179t-173 -72q-52 0 -98 23t-73 65zM482 -87v-67h-296v67h296z" />
    <glyph glyph-name="Ccedillaacute" unicode="&#x1e08;" horiz-adv-x="708" 
d="M614 164l79 -54q-89 -121 -256 -127l-34 -52q6 2 27 2q38 0 66 -18.5t28 -59.5q0 -48 -38 -69t-89 -21q-60 0 -103 23l20 42q39 -17 77 -17q22 0 41.5 9.5t19.5 32.5q0 38 -54 38q-18 0 -41 -7l-20 20l51 78q-150 12 -244 114.5t-94 256.5q0 164 106.5 267.5t270.5 103.5
q76 0 145.5 -29t108.5 -81l-78 -60q-27 37 -74.5 60t-101.5 23q-120 0 -194.5 -82t-74.5 -202q0 -123 73 -204t193 -81q124 0 190 94zM478 945l-136 -144h-77l100 144h113z" />
    <glyph glyph-name="ccedillaacute" unicode="&#x1e09;" horiz-adv-x="494" 
d="M481 409l-68 -55q-15 24 -45.5 39t-63.5 15q-71 0 -113 -50t-42 -121t42 -121t114 -50q73 0 114 52l63 -57q-62 -70 -165 -74l-37 -56q6 2 27 2q38 0 66 -18.5t28 -59.5q0 -48 -38 -69t-89 -21q-60 0 -103 23l20 42q39 -17 77 -17q22 0 41.5 9.5t19.5 32.5q0 38 -54 38
q-18 0 -41 -7l-20 20l55 83q-98 12 -158.5 79t-60.5 169q0 111 71.5 180.5t181.5 69.5q52 0 101 -20.5t77 -57.5zM373 707l-136 -144h-77l100 144h113z" />
    <glyph glyph-name="uni1E0A" unicode="&#x1e0a;" horiz-adv-x="761" 
d="M408 845q0 -26 -18 -43t-45 -17q-26 0 -44 17.5t-18 42.5q0 26 18 43.5t44 17.5t44.5 -17.5t18.5 -43.5zM185 622v-535h124q132 0 214 71.5t82 195.5q0 128 -81.5 198t-214.5 70h-124zM86 0v708h243q71 0 136.5 -20.5t121.5 -61.5t90 -111.5t34 -160.5q0 -87 -34 -157
t-89.5 -111.5t-122 -63.5t-136.5 -22h-243z" />
    <glyph glyph-name="uni1E0B" unicode="&#x1e0b;" horiz-adv-x="635" 
d="M374 845q0 -26 -18 -43t-45 -17q-26 0 -44 17.5t-18 42.5q0 26 18 43.5t44 17.5t44.5 -17.5t18.5 -43.5zM147 238q0 -71 42 -121.5t115 -50.5q70 0 115 50.5t45 120.5t-45 121t-115 51q-74 0 -115.5 -50t-41.5 -121zM461 75h-2q-26 -42 -72.5 -65t-98.5 -23
q-107 0 -173 72t-66 179t66.5 178t171.5 71q110 0 169 -84h2v353h94v-756h-91v75z" />
    <glyph glyph-name="Ddotbelow" unicode="&#x1e0c;" horiz-adv-x="761" 
d="M185 622v-535h124q132 0 214 71.5t82 195.5q0 128 -81.5 198t-214.5 70h-124zM86 0v708h243q71 0 136.5 -20.5t121.5 -61.5t90 -111.5t34 -160.5q0 -87 -34 -157t-89.5 -111.5t-122 -63.5t-136.5 -22h-243zM461 -135q0 -26 -18 -43t-45 -17q-26 0 -44 17.5t-18 42.5
q0 26 18 43.5t44 17.5t44.5 -17.5t18.5 -43.5z" />
    <glyph glyph-name="ddotbelow" unicode="&#x1e0d;" horiz-adv-x="635" 
d="M147 238q0 -71 42 -121.5t115 -50.5q70 0 115 50.5t45 120.5t-45 121t-115 51q-74 0 -115.5 -50t-41.5 -121zM461 75h-2q-26 -42 -72.5 -65t-98.5 -23q-107 0 -173 72t-66 179t66.5 178t171.5 71q110 0 169 -84h2v353h94v-756h-91v75zM363 -148q0 -26 -18 -43t-45 -17
q-26 0 -44 17.5t-18 42.5q0 26 18 43.5t44 17.5t44.5 -17.5t18.5 -43.5z" />
    <glyph glyph-name="Dlinebelow" unicode="&#x1e0e;" horiz-adv-x="761" 
d="M185 622v-535h124q132 0 214 71.5t82 195.5q0 128 -81.5 198t-214.5 70h-124zM86 0v708h243q71 0 136.5 -20.5t121.5 -61.5t90 -111.5t34 -160.5q0 -87 -34 -157t-89.5 -111.5t-122 -63.5t-136.5 -22h-243zM546 -74v-67h-296v67h296z" />
    <glyph glyph-name="dlinebelow" unicode="&#x1e0f;" horiz-adv-x="635" 
d="M147 238q0 -71 42 -121.5t115 -50.5q70 0 115 50.5t45 120.5t-45 121t-115 51q-74 0 -115.5 -50t-41.5 -121zM461 75h-2q-26 -42 -72.5 -65t-98.5 -23q-107 0 -173 72t-66 179t66.5 178t171.5 71q110 0 169 -84h2v353h94v-756h-91v75zM448 -87v-67h-296v67h296z" />
    <glyph glyph-name="Dcommaaccent" unicode="&#x1e10;" horiz-adv-x="761" 
d="M185 622v-535h124q132 0 214 71.5t82 195.5q0 128 -81.5 198t-214.5 70h-124zM86 0v708h243q71 0 136.5 -20.5t121.5 -61.5t90 -111.5t34 -160.5q0 -87 -34 -157t-89.5 -111.5t-122 -63.5t-136.5 -22h-243zM480 -74l-83 -250h-80l69 250h94z" />
    <glyph glyph-name="dcommaaccent" unicode="&#x1e11;" horiz-adv-x="635" 
d="M147 238q0 -71 42 -121.5t115 -50.5q70 0 115 50.5t45 120.5t-45 121t-115 51q-74 0 -115.5 -50t-41.5 -121zM461 75h-2q-26 -42 -72.5 -65t-98.5 -23q-107 0 -173 72t-66 179t66.5 178t171.5 71q110 0 169 -84h2v353h94v-756h-91v75zM382 -87l-83 -250h-80l69 250h94z
" />
    <glyph glyph-name="Dcircumflexbelow" unicode="&#x1e12;" horiz-adv-x="761" 
d="M185 622v-535h124q132 0 214 71.5t82 195.5q0 128 -81.5 198t-214.5 70h-124zM86 0v708h243q71 0 136.5 -20.5t121.5 -61.5t90 -111.5t34 -160.5q0 -87 -34 -157t-89.5 -111.5t-122 -63.5t-136.5 -22h-243zM452 -74l112 -144h-91l-75 99l-76 -99h-90l112 144h108z" />
    <glyph glyph-name="dcircumflexbelow" unicode="&#x1e13;" horiz-adv-x="635" 
d="M147 238q0 -71 42 -121.5t115 -50.5q70 0 115 50.5t45 120.5t-45 121t-115 51q-74 0 -115.5 -50t-41.5 -121zM461 75h-2q-26 -42 -72.5 -65t-98.5 -23q-107 0 -173 72t-66 179t66.5 178t171.5 71q110 0 169 -84h2v353h94v-756h-91v75zM354 -87l112 -144h-91l-75 99
l-76 -99h-90l112 144h108z" />
    <glyph glyph-name="Emacrongrave" unicode="&#x1e14;" horiz-adv-x="601" 
d="M185 324v-236h370v-88h-469v708h454v-87h-355v-212h334v-85h-334zM468 850v-67h-296v67h296zM350 925l-136 144h113l100 -144h-77z" />
    <glyph glyph-name="emacrongrave" unicode="&#x1e15;" horiz-adv-x="573" 
d="M523 241q0 -21 -1 -32h-376q2 -61 47 -102.5t107 -41.5q89 0 138 72l66 -53q-74 -97 -204 -97q-109 0 -179.5 69t-70.5 180q0 110 69.5 180.5t175.5 70.5q105 0 166.5 -66t61.5 -180zM146 279h282q-2 60 -36 97t-97 37q-60 0 -102.5 -38.5t-46.5 -95.5zM434 630v-67h-296
v67h296zM316 704l-136 144h113l100 -144h-77z" />
    <glyph glyph-name="Emacronacute" unicode="&#x1e16;" horiz-adv-x="601" 
d="M185 324v-236h370v-88h-469v708h454v-87h-355v-212h334v-85h-334zM468 850v-67h-296v67h296zM427 1069l-136 -144h-77l100 144h113z" />
    <glyph glyph-name="emacronacute" unicode="&#x1e17;" horiz-adv-x="573" 
d="M523 241q0 -21 -1 -32h-376q2 -61 47 -102.5t107 -41.5q89 0 138 72l66 -53q-74 -97 -204 -97q-109 0 -179.5 69t-70.5 180q0 110 69.5 180.5t175.5 70.5q105 0 166.5 -66t61.5 -180zM146 279h282q-2 60 -36 97t-97 37q-60 0 -102.5 -38.5t-46.5 -95.5zM434 630v-67h-296
v67h296zM393 848l-136 -144h-77l100 144h113z" />
    <glyph glyph-name="Ecircumflexbelow" unicode="&#x1e18;" horiz-adv-x="601" 
d="M185 324v-236h370v-88h-469v708h454v-87h-355v-212h334v-85h-334zM374 -74l112 -144h-91l-75 99l-76 -99h-90l112 144h108z" />
    <glyph glyph-name="ecircumflexbelow" unicode="&#x1e19;" horiz-adv-x="573" 
d="M523 241q0 -21 -1 -32h-376q2 -61 47 -102.5t107 -41.5q89 0 138 72l66 -53q-74 -97 -204 -97q-109 0 -179.5 69t-70.5 180q0 110 69.5 180.5t175.5 70.5q105 0 166.5 -66t61.5 -180zM146 279h282q-2 60 -36 97t-97 37q-60 0 -102.5 -38.5t-46.5 -95.5zM340 -87l112 -144
h-91l-75 99l-76 -99h-90l112 144h108z" />
    <glyph glyph-name="Etildebelow" unicode="&#x1e1a;" horiz-adv-x="601" 
d="M185 324v-236h370v-88h-469v708h454v-87h-355v-212h334v-85h-334zM202 -194h-55q20 116 102 116q33 0 75 -20q50 -22 67 -22q34 0 48 46h54q-20 -116 -102 -116q-31 0 -77 21q-42 21 -65 21q-33 0 -47 -46z" />
    <glyph glyph-name="etildebelow" unicode="&#x1e1b;" horiz-adv-x="573" 
d="M523 241q0 -21 -1 -32h-376q2 -61 47 -102.5t107 -41.5q89 0 138 72l66 -53q-74 -97 -204 -97q-109 0 -179.5 69t-70.5 180q0 110 69.5 180.5t175.5 70.5q105 0 166.5 -66t61.5 -180zM146 279h282q-2 60 -36 97t-97 37q-60 0 -102.5 -38.5t-46.5 -95.5zM168 -207h-55
q20 116 102 116q33 0 75 -20q50 -22 67 -22q34 0 48 46h54q-20 -116 -102 -116q-31 0 -77 21q-42 21 -65 21q-33 0 -47 -46z" />
    <glyph glyph-name="Ecedillabreve" unicode="&#x1e1c;" horiz-adv-x="601" 
d="M185 324v-236h370v-88h-469v708h454v-87h-355v-212h334v-85h-334zM424 921h55q-6 -67 -48.5 -102.5t-110.5 -35.5q-69 0 -111.5 35.5t-47.5 102.5h56q13 -72 103 -72q88 0 104 72zM360 0l-46 -69q6 2 27 2q38 0 66 -18.5t28 -59.5q0 -48 -38 -69t-89 -21q-60 0 -103 23
l20 42q39 -17 77 -17q22 0 41.5 9.5t19.5 32.5q0 38 -54 38q-18 0 -41 -7l-20 20l62 94h50z" />
    <glyph glyph-name="ecedillabreve" unicode="&#x1e1d;" horiz-adv-x="573" 
d="M523 241q0 -21 -1 -32h-376q2 -61 47 -102.5t107 -41.5q89 0 138 72l66 -53q-74 -97 -204 -97q-109 0 -179.5 69t-70.5 180q0 110 69.5 180.5t175.5 70.5q105 0 166.5 -66t61.5 -180zM146 279h282q-2 60 -36 97t-97 37q-60 0 -102.5 -38.5t-46.5 -95.5zM390 701h55
q-6 -67 -48.5 -102.5t-110.5 -35.5q-69 0 -111.5 35.5t-47.5 102.5h56q13 -72 103 -72q88 0 104 72zM326 -12l-46 -69q6 2 27 2q38 0 66 -18.5t28 -59.5q0 -48 -38 -69t-89 -21q-60 0 -103 23l20 42q39 -17 77 -17q22 0 41.5 9.5t19.5 32.5q0 38 -54 38q-18 0 -41 -7l-20 20
l62 94h50z" />
    <glyph glyph-name="uni1E1E" unicode="&#x1e1e;" horiz-adv-x="568" 
d="M369 845q0 -26 -18 -43t-45 -17q-26 0 -44 17.5t-18 42.5q0 26 18 43.5t44 17.5t44.5 -17.5t18.5 -43.5zM185 316v-316h-99v708h442v-87h-343v-220h321v-85h-321z" />
    <glyph glyph-name="uni1E1F" unicode="&#x1e1f;" horiz-adv-x="310" 
d="M239 881q0 -26 -18 -43t-45 -17q-26 0 -44 17.5t-18 42.5q0 26 18 43.5t44 17.5t44.5 -17.5t18.5 -43.5zM304 474v-77h-110v-397h-94v397h-94v77h94v99q0 89 43 142t134 53q35 0 59 -7l-11 -81q-26 7 -47 7q-49 0 -66.5 -30.5t-17.5 -83.5v-99h110z" />
    <glyph glyph-name="Gmacron" unicode="&#x1e20;" horiz-adv-x="778" 
d="M689 634l-69 -72q-70 77 -192 77q-121 0 -195.5 -82t-74.5 -202q0 -122 74.5 -203t198.5 -81q103 0 165 35v197h-157v84h255v-343q-116 -62 -266 -62q-166 0 -272 104.5t-106 268.5t106.5 267.5t270.5 103.5q165 0 262 -92zM520 868v-67h-296v67h296z" />
    <glyph glyph-name="gmacron" unicode="&#x1e21;" horiz-adv-x="632" 
d="M147 242q0 -69 43 -118t114 -49t116 48t45 119q0 69 -45.5 118t-115.5 49q-72 0 -114.5 -48t-42.5 -119zM58 -154l60 73q31 -35 77.5 -56t95.5 -21q167 0 167 175v61h-2q-26 -39 -70.5 -60.5t-96.5 -21.5q-107 0 -173 70t-66 174t66 175.5t172 71.5q53 0 99 -23t72 -66h2
v76h91v-450q0 -54 -13.5 -99.5t-43 -83.5t-82 -59.5t-123.5 -21.5q-63 0 -125.5 22.5t-106.5 63.5zM449 630v-67h-296v67h296z" />
    <glyph glyph-name="uni1E22" unicode="&#x1e22;" horiz-adv-x="729" 
d="M426 845q0 -26 -18 -43t-45 -17q-26 0 -44 17.5t-18 42.5q0 26 18 43.5t44 17.5t44.5 -17.5t18.5 -43.5zM86 0v708h99v-296h358v296h100v-708h-100v324h-358v-324h-99z" />
    <glyph glyph-name="uni1E23" unicode="&#x1e23;" horiz-adv-x="584" 
d="M380 845q0 -26 -18 -43t-45 -17q-26 0 -44 17.5t-18 42.5q0 26 18 43.5t44 17.5t44.5 -17.5t18.5 -43.5zM177 402h2q18 36 59 60.5t91 24.5q87 0 132 -54t45 -139v-294h-94v262q0 145 -107 145q-57 0 -92.5 -42.5t-35.5 -113.5v-251h-94v756h94v-354z" />
    <glyph glyph-name="Hdotbelow" unicode="&#x1e24;" horiz-adv-x="729" 
d="M86 0v708h99v-296h358v296h100v-708h-100v324h-358v-324h-99zM427 -135q0 -26 -18 -43t-45 -17q-26 0 -44 17.5t-18 42.5q0 26 18 43.5t44 17.5t44.5 -17.5t18.5 -43.5z" />
    <glyph glyph-name="hdotbelow" unicode="&#x1e25;" horiz-adv-x="584" 
d="M177 402h2q18 36 59 60.5t91 24.5q87 0 132 -54t45 -139v-294h-94v262q0 145 -107 145q-57 0 -92.5 -42.5t-35.5 -113.5v-251h-94v756h94v-354zM357 -135q0 -26 -18 -43t-45 -17q-26 0 -44 17.5t-18 42.5q0 26 18 43.5t44 17.5t44.5 -17.5t18.5 -43.5z" />
    <glyph glyph-name="Hdieresis" unicode="&#x1e26;" horiz-adv-x="729" 
d="M86 0v708h99v-296h358v296h100v-708h-100v324h-358v-324h-99zM399 843q0 25 18 43t44 18t44 -17.5t18 -43.5q0 -25 -18 -42.5t-44 -17.5t-44 18t-18 42zM205 843q0 25 18 43t44 18t44 -17.5t18 -43.5q0 -25 -18 -42.5t-44 -17.5t-44 18t-18 42z" />
    <glyph glyph-name="hdieresis" unicode="&#x1e27;" horiz-adv-x="584" 
d="M177 402h2q18 36 59 60.5t91 24.5q87 0 132 -54t45 -139v-294h-94v262q0 145 -107 145q-57 0 -92.5 -42.5t-35.5 -113.5v-251h-94v756h94v-354zM329 891q0 25 18 43t44 18t44 -17.5t18 -43.5q0 -25 -18 -42.5t-44 -17.5t-44 18t-18 42zM135 891q0 25 18 43t44 18
t44 -17.5t18 -43.5q0 -25 -18 -42.5t-44 -17.5t-44 18t-18 42z" />
    <glyph glyph-name="Hcedilla" unicode="&#x1e28;" horiz-adv-x="729" 
d="M86 0v708h99v-296h358v296h100v-708h-100v324h-358v-324h-99zM167 0l-46 -69q6 2 27 2q38 0 66 -18.5t28 -59.5q0 -48 -38 -69t-89 -21q-60 0 -103 23l20 42q39 -17 77 -17q22 0 41.5 9.5t19.5 32.5q0 38 -54 38q-18 0 -41 -7l-20 20l62 94h50z" />
    <glyph glyph-name="hcedilla" unicode="&#x1e29;" horiz-adv-x="584" 
d="M177 402h2q18 36 59 60.5t91 24.5q87 0 132 -54t45 -139v-294h-94v262q0 145 -107 145q-57 0 -92.5 -42.5t-35.5 -113.5v-251h-94v756h94v-354zM167 0l-46 -69q6 2 27 2q38 0 66 -18.5t28 -59.5q0 -48 -38 -69t-89 -21q-60 0 -103 23l20 42q39 -17 77 -17q22 0 41.5 9.5
t19.5 32.5q0 38 -54 38q-18 0 -41 -7l-20 20l62 94h50z" />
    <glyph glyph-name="Hbrevebelow" unicode="&#x1e2a;" horiz-adv-x="729" 
d="M86 0v708h99v-296h358v296h100v-708h-100v324h-358v-324h-99zM468 -74h55q-6 -67 -48.5 -102.5t-110.5 -35.5q-69 0 -111.5 35.5t-47.5 102.5h56q13 -72 103 -72q88 0 104 72z" />
    <glyph glyph-name="hbrevebelow" unicode="&#x1e2b;" horiz-adv-x="584" 
d="M177 402h2q18 36 59 60.5t91 24.5q87 0 132 -54t45 -139v-294h-94v262q0 145 -107 145q-57 0 -92.5 -42.5t-35.5 -113.5v-251h-94v756h94v-354zM398 -74h55q-6 -67 -48.5 -102.5t-110.5 -35.5q-69 0 -111.5 35.5t-47.5 102.5h56q13 -72 103 -72q88 0 104 72z" />
    <glyph glyph-name="Itildebelow" unicode="&#x1e2c;" horiz-adv-x="271" 
d="M185 708v-708h-99v708h99zM17 -194h-55q20 116 102 116q33 0 75 -20q50 -22 67 -22q34 0 48 46h54q-20 -116 -102 -116q-31 0 -77 21q-42 21 -65 21q-33 0 -47 -46z" />
    <glyph glyph-name="itildebelow" unicode="&#x1e2d;" horiz-adv-x="259" 
d="M192 645q0 -26 -18 -43t-45 -17q-26 0 -44 17.5t-18 42.5q0 26 18 43.5t44 17.5t44.5 -17.5t18.5 -43.5zM176 474v-474h-94v474h94zM11 -194h-55q20 116 102 116q33 0 75 -20q50 -22 67 -22q34 0 48 46h54q-20 -116 -102 -116q-31 0 -77 21q-42 21 -65 21q-33 0 -47 -46z
" />
    <glyph glyph-name="Idieresisacute" unicode="&#x1e2e;" horiz-adv-x="271" 
d="M185 708v-708h-99v708h99zM170 843q0 25 18 43t44 18t44 -17.5t18 -43.5q0 -25 -18 -42.5t-44 -17.5t-44 18t-18 42zM-24 843q0 25 18 43t44 18t44 -17.5t18 -43.5q0 -25 -18 -42.5t-44 -17.5t-44 18t-18 42zM243 1123l-136 -144h-77l100 144h113z" />
    <glyph glyph-name="idieresisacute" unicode="&#x1e2f;" horiz-adv-x="259" 
d="M176 474v-474h-94v474h94zM164 610q0 25 18 43t44 18t44 -17.5t18 -43.5q0 -25 -18 -42.5t-44 -17.5t-44 18t-18 42zM-30 610q0 25 18 43t44 18t44 -17.5t18 -43.5q0 -25 -18 -42.5t-44 -17.5t-44 18t-18 42zM237 889l-136 -144h-77l100 144h113z" />
    <glyph glyph-name="Kacute" unicode="&#x1e30;" horiz-adv-x="659" 
d="M185 708v-312h2l316 312h137l-344 -324l365 -384h-142l-332 366h-2v-366h-99v708h99zM480 927l-136 -144h-77l100 144h113z" />
    <glyph glyph-name="kacute" unicode="&#x1e31;" horiz-adv-x="527" 
d="M177 756v-488h3l199 206h126l-222 -215l241 -259h-130l-214 246h-3v-246h-94v756h94zM410 975l-136 -144h-77l100 144h113z" />
    <glyph glyph-name="Kdotbelow" unicode="&#x1e32;" horiz-adv-x="659" 
d="M185 708v-312h2l316 312h137l-344 -324l365 -384h-142l-332 366h-2v-366h-99v708h99zM436 -135q0 -26 -18 -43t-45 -17q-26 0 -44 17.5t-18 42.5q0 26 18 43.5t44 17.5t44.5 -17.5t18.5 -43.5z" />
    <glyph glyph-name="kdotbelow" unicode="&#x1e33;" horiz-adv-x="527" 
d="M177 756v-488h3l199 206h126l-222 -215l241 -259h-130l-214 246h-3v-246h-94v756h94zM366 -135q0 -26 -18 -43t-45 -17q-26 0 -44 17.5t-18 42.5q0 26 18 43.5t44 17.5t44.5 -17.5t18.5 -43.5z" />
    <glyph glyph-name="Klinebelow" unicode="&#x1e34;" horiz-adv-x="659" 
d="M185 708v-312h2l316 312h137l-344 -324l365 -384h-142l-332 366h-2v-366h-99v708h99zM521 -74v-67h-296v67h296z" />
    <glyph glyph-name="klinebelow" unicode="&#x1e35;" horiz-adv-x="527" 
d="M177 756v-488h3l199 206h126l-222 -215l241 -259h-130l-214 246h-3v-246h-94v756h94zM451 -74v-67h-296v67h296z" />
    <glyph glyph-name="Ldotbelow" unicode="&#x1e36;" horiz-adv-x="511" 
d="M185 708v-620h316v-88h-415v708h99zM356 -135q0 -26 -18 -43t-45 -17q-26 0 -44 17.5t-18 42.5q0 26 18 43.5t44 17.5t44.5 -17.5t18.5 -43.5z" />
    <glyph glyph-name="ldotbelow" unicode="&#x1e37;" horiz-adv-x="260" 
d="M177 756v-756h-94v756h94zM193 -135q0 -26 -18 -43t-45 -17q-26 0 -44 17.5t-18 42.5q0 26 18 43.5t44 17.5t44.5 -17.5t18.5 -43.5z" />
    <glyph glyph-name="Ldotbelowmacron" unicode="&#x1e38;" horiz-adv-x="511" 
d="M185 708v-620h316v-88h-415v708h99zM356 -135q0 -26 -18 -43t-45 -17q-26 0 -44 17.5t-18 42.5q0 26 18 43.5t44 17.5t44.5 -17.5t18.5 -43.5zM441 850v-67h-296v67h296z" />
    <glyph glyph-name="ldotbelowmacron" unicode="&#x1e39;" horiz-adv-x="260" 
d="M177 756v-756h-94v756h94zM193 -135q0 -26 -18 -43t-45 -17q-26 0 -44 17.5t-18 42.5q0 26 18 43.5t44 17.5t44.5 -17.5t18.5 -43.5zM278 898v-67h-296v67h296z" />
    <glyph glyph-name="Llinebelow" unicode="&#x1e3a;" horiz-adv-x="511" 
d="M185 708v-620h316v-88h-415v708h99zM441 -74v-67h-296v67h296z" />
    <glyph glyph-name="llinebelow" unicode="&#x1e3b;" horiz-adv-x="260" 
d="M177 756v-756h-94v756h94zM278 -74v-67h-296v67h296z" />
    <glyph glyph-name="Lcircumflexbelow" unicode="&#x1e3c;" horiz-adv-x="511" 
d="M185 708v-620h316v-88h-415v708h99zM347 -74l112 -144h-91l-75 99l-76 -99h-90l112 144h108z" />
    <glyph glyph-name="lcircumflexbelow" unicode="&#x1e3d;" horiz-adv-x="260" 
d="M177 756v-756h-94v756h94zM184 -74l112 -144h-91l-75 99l-76 -99h-90l112 144h108z" />
    <glyph glyph-name="Macute" unicode="&#x1e3e;" horiz-adv-x="903" 
d="M240 708l212 -544h2l209 544h154v-708h-99v592h-2l-235 -592h-63l-234 592h-2v-592h-96v708h154zM558 927l-136 -144h-77l100 144h113z" />
    <glyph glyph-name="macute" unicode="&#x1e3f;" horiz-adv-x="887" 
d="M170 396h3q19 40 59 65.5t92 25.5q106 0 147 -95q24 45 66.5 70t94.5 25q87 0 132 -54t45 -139v-294h-94v263q0 145 -105 145q-60 0 -90 -45t-30 -107v-256h-94v282q0 126 -100 126q-53 0 -87 -43t-34 -113v-252h-94v372q0 61 -4 102h89q4 -32 4 -78zM550 707l-136 -144
h-77l100 144h113z" />
    <glyph glyph-name="Mdotaccent" unicode="&#x1e40;" horiz-adv-x="903" 
d="M240 708l212 -544h2l209 544h154v-708h-99v592h-2l-235 -592h-63l-234 592h-2v-592h-96v708h154zM514 843q0 -26 -18 -43t-45 -17q-26 0 -44 17.5t-18 42.5q0 26 18 43.5t44 17.5t44.5 -17.5t18.5 -43.5z" />
    <glyph glyph-name="mdotaccent" unicode="&#x1e41;" horiz-adv-x="887" 
d="M170 396h3q19 40 59 65.5t92 25.5q106 0 147 -95q24 45 66.5 70t94.5 25q87 0 132 -54t45 -139v-294h-94v263q0 145 -105 145q-60 0 -90 -45t-30 -107v-256h-94v282q0 126 -100 126q-53 0 -87 -43t-34 -113v-252h-94v372q0 61 -4 102h89q4 -32 4 -78zM506 623
q0 -26 -18 -43t-45 -17q-26 0 -44 17.5t-18 42.5q0 26 18 43.5t44 17.5t44.5 -17.5t18.5 -43.5z" />
    <glyph glyph-name="Mdotbelow" unicode="&#x1e42;" horiz-adv-x="903" 
d="M240 708l212 -544h2l209 544h154v-708h-99v592h-2l-235 -592h-63l-234 592h-2v-592h-96v708h154zM514 -135q0 -26 -18 -43t-45 -17q-26 0 -44 17.5t-18 42.5q0 26 18 43.5t44 17.5t44.5 -17.5t18.5 -43.5z" />
    <glyph glyph-name="mdotbelow" unicode="&#x1e43;" horiz-adv-x="887" 
d="M170 396h3q19 40 59 65.5t92 25.5q106 0 147 -95q24 45 66.5 70t94.5 25q87 0 132 -54t45 -139v-294h-94v263q0 145 -105 145q-60 0 -90 -45t-30 -107v-256h-94v282q0 126 -100 126q-53 0 -87 -43t-34 -113v-252h-94v372q0 61 -4 102h89q4 -32 4 -78zM506 -135
q0 -26 -18 -43t-45 -17q-26 0 -44 17.5t-18 42.5q0 26 18 43.5t44 17.5t44.5 -17.5t18.5 -43.5z" />
    <glyph glyph-name="Ndotaccent" unicode="&#x1e44;" horiz-adv-x="772" 
d="M215 708l370 -566h2v566h99v-708h-125l-374 578h-2v-578h-99v708h129zM449 843q0 -26 -18 -43t-45 -17q-26 0 -44 17.5t-18 42.5q0 26 18 43.5t44 17.5t44.5 -17.5t18.5 -43.5z" />
    <glyph glyph-name="ndotaccent" unicode="&#x1e45;" horiz-adv-x="582" 
d="M77 474h89q4 -32 4 -78h3q18 39 60.5 65t93.5 26q87 0 132 -54t45 -139v-294h-94v263q0 145 -108 145q-57 0 -92 -42.5t-35 -113.5v-252h-94v372q0 61 -4 102zM353 623q0 -26 -18 -43t-45 -17q-26 0 -44 17.5t-18 42.5q0 26 18 43.5t44 17.5t44.5 -17.5t18.5 -43.5z" />
    <glyph glyph-name="Ndotbelow" unicode="&#x1e46;" horiz-adv-x="772" 
d="M215 708l370 -566h2v566h99v-708h-125l-374 578h-2v-578h-99v708h129zM449 -135q0 -26 -18 -43t-45 -17q-26 0 -44 17.5t-18 42.5q0 26 18 43.5t44 17.5t44.5 -17.5t18.5 -43.5z" />
    <glyph glyph-name="ndotbelow" unicode="&#x1e47;" horiz-adv-x="582" 
d="M77 474h89q4 -32 4 -78h3q18 39 60.5 65t93.5 26q87 0 132 -54t45 -139v-294h-94v263q0 145 -108 145q-57 0 -92 -42.5t-35 -113.5v-252h-94v372q0 61 -4 102zM353 -135q0 -26 -18 -43t-45 -17q-26 0 -44 17.5t-18 42.5q0 26 18 43.5t44 17.5t44.5 -17.5t18.5 -43.5z" />
    <glyph glyph-name="Nlinebelow" unicode="&#x1e48;" horiz-adv-x="772" 
d="M215 708l370 -566h2v566h99v-708h-125l-374 578h-2v-578h-99v708h129zM534 -74v-67h-296v67h296z" />
    <glyph glyph-name="nlinebelow" unicode="&#x1e49;" horiz-adv-x="582" 
d="M77 474h89q4 -32 4 -78h3q18 39 60.5 65t93.5 26q87 0 132 -54t45 -139v-294h-94v263q0 145 -108 145q-57 0 -92 -42.5t-35 -113.5v-252h-94v372q0 61 -4 102zM438 -74v-67h-296v67h296z" />
    <glyph glyph-name="Ncircumflexbelow" unicode="&#x1e4a;" horiz-adv-x="772" 
d="M215 708l370 -566h2v566h99v-708h-125l-374 578h-2v-578h-99v708h129zM440 -74l112 -144h-91l-75 99l-76 -99h-90l112 144h108z" />
    <glyph glyph-name="ncircumflexbelow" unicode="&#x1e4b;" horiz-adv-x="582" 
d="M77 474h89q4 -32 4 -78h3q18 39 60.5 65t93.5 26q87 0 132 -54t45 -139v-294h-94v263q0 145 -108 145q-57 0 -92 -42.5t-35 -113.5v-252h-94v372q0 61 -4 102zM344 -74l112 -144h-91l-75 99l-76 -99h-90l112 144h108z" />
    <glyph glyph-name="Otildeacute" unicode="&#x1e4c;" horiz-adv-x="849" 
d="M693 355q0 120 -74.5 202t-194.5 82q-119 0 -193 -82t-74 -202q0 -121 74 -202.5t193 -81.5q121 0 195 81.5t74 202.5zM800 355q0 -163 -106.5 -268t-269.5 -105t-268.5 104.5t-105.5 268.5q0 165 105.5 268t268.5 103t269.5 -103.5t106.5 -267.5zM307 801h-55
q20 116 102 116q33 0 75 -20q50 -22 67 -22q34 0 48 46h54q-20 -116 -102 -116q-31 0 -77 21q-42 21 -65 21q-33 0 -47 -46zM532 1140l-136 -144h-77l100 144h113z" />
    <glyph glyph-name="otildeacute" unicode="&#x1e4d;" horiz-adv-x="610" 
d="M463 238q0 72 -42.5 121.5t-115.5 49.5t-115.5 -49.5t-42.5 -121.5t42.5 -122t115.5 -50t115.5 50t42.5 122zM561 238q0 -109 -73 -180t-183 -71t-182.5 70.5t-72.5 180.5q0 109 72.5 179t182.5 70t183 -70t73 -179zM187 563h-55q20 116 102 116q33 0 75 -20
q49 -22 67 -22q34 0 48 46h54q-20 -116 -102 -116q-31 0 -77 21q-42 21 -65 21q-33 0 -47 -46zM412 901l-136 -144h-77l100 144h113z" />
    <glyph glyph-name="Otildedieresis" unicode="&#x1e4e;" horiz-adv-x="849" 
d="M693 355q0 120 -74.5 202t-194.5 82q-119 0 -193 -82t-74 -202q0 -121 74 -202.5t193 -81.5q121 0 195 81.5t74 202.5zM800 355q0 -163 -106.5 -268t-269.5 -105t-268.5 104.5t-105.5 268.5q0 165 105.5 268t268.5 103t269.5 -103.5t106.5 -267.5zM307 801h-55
q20 116 102 116q33 0 75 -20q50 -22 67 -22q34 0 48 46h54q-20 -116 -102 -116q-31 0 -77 21q-42 21 -65 21q-33 0 -47 -46zM460 1056q0 25 18 43t44 18t44 -17.5t18 -43.5q0 -25 -18 -42.5t-44 -17.5t-44 18t-18 42zM266 1056q0 25 18 43t44 18t44 -17.5t18 -43.5
q0 -25 -18 -42.5t-44 -17.5t-44 18t-18 42z" />
    <glyph glyph-name="otildedieresis" unicode="&#x1e4f;" horiz-adv-x="610" 
d="M463 238q0 72 -42.5 121.5t-115.5 49.5t-115.5 -49.5t-42.5 -121.5t42.5 -122t115.5 -50t115.5 50t42.5 122zM561 238q0 -109 -73 -180t-183 -71t-182.5 70.5t-72.5 180.5q0 109 72.5 179t182.5 70t183 -70t73 -179zM187 563h-55q20 116 102 116q33 0 75 -20
q49 -22 67 -22q34 0 48 46h54q-20 -116 -102 -116q-31 0 -77 21q-42 21 -65 21q-33 0 -47 -46zM340 817q0 25 18 43t44 18t44 -17.5t18 -43.5q0 -25 -18 -42.5t-44 -17.5t-44 18t-18 42zM146 817q0 25 18 43t44 18t44 -17.5t18 -43.5q0 -25 -18 -42.5t-44 -17.5t-44 18
t-18 42z" />
    <glyph glyph-name="Omacrongrave" unicode="&#x1e50;" horiz-adv-x="849" 
d="M693 355q0 120 -74.5 202t-194.5 82q-119 0 -193 -82t-74 -202q0 -121 74 -202.5t193 -81.5q121 0 195 81.5t74 202.5zM800 355q0 -163 -106.5 -268t-269.5 -105t-268.5 104.5t-105.5 268.5q0 165 105.5 268t268.5 103t269.5 -103.5t106.5 -267.5zM573 868v-67h-296v67
h296zM455 943l-136 144h113l100 -144h-77z" />
    <glyph glyph-name="omacrongrave" unicode="&#x1e51;" horiz-adv-x="610" 
d="M463 238q0 72 -42.5 121.5t-115.5 49.5t-115.5 -49.5t-42.5 -121.5t42.5 -122t115.5 -50t115.5 50t42.5 122zM561 238q0 -109 -73 -180t-183 -71t-182.5 70.5t-72.5 180.5q0 109 72.5 179t182.5 70t183 -70t73 -179zM453 630v-67h-296v67h296zM335 704l-136 144h113
l100 -144h-77z" />
    <glyph glyph-name="Omacronacute" unicode="&#x1e52;" horiz-adv-x="849" 
d="M693 355q0 120 -74.5 202t-194.5 82q-119 0 -193 -82t-74 -202q0 -121 74 -202.5t193 -81.5q121 0 195 81.5t74 202.5zM800 355q0 -163 -106.5 -268t-269.5 -105t-268.5 104.5t-105.5 268.5q0 165 105.5 268t268.5 103t269.5 -103.5t106.5 -267.5zM573 868v-67h-296v67
h296zM532 1087l-136 -144h-77l100 144h113z" />
    <glyph glyph-name="omacronacute" unicode="&#x1e53;" horiz-adv-x="610" 
d="M463 238q0 72 -42.5 121.5t-115.5 49.5t-115.5 -49.5t-42.5 -121.5t42.5 -122t115.5 -50t115.5 50t42.5 122zM561 238q0 -109 -73 -180t-183 -71t-182.5 70.5t-72.5 180.5q0 109 72.5 179t182.5 70t183 -70t73 -179zM453 630v-67h-296v67h296zM412 848l-136 -144h-77
l100 144h113z" />
    <glyph glyph-name="Pacute" unicode="&#x1e54;" horiz-adv-x="595" 
d="M185 624v-229h105q165 0 165 116q0 113 -163 113h-107zM86 0v708h216q119 0 186 -48.5t67 -148.5q0 -101 -70 -150.5t-188 -49.5h-112v-311h-99zM427 927l-136 -144h-77l100 144h113z" />
    <glyph glyph-name="pacute" unicode="&#x1e55;" horiz-adv-x="634" 
d="M487 238q0 71 -42 121t-116 50q-70 0 -115 -51t-45 -121t45 -120.5t115 -50.5q74 0 116 50.5t42 121.5zM175 71v-311h-94v714h92v-74h3q24 40 68.5 63.5t102.5 23.5q104 0 170.5 -71.5t66.5 -177.5q0 -107 -66 -179t-173 -72q-51 0 -96 22.5t-71 61.5h-3zM439 707
l-136 -144h-77l100 144h113z" />
    <glyph glyph-name="uni1E56" unicode="&#x1e56;" horiz-adv-x="595" 
d="M361 845q0 -26 -18 -43t-45 -17q-26 0 -44 17.5t-18 42.5q0 26 18 43.5t44 17.5t44.5 -17.5t18.5 -43.5zM185 624v-229h105q165 0 165 116q0 113 -163 113h-107zM86 0v708h216q119 0 186 -48.5t67 -148.5q0 -101 -70 -150.5t-188 -49.5h-112v-311h-99z" />
    <glyph glyph-name="uni1E57" unicode="&#x1e57;" horiz-adv-x="634" 
d="M382 645q0 -26 -18 -43t-45 -17q-26 0 -44 17.5t-18 42.5q0 26 18 43.5t44 17.5t44.5 -17.5t18.5 -43.5zM487 238q0 71 -42 121t-116 50q-70 0 -115 -51t-45 -121t45 -120.5t115 -50.5q74 0 116 50.5t42 121.5zM175 71v-311h-94v714h92v-74h3q24 40 68.5 63.5t102.5 23.5
q104 0 170.5 -71.5t66.5 -177.5q0 -107 -66 -179t-173 -72q-51 0 -96 22.5t-71 61.5h-3z" />
    <glyph glyph-name="Rdotaccent" unicode="&#x1e58;" horiz-adv-x="614" 
d="M185 624v-226h114q75 0 120.5 27.5t45.5 86.5q0 112 -159 112h-121zM185 315v-315h-99v708h227q112 0 182 -47t70 -149q0 -76 -47 -125t-125 -62l198 -325h-120l-180 315h-106zM401 843q0 -26 -18 -43t-45 -17q-26 0 -44 17.5t-18 42.5q0 26 18 43.5t44 17.5t44.5 -17.5
t18.5 -43.5z" />
    <glyph glyph-name="rdotaccent" unicode="&#x1e59;" horiz-adv-x="362" 
d="M81 0v372q0 61 -4 102h89q4 -32 4 -80h3q21 43 59.5 68t85.5 25q24 0 37 -4l-4 -87q-22 5 -43 5q-65 0 -99 -43.5t-34 -108.5v-249h-94zM279 623q0 -26 -18 -43t-45 -17q-26 0 -44 17.5t-18 42.5q0 26 18 43.5t44 17.5t44.5 -17.5t18.5 -43.5z" />
    </font>
</defs>
</svg>
