<?xml version="1.0" standalone="no"?>
<!DOCTYPE svg PUBLIC "-//W3C//DTD SVG 1.1//EN" "http://www.w3.org/Graphics/SVG/1.1/DTD/svg11.dtd" >
<svg xmlns="http://www.w3.org/2000/svg" xmlns:xlink="http://www.w3.org/1999/xlink" version="1.1">
<metadata></metadata>
<defs>
<font id="omnessemibold" horiz-adv-x="522" >
<font-face units-per-em="2048" ascent="1638" descent="-410" />
<missing-glyph horiz-adv-x="348" />
<glyph unicode="&#xfb01;" horiz-adv-x="1304" d="M12 881v16q0 102 121 102h82v54q0 383 346 383q125 0 189.5 -45.5t64.5 -112.5q0 -20 -6 -39.5t-14.5 -34t-17.5 -25t-15.5 -15.5t-7.5 -3q-57 53 -138 53q-64 0 -93 -38t-29 -123v-54h129q120 0 120 -106v-19q0 -100 -120 -100h-119v-645q0 -75 -33 -106t-96 -31h-31 q-129 0 -129 137v645h-82q-121 0 -121 107zM883 1313q0 68 42 106.5t117 38.5q77 0 119.5 -38t42.5 -107t-43 -108.5t-117 -39.5q-75 0 -118 39.5t-43 108.5zM897 129v741q0 140 131 140h29q63 0 97 -32.5t34 -107.5v-741q0 -137 -129 -137h-29q-64 0 -98.5 31t-34.5 106z " />
<glyph unicode="&#xfb02;" horiz-adv-x="1304" d="M12 881v16q0 102 121 102h82v54q0 383 346 383q125 0 189.5 -45.5t64.5 -112.5q0 -20 -6 -39.5t-14.5 -34t-17.5 -25t-15.5 -15.5t-7.5 -3q-57 53 -138 53q-64 0 -93 -38t-29 -123v-54h129q120 0 120 -106v-19q0 -100 -120 -100h-119v-645q0 -75 -33 -106t-96 -31h-31 q-129 0 -129 137v645h-82q-121 0 -121 107zM897 129v1262q0 5 15 12.5t42 13.5t54 6q35 0 64.5 -10.5t56.5 -34.5t43 -71.5t16 -114.5v-1063q0 -137 -129 -137h-29q-64 0 -98.5 31t-34.5 106z" />
<glyph horiz-adv-x="0" />
<glyph horiz-adv-x="682" />
<glyph unicode=" "  horiz-adv-x="348" />
<glyph unicode="&#x09;" horiz-adv-x="348" />
<glyph unicode="&#xa0;" horiz-adv-x="348" />
<glyph unicode="!" horiz-adv-x="567" d="M115 1161q-18 84 21.5 133t119.5 49h51q83 0 123.5 -48.5t22.5 -133.5l-80 -657q-11 -48 -28 -70t-48 -22h-31q-28 0 -44 22t-27 70zM127 121v29q0 135 137 135h35q139 0 139 -135v-29q0 -135 -139 -135h-35q-137 0 -137 135z" />
<glyph unicode="&#x22;" horiz-adv-x="880" d="M96 1184q-12 79 23.5 117t122.5 38q88 0 123.5 -38t23.5 -117l-59 -383q-8 -39 -23.5 -56.5t-46.5 -17.5h-35q-31 0 -46 17.5t-21 56.5zM489 1184q-12 79 23.5 117t122.5 38q88 0 123.5 -38t23.5 -117l-61 -383q-6 -38 -21.5 -56t-46.5 -18h-35q-31 0 -46 17.5t-23 56.5z " />
<glyph unicode="#" horiz-adv-x="1390" d="M16 393v33q0 92 119 92h178l88 289h-110q-119 0 -119 92v33q0 90 119 90h178l96 313q2 5 11.5 9t21.5 4q43 0 85 -36t42 -98q0 -32 -14 -75l-37 -117h264l96 313q2 5 11.5 9t21.5 4q43 0 85 -36t42 -98q0 -32 -14 -75l-37 -117h112q119 0 119 -90v-31q0 -94 -119 -94 h-178l-90 -289h111q119 0 119 -90v-33q0 -92 -119 -92h-176l-97 -313q-3 -10 -32 -10q-44 0 -85.5 34.5t-41.5 98.5q0 32 14 75l35 115h-262l-97 -313q-3 -10 -32 -10q-44 0 -85.5 34.5t-41.5 98.5q0 32 14 75l35 115h-111q-119 0 -119 90zM516 516h266l92 293h-268z" />
<glyph unicode="$" horiz-adv-x="1148" d="M66 256q0 25 10 49.5t25 41.5t30 30t26.5 19t14.5 3q61 -74 167 -123t222 -49q107 0 168.5 42t61.5 112q0 28 -9 50t-30.5 39t-41.5 29t-58.5 24t-63.5 18.5t-74 17.5q-45 10 -80.5 19.5t-81 26t-79.5 36t-69 48.5t-57.5 64t-36.5 83t-14 104q0 147 97 247.5t264 131.5 v76q0 71 27.5 105t88.5 34h13q62 0 89 -33t27 -106v-70q164 -18 258.5 -83.5t94.5 -147.5q0 -26 -11 -51.5t-26.5 -43.5t-31.5 -32t-28 -20t-14 -3q-60 70 -154 114t-192 44q-102 0 -161.5 -42t-59.5 -112q0 -31 14 -55t34 -40t59.5 -30.5t72.5 -23t90 -21.5q68 -15 119 -30 t114.5 -46t104.5 -69.5t69.5 -100.5t28.5 -139q0 -155 -101.5 -257t-281.5 -130v-80q0 -71 -28.5 -105t-89.5 -34h-11q-63 0 -89.5 33t-26.5 106v76q-180 20 -284.5 92t-104.5 162z" />
<glyph unicode="%" horiz-adv-x="1511" d="M37 1012v16q0 140 94.5 229t243.5 89t241.5 -88t92.5 -228v-16q0 -140 -94 -229t-242 -89q-149 0 -242.5 88t-93.5 228zM145 78q0 26 12.5 48.5t43.5 55.5l1030 1168q7 7 38 -2.5t61 -36t30 -60.5q0 -48 -53 -106l-1033 -1168q-6 -7 -37 3.5t-61.5 37.5t-30.5 60z M238 1006q0 -68 38 -110t99 -42q59 0 97 41.5t38 110.5v30q0 69 -38.5 110.5t-98.5 41.5q-61 0 -98 -40.5t-37 -111.5v-30zM803 297v16q0 140 94.5 229t243.5 89q148 0 241 -88t93 -228v-16q0 -139 -94 -228t-242 -89q-149 0 -242.5 87.5t-93.5 227.5zM1004 291 q0 -68 38 -109t99 -41q59 0 97 40.5t38 109.5v31q0 69 -38.5 111t-98.5 42q-61 0 -98 -41t-37 -112v-31z" />
<glyph unicode="&#x26;" horiz-adv-x="1406" d="M39 373q0 133 80.5 227t226.5 145q-119 119 -119 263q0 152 114 248t298 96q167 0 271 -89.5t104 -230.5q0 -112 -76 -193t-215 -126l252 -219q36 64 86 217q29 76 62.5 106.5t86.5 30.5q39 0 71 -18.5t45.5 -36t12.5 -23.5q-54 -232 -194 -428l268 -231q2 -1 -2.5 -14 t-17 -31.5t-30.5 -36.5t-46.5 -30.5t-61.5 -12.5q-97 0 -172 84l-94 90q-187 -187 -452 -187q-232 0 -365 104.5t-133 295.5zM299 401q0 -102 71.5 -161.5t186.5 -59.5q153 0 277 127l-357 318q-178 -72 -178 -224zM489 1004q0 -95 95 -187q103 32 150.5 79t47.5 114 q0 63 -40.5 104t-104.5 41q-69 0 -108.5 -42.5t-39.5 -108.5z" />
<glyph unicode="'" horiz-adv-x="487" d="M96 1184q-12 79 23.5 117t122.5 38q88 0 123.5 -38t23.5 -117l-59 -383q-8 -39 -23.5 -56.5t-46.5 -17.5h-35q-31 0 -46 17.5t-21 56.5z" />
<glyph unicode="(" horiz-adv-x="829" d="M78 469q0 145 35 281.5t95 241.5t136.5 185t163.5 122t172 42q66 0 101.5 -31t35.5 -91q0 -32 -18.5 -61t-30.5 -34q-190 -46 -295.5 -225.5t-105.5 -429.5q0 -166 45.5 -302.5t137 -230t218.5 -124.5q12 -5 30.5 -34t18.5 -61q0 -60 -35.5 -91.5t-101.5 -31.5 q-107 0 -214.5 66t-193.5 179t-140 279t-54 351z" />
<glyph unicode=")" horiz-adv-x="829" d="M12 -283q0 32 18.5 61t30.5 34q191 46 296.5 225t105.5 432q0 250 -106 429.5t-296 225.5q-12 5 -30.5 34t-18.5 61q0 60 36 91t102 31q85 0 172 -42t163.5 -122t136.5 -185t95 -241.5t35 -281.5q0 -185 -54 -351t-140 -279t-193.5 -179t-214.5 -66q-66 0 -102 31.5 t-36 91.5z" />
<glyph unicode="*" horiz-adv-x="841" d="M41.5 1019.5q-9.5 21.5 1.5 57.5l2 8q9 35 30.5 47t67.5 5l179 -39l20 174q7 47 25.5 62.5t54.5 15.5h8q35 0 54 -16t26 -62l16 -174l176 39q45 7 68 -6t33 -46l2 -8q11 -34 2 -56.5t-51 -43.5l-162 -74l92 -160q38 -70 -20 -110l-7 -4q-18 -11 -32.5 -15t-34.5 3t-41 28 l-129 137l-125 -137q-32 -31 -59 -32.5t-52 16.5l-6 4q-60 33 -18 110l90 160l-160 74q-41 21 -50.5 42.5z" />
<glyph unicode="+" horiz-adv-x="1097" d="M57 524v15q0 46 30 73t89 27h258v264q0 59 28.5 89t76.5 30h22q47 0 75 -30t28 -89v-264h258q118 0 118 -100v-15q0 -102 -118 -102h-258v-279q0 -59 -28 -88.5t-75 -29.5h-22q-48 0 -76.5 29.5t-28.5 88.5v279h-258q-60 0 -89.5 27t-29.5 75z" />
<glyph unicode="," horiz-adv-x="489" d="M23 -160l92 326q16 69 43.5 97t93.5 28h31q114 0 114 -125v-12q0 -78 -65 -154l-162 -225q-18 -19 -46 -23.5t-52.5 4.5t-39.5 31.5t-9 52.5z" />
<glyph unicode="-" horiz-adv-x="876" d="M74 479v43q0 48 31.5 79.5t87.5 31.5h491q56 0 87.5 -31.5t31.5 -79.5v-43q0 -48 -31.5 -79t-87.5 -31h-491q-56 0 -87.5 31t-31.5 79z" />
<glyph unicode="." horiz-adv-x="489" d="M88 121v29q0 135 135 135h37q139 0 139 -135v-29q0 -135 -139 -135h-37q-135 0 -135 135z" />
<glyph unicode="/" horiz-adv-x="735" d="M-6 -313q0 30 16 86l494 1562q0 2 8 4.5t22.5 4.5t30.5 2q26 0 49 -4.5t47 -16t38 -35.5t14 -59q0 -23 -17 -86l-491 -1563q-5 -10 -62 -10q-26 0 -49.5 4.5t-47.5 16t-38 35.5t-14 59z" />
<glyph unicode="0" horiz-adv-x="1316" d="M78 596v131q0 288 156 456.5t425 168.5t424.5 -167.5t155.5 -455.5v-131q0 -288 -155.5 -456.5t-426.5 -168.5t-425 166.5t-154 456.5zM383 580q0 -175 71 -268t205 -93t205.5 93t71.5 266v170q0 174 -72.5 268t-206.5 94t-204 -91.5t-70 -268.5v-170z" />
<glyph unicode="1" horiz-adv-x="800" d="M37 1087q0 28 7.5 53.5t18.5 42t22.5 28t20 16.5t11.5 4q57 -45 125 -45q66 0 115 42t59 111h88q133 0 133 -139v-1075q0 -139 -133 -139h-37q-129 0 -129 139v829q-50 -36 -117 -36q-80 0 -132 47t-52 122z" />
<glyph unicode="2" horiz-adv-x="1134" d="M70 154v63q0 73 25.5 137.5t62.5 110.5t95.5 90t107.5 71.5t116 59.5q17 8 53 24.5t52 24.5t45.5 23t44 24.5t35.5 24t31.5 27t21.5 28.5t15.5 33.5t4.5 36.5q0 85 -58 131.5t-165 46.5q-119 0 -190 -66t-97 -167q0 -2 -20 -2.5t-49 5.5t-58 19.5t-49 43.5t-20 73 q0 63 33 122.5t94.5 108t158.5 78t215 29.5q236 0 367 -109.5t131 -302.5q0 -71 -21.5 -129.5t-53 -97.5t-86.5 -76.5t-100 -59t-116 -51.5q-67 -29 -105 -46.5t-87 -45.5t-76 -52.5t-50.5 -59.5t-31.5 -76h602q144 0 144 -113v-14q0 -60 -34 -90.5t-110 -30.5h-696 q-103 0 -142.5 31.5t-39.5 122.5z" />
<glyph unicode="3" horiz-adv-x="1155" d="M29 274q0 43 18 74.5t44 46t52 21.5t44.5 6.5t19.5 -4.5q32 -103 118.5 -157t211.5 -54q120 0 190 50t70 138q0 183 -236 183h-69q-142 0 -142 102v16q0 103 137 103h99q91 0 139.5 40.5t48.5 112.5q0 78 -64 123t-178 45q-220 0 -296 -190q-2 -1 -19 -4t-43.5 6 t-51.5 22.5t-43 44.5t-18 72q0 110 133.5 195.5t342.5 85.5q252 0 387 -94t135 -269q0 -207 -232 -276q126 -41 192 -127t66 -209q0 -191 -144 -297.5t-404 -106.5q-117 0 -215.5 27t-161 70.5t-97 96.5t-34.5 107z" />
<glyph unicode="4" horiz-adv-x="1249" d="M49 453v51q1 38 15.5 72t48.5 86l405 565q31 48 59.5 70.5t71 32t119.5 9.5q118 0 167.5 -44t49.5 -152v-590h102q69 0 99.5 -26t30.5 -83v-10q0 -58 -30.5 -84t-99.5 -26h-102v-199q0 -139 -127 -139h-27q-59 0 -90.5 37t-31.5 102v199h-490q-78 0 -124 36t-46 93z M315 547h406v573z" />
<glyph unicode="5" horiz-adv-x="1128" d="M43 231q0 41 29.5 78t59 54.5t34.5 11.5q132 -178 366 -178q127 0 201 58t74 157q0 102 -68.5 157.5t-195.5 55.5q-167 0 -275 -82q-90 3 -134 45t-44 131v438q0 81 37 124.5t109 43.5h643q141 0 141 -119v-10q0 -60 -34.5 -88.5t-106.5 -28.5h-535v-293q120 45 242 45 q223 0 356 -112.5t133 -306.5q0 -202 -144.5 -320.5t-393.5 -118.5q-220 0 -357 80t-137 178z" />
<glyph unicode="6" horiz-adv-x="1234" d="M78 596v119q0 296 159.5 466.5t436.5 170.5q210 0 330 -75t120 -181q0 -33 -15 -59t-36 -40.5t-42.5 -23t-37 -10.5t-16.5 0q-95 149 -283 149q-319 0 -319 -389v-10q63 58 156.5 94.5t201.5 36.5q204 0 324.5 -105t120.5 -293v-10q0 -204 -146.5 -333.5t-378.5 -129.5 q-270 0 -422.5 169t-152.5 454zM381 520q8 -153 76.5 -236t189.5 -83q105 0 173.5 59.5t68.5 155.5v10q0 100 -62 153.5t-178 53.5q-145 0 -268 -113z" />
<glyph unicode="7" horiz-adv-x="1114" d="M35 1190v18q0 117 133 117h711q62 0 103 -11.5t60 -34.5t26 -47t7 -58v-19q0 -18 -5 -39t-10 -36.5t-17.5 -40.5t-18.5 -36.5t-22 -39t-19 -33.5l-459 -838q-60 -106 -155 -106q-45 0 -88.5 23t-64.5 48.5t-15 36.5l551 977h-584q-133 0 -133 119z" />
<glyph unicode="8" horiz-adv-x="1228" d="M61 358q0 115 67 198t198 124q-226 78 -226 297q0 169 142.5 274t373.5 105q234 0 370 -102t136 -273q0 -218 -221 -299q132 -39 198 -122t66 -202q0 -173 -150.5 -278t-402.5 -105q-259 0 -405 102t-146 281zM356 387q0 -87 69 -140.5t189 -53.5q123 0 190.5 52 t67.5 142t-69.5 143.5t-188.5 53.5q-120 0 -189 -53.5t-69 -143.5zM383 952q0 -80 63 -130t168 -50q107 0 169.5 48.5t62.5 131.5t-62.5 134t-169.5 51q-110 0 -170.5 -50t-60.5 -135z" />
<glyph unicode="9" horiz-adv-x="1234" d="M57 870v9q0 205 147 339t378 134q266 0 419.5 -166t153.5 -457v-127q0 -308 -155.5 -469.5t-448.5 -161.5q-212 0 -329.5 68.5t-117.5 165.5q0 52 25 88.5t49.5 48.5t30.5 8q125 -139 321 -139q169 0 249.5 92t80.5 289l-2 12q-63 -58 -156 -94.5t-200 -36.5 q-204 0 -324.5 104.5t-120.5 292.5zM346 891q0 -100 62 -153.5t178 -53.5q73 0 142.5 31t123.5 84q-5 154 -74 239.5t-190 85.5q-104 0 -173 -64.5t-69 -162.5v-6z" />
<glyph unicode=":" d="M104 121v29q0 135 138 135h34q140 0 140 -135v-29q0 -135 -140 -135h-34q-138 0 -138 135zM104 745v29q0 137 138 137h34q140 0 140 -137v-29q0 -135 -140 -135h-34q-138 0 -138 135z" />
<glyph unicode=";" d="M41 -160l90 326q19 70 45.5 97.5t93.5 27.5h29q56 0 86.5 -31t30.5 -94v-12q0 -77 -66 -154l-164 -225q-18 -19 -46 -23.5t-52.5 4.5t-39 31.5t-7.5 52.5zM104 745v29q0 137 138 137h34q140 0 140 -137v-29q0 -135 -140 -135h-34q-138 0 -138 135z" />
<glyph unicode="&#x3c;" horiz-adv-x="940" d="M78 530q0 98 86 144l622 338q7 2 24 -15t33 -50t17 -68q4 -97 -121 -158l-372 -189l372 -188q125 -61 121 -158q-1 -35 -16.5 -68.5t-32.5 -50.5t-25 -14l-622 334q-86 49 -86 143z" />
<glyph unicode="=" horiz-adv-x="1097" d="M88 268v25q0 48 29.5 79t89.5 31h686q58 0 88.5 -31.5t30.5 -78.5v-25q0 -49 -30 -80.5t-89 -31.5h-686q-60 0 -89.5 31.5t-29.5 80.5zM88 764v24q0 48 30 79.5t89 31.5h686q58 0 88.5 -31.5t30.5 -79.5v-24q0 -49 -30.5 -81t-88.5 -32h-686q-60 0 -89.5 32t-29.5 81z " />
<glyph unicode="&#x3e;" horiz-adv-x="937" d="M78 186q0 98 123 158l370 188l-370 189q-125 61 -121 158q1 35 16.5 68t32.5 50t25 15l622 -338q84 -45 84 -144q0 -95 -84 -143l-622 -334q-8 -3 -25.5 14t-33.5 50.5t-17 68.5z" />
<glyph unicode="?" horiz-adv-x="1021" d="M47 1022q0 56 30 113t86 106t148 80t203 31q214 0 338.5 -100.5t124.5 -266.5q0 -69 -20.5 -123t-54 -89t-74 -63.5t-82 -53t-76.5 -51t-58.5 -64.5t-27.5 -86q-15 -56 -117 -56q-58 0 -91 26t-32 75q2 69 22.5 123.5t52 88t69 60t75 46t68.5 39t50 46.5t19 62 q0 70 -50 109.5t-140 39.5q-120 0 -186 -68t-80 -167q-1 -1 -11.5 -1.5t-28 1.5t-38.5 6t-42 14.5t-38 25.5t-28 40.5t-11 56.5zM313 121v29q0 135 136 135h36q140 0 140 -135v-29q0 -135 -140 -135h-36q-136 0 -136 135z" />
<glyph unicode="@" horiz-adv-x="1515" d="M80 662q0 149 51 277.5t140.5 219t218 142t278.5 51.5q157 0 285 -46t213 -127.5t130.5 -193t45.5 -242.5q0 -195 -86.5 -299t-249.5 -104q-83 0 -142 33.5t-83 91.5q-26 -59 -79 -93t-120 -34q-123 0 -197.5 87.5t-74.5 221.5q0 139 76.5 225t195.5 86q116 0 186 -98 q23 92 117 92q19 0 36.5 -5t26.5 -10.5t9 -8.5v-312q0 -76 25 -109.5t81 -33.5q69 0 110.5 68.5t41.5 199.5q0 104 -35 192.5t-102 156t-172.5 105.5t-237.5 38q-248 0 -405.5 -160.5t-157.5 -410.5q0 -249 159.5 -409.5t411.5 -160.5q209 0 350 117q37 29 68 29 q22 0 41.5 -19t28 -38t4.5 -23q-86 -84 -214 -134.5t-278 -50.5q-312 0 -504 191t-192 498zM602 647q0 -67 36.5 -108t96.5 -41q52 0 87.5 29t39.5 79v115q-20 35 -52.5 56.5t-72.5 21.5q-61 0 -98 -41.5t-37 -110.5z" />
<glyph unicode="A" horiz-adv-x="1343" d="M20 78l453 1169q13 45 56.5 67.5t140.5 22.5t138 -22t56 -68l463 -1167q5 -13 -17 -35t-63.5 -40.5t-83.5 -18.5q-120 0 -174 143l-80 209h-485l-80 -213q-49 -139 -166 -139q-58 0 -112 35q-47 30 -47 51q0 3 1 6zM483 563h365l-182 481z" />
<glyph unicode="B" horiz-adv-x="1304" d="M119 168v989q0 79 41.5 123.5t115.5 44.5h455q224 0 342.5 -87.5t118.5 -250.5q0 -216 -238 -282q144 -33 215.5 -118.5t71.5 -209.5q0 -193 -128 -285t-406 -92h-431q-74 0 -115.5 44.5t-41.5 123.5zM418 225h258q135 0 195.5 43t60.5 138q0 87 -62 128t-192 41h-260 v-350zM418 768h241q104 0 163 45t59 125q0 162 -222 162h-241v-332z" />
<glyph unicode="C" horiz-adv-x="1339" d="M76 662q0 303 190.5 496.5t493.5 193.5q101 0 187.5 -21t144.5 -53.5t99.5 -73.5t60 -79.5t18.5 -71.5q0 -27 -9.5 -50.5t-24.5 -39t-33.5 -29t-36.5 -20t-34 -12t-25.5 -5t-10.5 1.5q-49 85 -136 132.5t-188 47.5q-169 0 -277 -115t-108 -300q0 -184 109.5 -301 t277.5 -117q116 0 204 53t126 147q3 1 20.5 0.5t44.5 -12.5t52.5 -27.5t44 -46t18.5 -67.5q0 -35 -19.5 -76.5t-62 -85t-102.5 -78.5t-150 -57.5t-194 -22.5q-198 0 -353 87t-241 244t-86 358z" />
<glyph unicode="D" horiz-adv-x="1398" d="M119 166v991q0 78 44.5 123t115.5 45h335q333 0 523 -175t190 -482q0 -309 -194.5 -488.5t-528.5 -179.5h-317q-70 0 -119 48.5t-49 117.5zM418 258h184q199 0 311.5 107.5t112.5 300.5q0 189 -112 295t-308 106h-188v-809z" />
<glyph unicode="E" horiz-adv-x="1228" d="M119 166v991q0 79 41.5 123.5t115.5 44.5h740q69 0 104 -33t35 -94v-10q0 -127 -139 -127h-594v-262h434q139 0 139 -117v-8q0 -123 -139 -123h-434v-289h604q139 0 139 -119v-12q0 -63 -35 -97t-104 -34h-750q-74 0 -115.5 43.5t-41.5 122.5z" />
<glyph unicode="F" horiz-adv-x="1138" d="M119 160v997q0 79 41.5 123.5t115.5 44.5h685q139 0 139 -121v-12q0 -125 -139 -125h-543v-330h391q139 0 139 -116v-7q0 -122 -139 -122h-383v-361q0 -139 -133 -139h-47q-61 0 -94 44t-33 124z" />
<glyph unicode="G" horiz-adv-x="1472" d="M76 662q0 150 51 278t142 218.5t222 142t285 51.5q231 0 371.5 -89t140.5 -200q0 -33 -15.5 -61.5t-37 -43.5t-44.5 -26.5t-38.5 -12t-19.5 0.5q-56 83 -148 128.5t-194 45.5q-178 0 -293 -123t-115 -320q0 -198 106 -320t283 -122q139 0 231.5 69t106.5 183v35h-236 q-75 0 -110 24t-35 84v12q0 62 34.5 85.5t110.5 23.5h375q69 0 98 -35q27 -33 27 -99v-9v-562q0 -4 -13 -10.5t-37.5 -12t-49.5 -5.5q-143 0 -158 170q-60 -88 -164.5 -136.5t-246.5 -48.5q-188 0 -332 88.5t-220.5 243.5t-76.5 353z" />
<glyph unicode="H" horiz-adv-x="1417" d="M119 129v1067q0 137 127 137h45q131 0 131 -137v-403h573v403q0 137 127 137h43q133 0 133 -137v-1067q0 -137 -133 -137h-43q-62 0 -94.5 35t-32.5 102v408h-573v-408q0 -137 -131 -137h-45q-62 0 -94.5 35t-32.5 102z" />
<glyph unicode="I" horiz-adv-x="573" d="M135 129v1067q0 137 129 137h41q133 0 133 -137v-1067q0 -137 -133 -137h-41q-129 0 -129 137z" />
<glyph unicode="J" horiz-adv-x="1017" d="M39 209q0 32 11.5 60t28 46t33.5 30.5t29 17.5t13 2q41 -63 102.5 -99.5t136.5 -36.5q111 0 159 59t48 199v709q0 137 127 137h43q131 0 131 -137v-713q0 -259 -117.5 -384.5t-353.5 -125.5q-178 0 -284.5 68t-106.5 168z" />
<glyph unicode="K" horiz-adv-x="1257" d="M119 129v1067q0 137 127 137h43q133 0 133 -137v-473l434 512q74 98 166 98q32 0 61.5 -11t49 -27t34 -33.5t20.5 -31t3 -18.5l-449 -536l465 -565q3 -5 -3 -18.5t-21.5 -30.5t-36.5 -32.5t-52 -26.5t-65 -11q-98 0 -166 94l-440 528v-485q0 -137 -133 -137h-43 q-62 0 -94.5 35t-32.5 102z" />
<glyph unicode="L" horiz-adv-x="1103" d="M119 166v1030q0 137 127 137h43q133 0 133 -137v-930h496q139 0 139 -127v-8q0 -131 -139 -131h-642q-74 0 -115.5 43.5t-41.5 122.5z" />
<glyph unicode="M" horiz-adv-x="1554" d="M119 129v1053q0 73 39 112t110 39h84q68 0 99.5 -22.5t58.5 -83.5l268 -629l271 629q28 62 59.5 84t93.5 22h80q74 0 114 -39t40 -112v-1053q0 -69 -28 -103t-91 -34h-47q-119 0 -119 137v789l-221 -537q-21 -47 -36 -61q-33 -33 -118 -33q-18 0 -33 1.5t-26.5 3t-22 6 t-17 7t-13.5 10t-10.5 10.5t-9 13t-6.5 13t-6.5 15t-6.5 15l-222 526v-778q0 -70 -27 -103.5t-91 -33.5h-47q-62 0 -90.5 34t-28.5 103z" />
<glyph unicode="N" horiz-adv-x="1417" d="M119 129v1055q0 72 34.5 110.5t96.5 38.5h37q56 0 85 -18t68 -68l574 -788v737q0 137 129 137h28q127 0 127 -137v-1055q0 -72 -34 -110.5t-95 -38.5h-24q-56 0 -83.5 15.5t-62.5 58.5l-596 819v-756q0 -137 -131 -137h-28q-125 0 -125 137z" />
<glyph unicode="O" horiz-adv-x="1509" d="M72 662q0 199 87.5 356.5t244 245.5t352.5 88q198 0 353.5 -87.5t242 -244.5t86.5 -356q0 -201 -87 -358.5t-243 -245t-354 -87.5t-353.5 87t-242 244t-86.5 358zM373 664q0 -188 106.5 -305t276.5 -117t276.5 116.5t106.5 303.5t-107.5 305t-277.5 118 q-171 0 -276 -115.5t-105 -305.5z" />
<glyph unicode="P" horiz-adv-x="1206" d="M119 129v1028q0 79 41.5 123.5t115.5 44.5h347q264 0 404 -114.5t140 -333.5q0 -221 -137.5 -334t-406.5 -113h-201v-301q0 -65 -33.5 -101t-97.5 -36h-45q-61 0 -94 35t-33 102zM418 657h200q124 0 189 56t65 161t-65.5 160.5t-190.5 55.5h-198v-433z" />
<glyph unicode="Q" horiz-adv-x="1509" d="M72 662q0 199 88 356.5t244.5 245.5t353.5 88q198 0 353 -87t241 -243.5t86 -357.5q0 -233 -135 -414l159 -170q3 -3 -3 -15t-21 -27.5t-34.5 -30t-49 -24.5t-60.5 -10q-93 0 -184 99q-166 -99 -354 -99q-198 0 -354 87t-243 244.5t-87 357.5zM373 662q0 -185 108 -303.5 t277 -118.5q97 0 172 34l-129 136q-39 43 -45 96q-1 7 -1 14q0 43 33 76l13 12q35 24 69 24q12 0 24 -2q47 -12 89 -57l119 -127q45 95 45 216q0 186 -107.5 305.5t-279.5 119.5q-173 0 -280 -119t-107 -306z" />
<glyph unicode="R" horiz-adv-x="1263" d="M119 158v999q0 79 41.5 123.5t115.5 44.5h392q257 0 389.5 -105.5t132.5 -308.5q0 -161 -89 -263t-255 -130l344 -416q4 -4 -0.5 -16.5t-18.5 -28.5t-34 -30.5t-52.5 -24.5t-68.5 -10q-63 0 -106.5 28t-92.5 95l-282 356h-115v-342q0 -65 -33.5 -101t-97.5 -36h-43 q-61 0 -94 43t-33 123zM416 692h231q119 0 179.5 52.5t60.5 146.5q0 97 -62 148t-184 51h-225v-398z" />
<glyph unicode="S" horiz-adv-x="1165" d="M53 240q0 38 27 76.5t54.5 59t33.5 15.5q64 -77 171 -129.5t224 -52.5t179.5 42.5t62.5 119.5q0 51 -39.5 85t-78.5 46t-132 32l-39 9q-72 16 -127.5 33.5t-115 49.5t-98.5 72.5t-64 103t-25 140.5q0 186 140 298t378 112q223 0 349 -74t126 -168q0 -42 -29.5 -82 t-58.5 -60t-33 -16q-61 72 -155.5 118t-196.5 46q-108 0 -168.5 -42.5t-60.5 -115.5q0 -19 4 -34.5t13.5 -28t19 -22t28 -18t32 -14t40 -12t43.5 -10.5t49.5 -11t52.5 -11q77 -17 139.5 -38.5t122 -55t99.5 -75.5t64 -102t24 -133q0 -199 -141 -309.5t-402 -110.5 q-126 0 -227.5 24.5t-161.5 64t-91.5 85.5t-31.5 93z" />
<glyph unicode="T" horiz-adv-x="1239" d="M31 1192v8q0 61 35.5 93t103.5 32h899q139 0 139 -125v-8q0 -131 -139 -131h-297v-932q0 -67 -34 -102t-99 -35h-43q-125 0 -125 137v932h-301q-68 0 -103.5 33.5t-35.5 97.5z" />
<glyph unicode="U" horiz-adv-x="1357" d="M109 557v639q0 68 34 102.5t97 34.5h39q131 0 131 -137v-635q0 -321 270 -321q136 0 202 79.5t66 243.5v633q0 137 131 137h41q129 0 129 -137v-635q0 -287 -145 -435.5t-426 -148.5t-425 147t-144 433z" />
<glyph unicode="V" horiz-adv-x="1320" d="M23 1233q-6 14 19.5 37.5t72 43t92.5 19.5q58 0 103.5 -36.5t66.5 -102.5l291 -856l288 856q22 71 66 105t98 34q45 0 90 -19.5t68.5 -43t17.5 -37.5l-454 -1131q-27 -61 -67.5 -87.5t-112.5 -26.5t-111.5 25.5t-65.5 88.5z" />
<glyph unicode="W" horiz-adv-x="1947" d="M82 1237q-1 5 5.5 15.5t22 24t36.5 25.5t53 20.5t67 8.5q59 0 105 -38.5t63 -127.5l168 -790l201 690q30 121 180 121q69 0 114 -31.5t60 -89.5l199 -688l170 792q16 85 60.5 124.5t105.5 39.5q33 0 63 -8.5t50 -21t35 -26.5t21 -24.5t5 -15.5l-305 -1133 q-15 -64 -59.5 -90t-127.5 -26q-79 0 -122.5 26t-63.5 90l-209 717l-217 -717q-17 -63 -61 -89.5t-123 -26.5q-82 0 -125 25.5t-60 90.5z" />
<glyph unicode="X" horiz-adv-x="1302" d="M39 102l407 560l-399 552q-7 11 18 39t74 54t99 26q101 0 161 -106l254 -396l267 398q62 106 157 106q48 0 94.5 -25t70 -52.5t18.5 -38.5l-406 -557l406 -556q3 -6 -5 -19.5t-26 -30t-41 -31.5t-54.5 -25t-62.5 -10q-105 0 -164 104l-262 400l-266 -402 q-62 -106 -160 -106q-47 0 -93 25t-69.5 52.5t-17.5 38.5z" />
<glyph unicode="Y" horiz-adv-x="1234" d="M4 1217q-3 5 1.5 18t19 29.5t36.5 32t58 26t78 10.5q87 0 143 -104l278 -457l283 455q61 106 146 106q38 0 71.5 -10.5t54.5 -26t36 -32.5t20 -29.5t2 -17.5l-461 -685v-403q0 -137 -133 -137h-41q-129 0 -129 137v403z" />
<glyph unicode="Z" horiz-adv-x="1257" d="M82 127v20q0 60 20 97.5t78 105.5l606 721h-561q-133 0 -133 119v14q0 121 133 121h774q86 0 128 -36t42 -91v-18q0 -42 -14 -78t-30 -57.5t-52 -63.5l-616 -727h600q135 0 135 -119v-14q0 -121 -135 -121h-805q-85 0 -127.5 37t-42.5 90z" />
<glyph unicode="[" horiz-adv-x="763" d="M121 -240v1411q0 79 42 123.5t116 44.5h311q74 0 106.5 -26t32.5 -84v-12q0 -61 -32.5 -88t-106.5 -27h-201v-1274h205q74 0 106.5 -25.5t32.5 -83.5v-12q0 -60 -32.5 -86.5t-106.5 -26.5h-315q-74 0 -116 43.5t-42 122.5z" />
<glyph unicode="\" horiz-adv-x="735" d="M20 1231q0 35 14 59t38 35.5t47 16t49 4.5q16 0 30.5 -2t22.5 -4.5t8 -4.5l494 -1562q16 -56 16 -86q0 -35 -14 -59t-38 -35.5t-46.5 -16t-48.5 -4.5q-16 0 -30.5 1.5t-23 4t-8.5 4.5l-493 1563q-17 63 -17 86z" />
<glyph unicode="]" horiz-adv-x="763" d="M31 -281q0 58 32.5 83.5t106.5 25.5h205v1274h-201q-74 0 -106.5 27t-32.5 88v12q0 58 32.5 84t106.5 26h311q74 0 116 -44.5t42 -123.5v-1411q0 -79 -42 -122.5t-116 -43.5h-315q-74 0 -106.5 26.5t-32.5 86.5v12z" />
<glyph unicode="^" horiz-adv-x="1024" d="M201 993q0 58 62 130.5t134 121.5t115 60q43 -11 114.5 -60t133 -121.5t61.5 -130.5q0 -39 -25.5 -64.5t-66.5 -25.5q-100 0 -219 207q-116 -207 -215 -207q-41 0 -67.5 25.5t-26.5 64.5z" />
<glyph unicode="_" horiz-adv-x="1015" d="M23 -104q0 47 30.5 75.5t87.5 28.5h733q58 0 88.5 -28.5t30.5 -75.5v-13q0 -49 -30 -76.5t-89 -27.5h-733q-57 0 -87.5 28t-30.5 76v13z" />
<glyph unicode="`" horiz-adv-x="1024" d="M201 1372q0 47 38 80t93 33q49 0 102 -35q62 -39 122 -108t90.5 -125t23.5 -70q-8 -14 -64 -15.5t-144 20t-161 65.5q-47 29 -73.5 70.5t-26.5 84.5z" />
<glyph unicode="a" horiz-adv-x="1118" d="M57 266q0 171 156.5 253t486.5 87h33q0 97 -52.5 148t-152.5 51q-174 0 -247 -154q0 -1 -10.5 -1.5t-27 1t-36 5t-39.5 13t-36.5 22.5t-27 34.5t-10.5 48.5q0 102 118.5 175t334.5 73q235 0 353 -105t118 -307v-592q0 -11 -34.5 -21.5t-74.5 -10.5q-147 0 -170 157 q-54 -78 -145 -122t-201 -44q-155 0 -245.5 80t-90.5 209zM334 287q0 -56 41.5 -88.5t113.5 -32.5q107 0 175.5 63.5t68.5 161.5v58l-53 -3q-175 -5 -260.5 -42t-85.5 -117z" />
<glyph unicode="b" horiz-adv-x="1239" d="M109 129v1262q0 5 14.5 12.5t40.5 13.5t53 6q35 0 65 -10.5t57 -35t42.5 -71.5t15.5 -114v-338q52 80 135.5 124t188.5 44q205 0 334 -142.5t129 -379.5q0 -233 -130 -380t-337 -147q-111 0 -195.5 48.5t-124.5 125.5v-18q0 -137 -127 -137h-30q-63 0 -97 31t-34 106z M397 432q3 -100 74.5 -164.5t175.5 -64.5q117 0 187.5 81.5t70.5 213.5q0 130 -71 211.5t-185 81.5q-89 0 -154 -43.5t-98 -120.5v-195z" />
<glyph unicode="c" horiz-adv-x="1052" d="M55 500q0 227 149 373.5t378 146.5q87 0 161 -19t121.5 -48.5t81 -66t48 -71.5t14.5 -65q0 -52 -39 -85t-78 -41t-43 -1q-67 165 -254 165q-119 0 -195.5 -81t-76.5 -207q0 -129 76.5 -212t195.5 -83q187 0 254 166q2 2 18 3t40 -8t46.5 -22t39 -40t16.5 -62 q0 -38 -25.5 -82t-74 -87t-134.5 -71.5t-192 -28.5q-232 0 -379.5 147.5t-147.5 379.5z" />
<glyph unicode="d" horiz-adv-x="1239" d="M55 498q0 236 129.5 380t337.5 144q105 0 189.5 -42t130.5 -110v521q0 5 14.5 12.5t40.5 13.5t53 6q35 0 65 -10.5t57 -35t42.5 -71.5t15.5 -114v-1063q0 -137 -126 -137h-31q-63 0 -97 31t-34 106v33q-51 -90 -133.5 -139.5t-190.5 -49.5q-204 0 -333.5 145.5 t-129.5 379.5zM334 498q0 -130 71.5 -212.5t184.5 -82.5q105 0 178.5 66.5t73.5 170.5v191q-33 76 -96 118t-152 42q-118 0 -189 -79.5t-71 -213.5z" />
<glyph unicode="e" horiz-adv-x="1126" d="M55 492q0 229 148 379.5t375 150.5q221 0 359 -140t138 -360v-20q-2 -41 -16.5 -60.5t-52.5 -19.5h-691q15 -111 94 -174.5t197 -63.5q196 0 283 148q1 2 15 -0.5t34.5 -10.5t41 -21.5t34.5 -39t14 -57.5q0 -89 -117.5 -159.5t-314.5 -70.5q-245 0 -393 141.5t-148 377.5 zM315 590h492q-5 105 -68 168t-166 63q-101 0 -172 -64.5t-86 -166.5z" />
<glyph unicode="f" horiz-adv-x="780" d="M12 881v16q0 102 121 102h82v54q0 383 346 383q125 0 189.5 -45.5t64.5 -112.5q0 -20 -6 -39.5t-14.5 -34t-17.5 -25t-15.5 -15.5t-7.5 -3q-57 53 -138 53q-64 0 -93 -38t-29 -123v-54h129q120 0 120 -106v-19q0 -100 -120 -100h-119v-645q0 -75 -33 -106t-96 -31h-31 q-129 0 -129 137v645h-82q-121 0 -121 107z" />
<glyph unicode="g" horiz-adv-x="1048" d="M-10 -154q0 102 85 169.5t226 88.5q-35 30 -35 93q0 65 68 116q-128 37 -201.5 124.5t-73.5 205.5q0 162 129 269.5t328 107.5q115 0 215 -43l43 82q29 54 62.5 77t81.5 23q46 0 81.5 -30t50 -59t9.5 -34l-174 -166q90 -96 90 -223q0 -161 -124.5 -259.5t-332.5 -98.5 h-14q-4 -8 -4 -21q0 -12 5.5 -21t18 -16.5t26.5 -13t39 -11.5t46.5 -11t57.5 -13.5t65 -15.5q289 -80 289 -283q0 -146 -143 -230.5t-396 -84.5q-268 0 -393 67.5t-125 210.5zM264 -137q0 -54 63 -83.5t185 -29.5q124 0 191 32t67 91q0 17 -7 31t-22.5 25t-30.5 18.5 t-43 15.5t-47 12.5t-55 12t-55 12.5q-111 -8 -178.5 -43.5t-67.5 -93.5zM326 647q0 -84 53 -136t137 -52q85 0 138 52t53 136q0 83 -53.5 135t-139.5 52q-84 0 -136 -51.5t-52 -135.5z" />
<glyph unicode="h" horiz-adv-x="1189" d="M109 129v1262q0 5 14.5 12.5t40.5 13.5t53 6q35 0 65 -10.5t57 -35t42.5 -71.5t15.5 -114v-352q110 182 324 182q95 0 167.5 -33t116 -91t65.5 -133t22 -165v-471q0 -137 -127 -137h-31q-63 0 -97 31t-34 106v430q0 104 -48.5 162.5t-133.5 58.5q-103 0 -163.5 -63 t-60.5 -170v-418q0 -137 -127 -137h-30q-63 0 -97 31t-34 106z" />
<glyph unicode="i" d="M100 1313q0 67 43.5 106t118.5 39q76 0 119 -38t43 -107t-43.5 -108.5t-118.5 -39.5t-118.5 39.5t-43.5 108.5zM117 129v741q0 140 129 140h30q63 0 96.5 -32t33.5 -108v-741q0 -137 -127 -137h-31q-62 0 -96.5 31t-34.5 106z" />
<glyph unicode="j" d="M-164 -248q0 31 14.5 61.5t28.5 45.5t17 12q47 -51 116 -51q54 0 79.5 30.5t25.5 96.5v923q0 140 129 140h30q63 0 96.5 -32t33.5 -108v-938q0 -165 -85.5 -253.5t-244.5 -88.5q-113 0 -176.5 43.5t-63.5 118.5zM100 1313q0 67 43.5 106t118.5 39q76 0 119 -38t43 -107 t-43.5 -108.5t-118.5 -39.5t-118.5 39.5t-43.5 108.5z" />
<glyph unicode="k" horiz-adv-x="1052" d="M109 129v1262q0 5 14.5 12.5t40.5 13.5t53 6q35 0 65 -10.5t57 -35t42.5 -71.5t15.5 -114v-627l281 355q64 92 160 92q26 0 52 -9t44.5 -22t32.5 -27t20 -25.5t4 -15.5l-315 -391l356 -436q5 -8 -15.5 -31t-60.5 -45t-82 -22q-96 0 -163 92l-314 379v-330 q0 -137 -127 -137h-30q-63 0 -97 31t-34 106z" />
<glyph unicode="l" d="M117 129v1262q0 5 14.5 12.5t40.5 13.5t53 6q35 0 65 -10.5t57.5 -35t43 -71.5t15.5 -114v-1063q0 -137 -127 -137h-31q-62 0 -96.5 31t-34.5 106z" />
<glyph unicode="m" horiz-adv-x="1816" d="M109 129v848q0 4 14.5 12t41 14.5t52.5 6.5q149 0 174 -160q117 172 309 172q122 0 203 -53.5t117 -151.5q121 205 338 205q183 0 271.5 -105.5t88.5 -291.5v-496q0 -137 -127 -137h-30q-63 0 -97 31t-34 106v449q0 202 -175 202q-61 0 -113.5 -33.5t-84.5 -89.5v-528 q0 -74 -33 -105.5t-94 -31.5h-29q-64 0 -98.5 31t-34.5 106v442q0 209 -172 209q-61 0 -114 -33.5t-85 -89.5v-528q0 -137 -127 -137h-30q-63 0 -97 31t-34 106z" />
<glyph unicode="n" horiz-adv-x="1189" d="M109 129v848q0 4 14.5 12t41 14.5t52.5 6.5q64 0 112 -37.5t62 -126.5q121 176 330 176q95 0 167.5 -32t116 -89.5t65.5 -131t22 -161.5v-479q0 -137 -127 -137h-31q-63 0 -97 31t-34 106v436q0 100 -49 157.5t-136 57.5q-74 0 -131.5 -35.5t-89.5 -95.5v-520 q0 -137 -127 -137h-30q-63 0 -97 31t-34 106z" />
<glyph unicode="o" horiz-adv-x="1179" d="M55 500q0 230 149.5 376t387.5 146q236 0 384 -146.5t148 -379.5t-148.5 -378t-387.5 -145q-238 0 -385.5 145.5t-147.5 381.5zM309 500q0 -130 79.5 -214.5t201.5 -84.5q120 0 199 84t79 211q0 131 -78.5 216t-199.5 85q-122 0 -201.5 -84t-79.5 -213z" />
<glyph unicode="p" horiz-adv-x="1239" d="M109 -260v1237q0 4 14.5 12t41 14.5t52.5 6.5q66 0 115 -40t61 -134q48 88 132 137t196 49q205 0 334 -142.5t129 -379.5q0 -233 -130 -380t-337 -147q-110 0 -194.5 51.5t-125.5 131.5v-416q0 -139 -127 -139h-30q-63 0 -97 32t-34 107zM397 432q3 -100 74.5 -164.5 t175.5 -64.5q117 0 187.5 81.5t70.5 213.5q0 130 -71 211.5t-185 81.5q-89 0 -154 -43.5t-98 -120.5v-195z" />
<glyph unicode="q" horiz-adv-x="1239" d="M55 498q0 236 129.5 380t337.5 144q110 0 196.5 -46t129.5 -118q32 152 174 152q26 0 52.5 -6.5t41 -14.5t14.5 -12v-1237q0 -75 -34 -107t-97 -32h-30q-127 0 -127 139v422q-51 -90 -133.5 -139.5t-190.5 -49.5q-204 0 -333.5 145.5t-129.5 379.5zM334 498 q0 -130 71.5 -212.5t184.5 -82.5q104 0 178 68t74 171v187q-33 76 -96.5 119t-151.5 43q-118 0 -189 -79.5t-71 -213.5z" />
<glyph unicode="r" horiz-adv-x="849" d="M109 129v848q0 4 14.5 12t41 14.5t52.5 6.5q153 0 176 -170q65 182 244 182q87 0 136.5 -45.5t49.5 -122.5q0 -32 -9 -60t-22 -44.5t-26.5 -28.5t-23 -16.5t-11.5 -2.5q-53 50 -131 50q-103 0 -153 -84.5t-50 -239.5v-299q0 -137 -127 -137h-30q-63 0 -97 31t-34 106z " />
<glyph unicode="s" horiz-adv-x="976" d="M41 195q0 21 8.5 41t21 34.5t25 25t22 15t11.5 2.5q57 -60 141.5 -96.5t188.5 -36.5q176 0 176 96q0 21 -9 36.5t-22.5 26t-40.5 19.5t-52 15t-67 15q-16 3 -24 5q-142 32 -206 66q-146 77 -146 237q0 147 113.5 235.5t303.5 88.5q194 0 300 -61t106 -152 q0 -34 -22.5 -65.5t-45 -46.5t-26.5 -11q-53 60 -130.5 96.5t-162.5 36.5q-82 0 -126 -25.5t-44 -72.5q0 -31 24.5 -51t52.5 -28.5t97 -24.5l13.5 -3t12 -3t13.5 -3q150 -33 218 -69q150 -78 150 -236q0 -151 -117.5 -237.5t-322.5 -86.5q-209 0 -321.5 63t-112.5 155z" />
<glyph unicode="t" horiz-adv-x="823" d="M29 874v19q0 106 121 106h49v127q0 69 34 104.5t97 35.5h24q62 0 95.5 -32t33.5 -108v-127h174q61 0 89 -25t28 -77v-16q0 -107 -119 -107h-178v-426q0 -75 26.5 -111t84.5 -36q76 0 129 67q3 4 19.5 -7.5t33 -40t16.5 -64.5q0 -77 -72 -130t-192 -53q-323 0 -323 342 v459h-49q-121 0 -121 100z" />
<glyph unicode="u" horiz-adv-x="1189" d="M100 387v483q0 140 127 140h31q131 0 131 -140v-440q0 -101 49.5 -158t139.5 -57q70 0 126.5 35.5t88.5 95.5v524q0 140 129 140h28q63 0 97 -32.5t34 -107.5v-845q0 -5 -14 -13t-40.5 -14t-53.5 -6q-145 0 -174 158q-121 -177 -328 -177q-95 0 -168 32t-116.5 89.5 t-65 131t-21.5 161.5z" />
<glyph unicode="v" horiz-adv-x="1089" d="M23 926q-3 9 17 29t59.5 38.5t78.5 18.5q57 0 97.5 -33t66.5 -115l203 -600l209 600q48 148 157 148q40 0 79.5 -18.5t59.5 -38.5t17 -29l-358 -863q-32 -75 -162 -75q-131 0 -162 73z" />
<glyph unicode="w" horiz-adv-x="1546" d="M31 926q-2 9 24.5 29.5t70 38.5t81.5 18q48 0 87.5 -30t51.5 -97l123 -596l160 518q27 94 155 94t152 -94l151 -508l123 586q11 66 49 96.5t84 30.5q39 0 81.5 -18.5t67 -38.5t21.5 -29l-253 -854q-22 -84 -154 -84q-78 0 -113 19.5t-55 78.5l-162 504l-164 -504 q-18 -58 -54 -78t-112 -20q-130 0 -155 84z" />
<glyph unicode="x" horiz-adv-x="1062" d="M39 84l303 414l-301 417q-5 8 15.5 31t61 44.5t83.5 21.5q106 0 161 -105l170 -266l170 266q57 105 158 105q28 0 55.5 -8.5t47.5 -21.5t35.5 -26.5t22 -25t3.5 -15.5l-305 -417l301 -414q6 -8 -14 -30.5t-63 -44t-89 -21.5q-101 0 -156 104l-170 266l-168 -266 q-57 -104 -159 -104q-27 0 -54.5 9t-47.5 21.5t-35 26.5t-21.5 24.5t-3.5 14.5z" />
<glyph unicode="y" horiz-adv-x="1087" d="M23 926q-3 9 17.5 28.5t60 38t79.5 19.5q117 0 162 -146l217 -571l193 569q46 148 159 148q37 0 76.5 -17.5t61 -37t18.5 -27.5l-455 -1182q-56 -141 -163 -141q-38 0 -77.5 17t-60 36t-16.5 27l166 376q-69 9 -94 66z" />
<glyph unicode="z" horiz-adv-x="1011" d="M61 102v17q0 32 8 55t18 36.5t38 45.5l446 520h-387q-60 0 -88 25.5t-28 79.5v14q0 104 116 104h643q55 0 83 -29t28 -71v-14q0 -43 -13 -67.5t-51 -65.5l-458 -529h424q60 0 88 -25t28 -79v-13q0 -106 -116 -106h-670q-55 0 -82 29.5t-27 72.5z" />
<glyph unicode="{" horiz-adv-x="946" d="M43 467q0 84 31 124.5t121 86.5l88 47q13 159 62 282t118.5 194t147.5 106.5t159 35.5q66 0 107 -34t41 -92q0 -36 -19 -64.5t-31 -30.5q-171 -22 -241.5 -144.5t-79.5 -375.5l-244 -135l242 -135q11 -253 81.5 -374.5t241.5 -145.5q5 0 16.5 -11.5t22.5 -35t11 -48.5 q0 -57 -41.5 -91t-106.5 -34q-82 0 -160 35.5t-147.5 107t-118.5 194.5t-63 282l-86 45q-94 48 -123 87t-29 124z" />
<glyph unicode="|" horiz-adv-x="555" d="M133 -266v1470q0 139 129 139h31q63 0 96 -31.5t33 -107.5v-1470q0 -140 -127 -140h-31q-62 0 -96.5 31.5t-34.5 108.5z" />
<glyph unicode="}" horiz-adv-x="946" d="M29 -283q0 25 11 48.5t22 35t16 11.5q171 24 241.5 145.5t79.5 374.5l242 135l-242 135q-9 253 -80.5 375t-242.5 145q-5 1 -15.5 12.5t-21 34.5t-10.5 48q0 58 40.5 92t104.5 34q82 0 160 -35.5t148 -106.5t119 -194t63 -282l86 -47q91 -47 122 -87t31 -124 q0 -85 -29.5 -124t-123.5 -87l-86 -45q-11 -128 -45 -233.5t-82.5 -176t-109.5 -118.5t-123.5 -69.5t-127.5 -21.5q-66 0 -106.5 33.5t-40.5 91.5z" />
<glyph unicode="~" horiz-adv-x="1021" d="M170 426q0 89 53.5 150t128.5 61q137 0 287 -141q19 58 49.5 95.5t67.5 37.5q43 0 69.5 -28.5t26.5 -70.5q0 -89 -53.5 -148.5t-128.5 -59.5q-139 0 -287 139q-19 -58 -49.5 -95.5t-67.5 -37.5q-42 0 -69 28t-27 70z" />
<glyph unicode="&#xa1;" horiz-adv-x="567" d="M113 164l82 657q11 50 27.5 72t47.5 22h29q29 0 45 -22t27 -72l82 -657q18 -83 -22 -132.5t-120 -49.5h-51q-83 0 -124 49t-23 133zM127 1178v28q0 135 139 135h37q135 0 135 -135v-28q0 -138 -135 -138h-37q-139 0 -139 138z" />
<glyph unicode="&#xa2;" horiz-adv-x="1083" d="M53 578q0 203 114 343t304 179v119q0 71 28 105t89 34h10q62 0 89.5 -33t27.5 -106v-111q154 -19 239.5 -88.5t85.5 -153.5q0 -31 -15 -57.5t-36.5 -40.5t-44.5 -24.5t-38 -11t-19 0.5q-46 79 -109 115.5t-164 36.5q-127 0 -205.5 -82.5t-78.5 -222.5q0 -141 82.5 -224.5 t216.5 -83.5q187 0 266 162q4 1 19.5 1t39 -9.5t45 -23t37 -39t15.5 -56.5q0 -90 -88 -163.5t-244 -94.5v-117q0 -71 -29 -105t-90 -34h-8q-64 0 -91.5 32.5t-27.5 106.5v123q-196 37 -308 174.5t-112 348.5z" />
<glyph unicode="&#xa3;" horiz-adv-x="1226" d="M33 113v14q0 57 31.5 83t99.5 26h49l51 274h-84q-46 0 -74 25.5t-28 68.5v25q0 44 28 70t74 26h123l41 223q35 198 149 301t300 103q177 0 281 -80.5t104 -194.5q0 -31 -9.5 -56t-24 -40t-32.5 -25.5t-36 -14.5t-32.5 -5.5t-24 -1t-9.5 1.5q-37 182 -207 182 q-90 0 -137.5 -48.5t-67.5 -156.5l-35 -188h271q46 0 74 -26t28 -70v-25q0 -44 -28 -69t-74 -25h-310l-49 -274h557q69 0 100 -26t31 -83v-14q0 -59 -31 -86t-100 -27h-868q-68 0 -99.5 26.5t-31.5 86.5z" />
<glyph unicode="&#xa4;" horiz-adv-x="1292" d="M47 504v20q0 36 25.5 58t77.5 22h71v119h-71q-52 0 -77.5 22.5t-25.5 59.5v20q0 36 25.5 58t77.5 22h90q46 209 194 328t363 119q196 0 317 -80.5t121 -186.5q0 -30 -14 -56.5t-33.5 -43t-40 -28t-35.5 -15t-18 -0.5q-59 85 -126 124.5t-171 39.5q-97 0 -167 -52 t-102 -149h326q51 0 76.5 -22t25.5 -58v-20q0 -37 -25 -59.5t-77 -22.5h-350v-119h350q51 0 76.5 -22t25.5 -58v-20q0 -36 -25.5 -58t-76.5 -22h-326q32 -97 105 -151t172 -54q104 0 170.5 42.5t120.5 131.5q3 4 18.5 0.5t36.5 -15t41.5 -28.5t34.5 -43.5t14 -56.5 q0 -46 -27.5 -93t-79 -89t-138.5 -68.5t-193 -26.5q-223 0 -372 118.5t-193 332.5h-88q-52 0 -77.5 22t-25.5 58z" />
<glyph unicode="&#xa5;" horiz-adv-x="1257" d="M86 1210q-3 5 0.5 19t15.5 32t31.5 34.5t53 28t73.5 11.5q97 0 146 -104l223 -428l235 428q56 106 148 106q35 0 64.5 -12t47.5 -29t30 -35.5t16 -32t1 -18.5l-319 -493h197q55 0 82.5 -24t27.5 -62v-23q0 -39 -27 -62.5t-83 -23.5h-285v-108h285q56 0 83 -23.5t27 -62.5 v-23q0 -38 -27.5 -62t-82.5 -24h-285v-94q0 -71 -28 -105t-93 -34h-31q-62 0 -89 34t-27 105v94h-289q-54 0 -81.5 24t-27.5 62v23q0 39 27 62.5t82 23.5h289v108h-289q-55 0 -82 23.5t-27 62.5v23q0 38 27.5 62t81.5 24h201z" />
<glyph unicode="&#xa7;" horiz-adv-x="1165" d="M59 459q0 96 55.5 165.5t159.5 108.5q-163 80 -163 254q0 164 132 264.5t349 100.5q119 0 209 -23t138.5 -60t71.5 -76t23 -77t-24.5 -71.5t-49.5 -49t-30 -10.5q-136 156 -324 156q-95 0 -152 -32.5t-57 -92.5q0 -25 14.5 -46t36 -35.5t62.5 -29.5t78 -25t98 -24 q51 -12 85.5 -21.5t82.5 -26t80 -33.5t67.5 -43t56.5 -55.5t34.5 -69.5t13.5 -87q0 -95 -54.5 -164t-156.5 -108q166 -81 166 -258q0 -164 -137.5 -263.5t-370.5 -99.5q-121 0 -216.5 22t-152 58.5t-85.5 81t-29 92.5q0 35 23.5 67.5t47 47.5t27.5 10q60 -74 166.5 -119 t220.5 -45q107 0 163 31.5t56 91.5q0 22 -6.5 39t-26.5 31.5t-34.5 23t-53.5 20t-59.5 16.5t-74.5 17q-9 2 -13 3q-53 12 -87.5 21t-86.5 25.5t-85.5 33.5t-72.5 43.5t-61.5 57t-38 72.5t-15.5 91zM311 502q0 -27 10 -49t34.5 -39.5t45.5 -29t66 -23.5t70.5 -18t83.5 -18 q8 -2 12.5 -3t12 -2.5t13.5 -2.5l23 -4q78 15 125 60t47 100q0 28 -11 50.5t-31 39t-47.5 29.5t-62 23.5t-72 19.5t-81.5 18q-19 4 -29 6q-3 0 -9 1.5t-9 1.5q-86 -15 -138.5 -60.5t-52.5 -99.5z" />
<glyph unicode="&#xa8;" horiz-adv-x="1024" d="M156 1262q0 69 39.5 108t105.5 39q71 0 111.5 -38.5t40.5 -108.5t-39.5 -109t-106.5 -39q-70 0 -110.5 39t-40.5 109zM571 1262q0 70 39.5 108.5t106.5 38.5q70 0 110.5 -38.5t40.5 -108.5q0 -69 -39.5 -108.5t-105.5 -39.5q-71 0 -111.5 39t-40.5 109z" />
<glyph unicode="&#xa9;" horiz-adv-x="1527" d="M82 662q0 147 51 275t141 219t217.5 143.5t274.5 52.5q198 0 353.5 -88t242 -244.5t86.5 -353.5q0 -148 -51 -276.5t-141 -220t-217.5 -144t-274.5 -52.5q-199 0 -354.5 88t-241.5 245t-86 356zM213 664q0 -247 155.5 -408.5t397.5 -161.5q245 0 398 159t153 409 q0 248 -156 408.5t-397 160.5q-246 0 -398.5 -158.5t-152.5 -408.5zM408 659q0 161 106.5 267t267.5 106q82 0 144 -25t94 -59q40 -40 37 -84q0 -31 -23.5 -56t-47.5 -35t-28 -5q-61 88 -170 88q-76 0 -130 -55.5t-54 -138.5q0 -86 55 -141.5t134 -55.5q112 0 172 94 q3 5 26.5 -4.5t47.5 -35.5t24 -58q3 -44 -43 -90q-33 -34 -93.5 -59t-142.5 -25q-165 0 -270.5 104.5t-105.5 267.5z" />
<glyph unicode="&#xaa;" horiz-adv-x="909" d="M49 743q0 52 14.5 91t50.5 72t96.5 54.5t153.5 35.5t220 18q-3 157 -162 157q-120 0 -191 -122q-1 0 -15.5 -2t-37.5 4t-45 15t-37.5 30.5t-15.5 50.5q0 83 92 144t266 61q195 0 288 -85.5t93 -254.5v-463q0 -9 -28 -18t-62 -9q-113 0 -135 125q-38 -61 -108 -96 t-154 -35q-130 0 -206.5 62t-76.5 165zM276 766q0 -42 37 -67t99 -25q74 0 124 45t50 108v66q-120 -6 -189 -22.5t-95 -41t-26 -63.5zM303 106v25q0 123 123 123h33q125 0 125 -123v-25q0 -122 -125 -122h-33q-123 0 -123 122z" />
<glyph unicode="&#xab;" horiz-adv-x="1091" d="M68 502q0 13 38 66t91 113t118.5 107.5t112.5 47.5h4q45 0 69.5 -26.5t24.5 -68.5v-4q0 -85 -247 -235q247 -154 247 -236v-4q0 -41 -25 -67.5t-69 -26.5h-4q-47 0 -112.5 47.5t-118.5 107.5t-91 113t-38 66zM518 502q0 14 40.5 72.5t98 125.5t129 119.5t123.5 52.5h4 q50 0 77.5 -28t27.5 -74v-6q0 -91 -279 -262q279 -172 279 -260v-9q0 -44 -28 -73t-77 -29h-4q-52 0 -123.5 53t-129 119.5t-98 125.5t-40.5 73z" />
<glyph unicode="&#xad;" horiz-adv-x="876" d="M74 479v43q0 48 31.5 79.5t87.5 31.5h491q56 0 87.5 -31.5t31.5 -79.5v-43q0 -48 -31.5 -79t-87.5 -31h-491q-56 0 -87.5 31t-31.5 79z" />
<glyph unicode="&#xae;" horiz-adv-x="1527" d="M82 662q0 147 51 275t141 219t217.5 143.5t274.5 52.5q198 0 353.5 -88t242 -244.5t86.5 -353.5q0 -148 -51 -276.5t-141 -220t-217.5 -144t-274.5 -52.5q-199 0 -354.5 88t-241.5 245t-86 356zM213 664q0 -247 155.5 -408.5t397.5 -161.5q245 0 398 159t153 409 q0 248 -156 408.5t-397 160.5q-246 0 -398.5 -158.5t-152.5 -408.5zM473 410v508q0 52 26 79t74 27h220q299 0 299 -231q0 -82 -43 -136.5t-125 -74.5l163 -215q4 -6 -10 -23t-42.5 -32t-57.5 -15q-70 0 -113 72l-125 178h-73v-158q0 -42 -21.5 -65t-62.5 -23h-27 q-39 0 -60.5 29t-21.5 80zM662 688h120q56 0 86.5 24.5t30.5 67.5q0 94 -121 94h-116v-186z" />
<glyph unicode="&#xaf;" horiz-adv-x="1024" d="M156 1241v12q0 49 34 76t93 27h458q60 0 93.5 -27t33.5 -76v-12q0 -51 -33 -77.5t-94 -26.5h-458q-61 0 -94 26.5t-33 77.5z" />
<glyph unicode="&#xb0;" horiz-adv-x="794" d="M68 1014v16q0 144 93 233t240 89q144 0 236 -88.5t92 -231.5v-16q0 -144 -94 -233t-240 -89t-236.5 88t-90.5 232zM250 1010q0 -72 43 -116t106 -44t104.5 43.5t41.5 116.5v26q0 72 -42.5 117t-105.5 45q-65 0 -106 -43.5t-41 -118.5v-26z" />
<glyph unicode="&#xb1;" horiz-adv-x="1228" d="M123 236v16q0 46 30 74t89 28h743q59 0 89 -28t30 -74v-16q0 -47 -30 -75t-89 -28h-743q-59 0 -89 28t-30 75zM143 870v17q0 45 30 72.5t89 27.5h236v223q0 59 28 89t76 30h23q46 0 74 -30t28 -89v-223h238q59 0 88.5 -27.5t29.5 -72.5v-17q0 -46 -29.5 -73t-88.5 -27 h-238v-209q0 -60 -27.5 -89.5t-74.5 -29.5h-23q-48 0 -76 29.5t-28 89.5v209h-236q-59 0 -89 27t-30 73z" />
<glyph unicode="&#xb2;" horiz-adv-x="688" d="M57 686v41q0 42 12 76.5t29.5 58t50.5 46.5t60 37.5t74 35.5q11 5 29.5 13t28 12.5t24.5 11.5t23 11.5t19 11.5t16 12.5t11 13t8 15t2 16.5q0 39 -28 63.5t-76 24.5q-60 0 -96.5 -38t-46.5 -91q-2 0 -15.5 -1.5t-34 3.5t-40.5 13t-34 28.5t-14 48.5q0 80 79.5 136 t213.5 56t210.5 -63t76.5 -172q0 -41 -12.5 -74t-29 -54.5t-47.5 -42t-54.5 -31.5t-63.5 -27q-18 -8 -54 -21.5t-54.5 -21.5t-42.5 -21t-37.5 -29t-20.5 -36q106 2 324 2q96 0 96 -78v-6q0 -42 -23 -62t-73 -20h-365q-74 0 -99.5 21t-25.5 81z" />
<glyph unicode="&#xb3;" horiz-adv-x="688" d="M31 739q0 29 12.5 50.5t30.5 31t36.5 14t31.5 4t14 -2.5q15 -54 57.5 -83.5t105.5 -29.5q60 0 97 25t37 65q0 80 -109 80h-29q-50 0 -72 16.5t-22 51.5v12q0 67 92 67h45q37 0 61.5 19t24.5 49q0 35 -35 57.5t-92 22.5q-118 0 -149 -107q-1 -2 -13 -2.5t-29.5 4t-35 14 t-29.5 31t-12 50.5q0 69 75.5 116t199.5 47q151 0 227 -52.5t76 -153.5q0 -114 -127 -152q141 -48 141 -186q0 -109 -81 -168.5t-234 -59.5q-133 0 -214 50.5t-81 119.5z" />
<glyph unicode="&#xb4;" horiz-adv-x="1024" d="M352 1147q-7 14 23.5 70t90.5 125t122 108q53 35 102 35q55 0 93 -33t38 -80q0 -43 -26.5 -84.5t-73.5 -70.5q-73 -44 -160.5 -65.5t-143.5 -20t-65 15.5z" />
<glyph unicode="&#xb6;" horiz-adv-x="1275" d="M43 948q0 190 120 288.5t357 98.5h228q51 0 79.5 -28t28.5 -76v-1157q0 -43 -21 -65.5t-59 -22.5h-26q-40 0 -61 23.5t-21 64.5v497h-142q-235 0 -359 95.5t-124 281.5zM969 74v1177q0 88 78 88h28q82 0 82 -88v-1177q0 -88 -82 -88h-28q-78 0 -78 88z" />
<glyph unicode="&#xb7;" horiz-adv-x="501" d="M94 487v29q0 137 137 137h35q140 0 140 -137v-29q0 -135 -140 -135h-35q-137 0 -137 135z" />
<glyph unicode="&#xb8;" horiz-adv-x="1024" d="M299 -408l90 222q19 51 46 71.5t93 20.5h31q57 0 89 -22t32 -64v-10q0 -26 -18.5 -51t-59.5 -60l-158 -156q-29 -16 -65.5 -16.5t-63.5 18.5t-16 47z" />
<glyph unicode="&#xb9;" horiz-adv-x="688" d="M66 1176q0 31 13.5 55.5t27.5 35t18 7.5q39 -27 76 -27q39 0 69 24t37 64h68q92 0 92 -98v-481h78q96 0 96 -88v-2q0 -82 -96 -82h-377q-94 0 -94 82v2q0 88 94 88h108v338q-40 -29 -88 -29q-51 0 -86.5 30.5t-35.5 80.5z" />
<glyph unicode="&#xba;" horiz-adv-x="976" d="M63 930q0 178 122 300t307 122t304 -120t119 -300q0 -179 -122 -300.5t-306 -121.5q-187 0 -305.5 119.5t-118.5 300.5zM279 932q0 -95 60.5 -160t149.5 -65q91 0 151 64t60 161t-61 162t-150 65q-90 0 -150 -65t-60 -162zM346 106v25q0 123 123 123h33q125 0 125 -123 v-25q0 -122 -125 -122h-33q-123 0 -123 122z" />
<glyph unicode="&#xbb;" horiz-adv-x="1091" d="M74 236v6q0 28 25 62.5t70.5 71.5t86.5 65t96 63q-278 167 -278 260v8q0 44 27.5 72t78.5 28h2q53 0 124.5 -52.5t128.5 -119t97.5 -125t40.5 -73.5q0 -14 -40.5 -73t-97.5 -125.5t-128.5 -119.5t-124.5 -53h-2q-51 0 -78.5 29.5t-27.5 75.5zM565 262v6q0 33 43 78.5 t90 79.5t115 78q-248 150 -248 235v4q0 41 25 68t69 27h5q47 0 112.5 -47.5t118.5 -108t91 -114t38 -66.5t-38 -65.5t-91 -113t-118.5 -108t-112.5 -47.5h-5q-44 0 -69 26.5t-25 67.5z" />
<glyph unicode="&#xbc;" horiz-adv-x="1622" d="M66 1176q0 31 13.5 55.5t27.5 35t18 7.5q39 -27 76 -27q39 0 69 24t37 64h68q92 0 92 -98v-481h78q96 0 96 -88v-2q0 -82 -96 -82h-377q-94 0 -94 82v2q0 88 94 88h108v338q-40 -29 -88 -29q-51 0 -86.5 30.5t-35.5 80.5zM285 10q-1 -20 7.5 -35.5t21 -24t25.5 -13 t23.5 -4.5t14.5 4q375 476 541 681q217 271 417 506q47 60 47 105q1 20 -7.5 36t-21 23.5t-26 12.5t-23 4t-12.5 -2q-376 -480 -542 -685q-73 -90 -172.5 -209.5t-169 -202t-76.5 -91.5q-28 -36 -37.5 -57t-9.5 -48zM948 254v31q1 16 6.5 32.5t10.5 27t20 40.5l191 295 q24 45 57 58.5t113 13.5q78 0 110.5 -30.5t32.5 -105.5v-294h35q47 0 67.5 -17t20.5 -55v-6q0 -40 -20.5 -57t-67.5 -17h-35v-82q0 -96 -88 -96h-10q-84 0 -84 96v82h-246q-52 0 -82.5 23.5t-30.5 60.5zM1118 317h199l-2 304z" />
<glyph unicode="&#xbd;" horiz-adv-x="1622" d="M66 1176q0 31 13.5 55.5t27.5 35t18 7.5q39 -27 76 -27q39 0 69 24t37 64h68q92 0 92 -98v-481h78q96 0 96 -88v-2q0 -82 -96 -82h-377q-94 0 -94 82v2q0 88 94 88h108v338q-40 -29 -88 -29q-51 0 -86.5 30.5t-35.5 80.5zM233 10q-1 -20 7.5 -35.5t21 -24t26 -13t24 -4.5 t14.5 4q374 476 540 681q201 251 418 506q47 60 47 105q1 20 -7.5 36t-21 23.5t-26 12.5t-23 4t-12.5 -2q-377 -480 -543 -685q-73 -90 -172 -209.5t-168.5 -202t-76.5 -91.5q-28 -36 -38 -57t-10 -48zM991 102v41q0 42 12 76.5t29.5 58t50.5 46.5t60 37.5t74 35.5 q11 5 29.5 13t28 12.5t24.5 11.5t23 11.5t19 11.5t16 12.5t11 13t8 15t2 16.5q0 39 -28 63.5t-76 24.5q-60 0 -97 -38t-47 -91q-2 0 -15 -1.5t-34 3.5t-40.5 13t-33.5 28.5t-14 48.5q0 80 79.5 136.5t213.5 56.5t210.5 -63.5t76.5 -172.5q0 -41 -12.5 -74t-29 -54.5 t-47.5 -42t-54.5 -31.5t-63.5 -27q-18 -8 -54 -21.5t-54.5 -21.5t-42.5 -21t-37.5 -29t-20.5 -36q106 2 324 2q96 0 96 -78v-6q0 -42 -23 -62t-73 -20h-365q-74 0 -99.5 21t-25.5 81z" />
<glyph unicode="&#xbe;" horiz-adv-x="1622" d="M31 739q0 29 12.5 50.5t30.5 31t36.5 14t31.5 4t14 -2.5q15 -54 57.5 -83.5t105.5 -29.5q60 0 97 25t37 65q0 80 -109 80h-29q-50 0 -72 16.5t-22 51.5v12q0 67 92 67h45q37 0 61.5 19t24.5 49q0 35 -35 57.5t-92 22.5q-118 0 -149 -107q-1 -2 -13 -2.5t-29.5 4t-35 14 t-29.5 31t-12 50.5q0 69 75.5 116t199.5 47q151 0 227 -52.5t76 -153.5q0 -114 -127 -152q141 -48 141 -186q0 -109 -81 -168.5t-234 -59.5q-133 0 -214 50.5t-81 119.5zM276 10q0 27 10 48t38 57q7 9 76.5 91.5t168.5 202t172 209.5q74 91 209.5 262.5t234.5 297.5l99 125 q3 1 12.5 2t23 -4t26 -12.5t21 -23.5t7.5 -36q0 -45 -47 -105q-217 -255 -418 -506q-74 -91 -209 -261.5t-233 -294.5l-98 -125q-4 -4 -14.5 -4t-24 4.5t-26 13t-21 24t-7.5 35.5zM948 254v31q1 16 6.5 32.5t10.5 27t20 40.5l191 295q24 45 57 58.5t113 13.5 q78 0 110.5 -30.5t32.5 -105.5v-294h35q47 0 67.5 -17t20.5 -55v-6q0 -40 -20.5 -57t-67.5 -17h-35v-82q0 -96 -88 -96h-10q-84 0 -84 96v82h-246q-52 0 -82.5 23.5t-30.5 60.5zM1118 317h199l-2 304z" />
<glyph unicode="&#xbf;" horiz-adv-x="1021" d="M43 342q0 68 21 122t54.5 89t74 63.5t82.5 53t77 51t58.5 64t27.5 85.5q11 56 117 56q57 0 90 -25.5t33 -75.5q-2 -69 -22.5 -123t-52 -87.5t-69 -59.5t-75 -45.5t-68.5 -39t-50 -46.5t-19 -62q0 -70 50 -110.5t140 -40.5q120 0 186 68t80 167q0 1 11 2t28 -0.5t38 -6 t42.5 -15t38.5 -25t28 -40t11 -56.5q0 -57 -30 -114t-86 -106t-148.5 -79.5t-204.5 -30.5q-215 0 -339 100t-124 267zM397 1178v28q0 135 140 135h34q67 0 102.5 -34.5t35.5 -100.5v-28q0 -138 -138 -138h-34q-140 0 -140 138z" />
<glyph unicode="&#xc0;" horiz-adv-x="1343" d="M20 78l453 1169q13 45 56.5 67.5t140.5 22.5t138 -22t56 -68l463 -1167q5 -13 -17 -35t-63.5 -40.5t-83.5 -18.5q-120 0 -174 143l-80 209h-485l-80 -213q-49 -139 -166 -139q-59 0 -112.5 35t-45.5 57zM326 1702q0 47 38 80t93 33q49 0 102 -35q62 -39 122 -108 t90.5 -125t23.5 -70q-8 -14 -64 -15.5t-144 19.5t-161 65q-47 29 -73.5 71t-26.5 85zM483 563h365l-182 481z" />
<glyph unicode="&#xc1;" horiz-adv-x="1343" d="M20 78l453 1169q13 45 56.5 67.5t140.5 22.5t138 -22t56 -68l463 -1167q5 -13 -17 -35t-63.5 -40.5t-83.5 -18.5q-120 0 -174 143l-80 209h-485l-80 -213q-49 -139 -166 -139q-59 0 -112.5 35t-45.5 57zM483 563h365l-182 481zM532 1477q-7 14 23.5 70t90.5 125t122 108 q53 35 102 35q55 0 93 -33t38 -80q0 -43 -26.5 -85t-73.5 -71q-73 -44 -160.5 -65t-143.5 -19.5t-65 15.5z" />
<glyph unicode="&#xc2;" horiz-adv-x="1343" d="M20 78l453 1169q13 45 56.5 67.5t140.5 22.5t138 -22t56 -68l463 -1167q5 -13 -17 -35t-63.5 -40.5t-83.5 -18.5q-120 0 -174 143l-80 209h-485l-80 -213q-49 -139 -166 -139q-59 0 -112.5 35t-45.5 57zM358 1534q0 58 62 130t134.5 121t115.5 60q43 -11 114.5 -60 t133 -121t61.5 -130q0 -39 -25.5 -64.5t-66.5 -25.5q-100 0 -219 207q-116 -207 -215 -207q-41 0 -68 26t-27 64zM483 563h365l-182 481z" />
<glyph unicode="&#xc3;" horiz-adv-x="1343" d="M20 78l453 1169q13 45 56.5 67.5t140.5 22.5t138 -22t56 -68l463 -1167q5 -13 -17 -35t-63.5 -40.5t-83.5 -18.5q-120 0 -174 143l-80 209h-485l-80 -213q-49 -139 -166 -139q-59 0 -112.5 35t-45.5 57zM336 1548q0 89 53.5 150t128.5 61q137 0 287 -141q19 58 49.5 95.5 t67.5 37.5q43 0 69.5 -28t26.5 -70q0 -89 -53.5 -149t-128.5 -60q-139 0 -287 139q-19 -58 -49.5 -95.5t-67.5 -37.5q-42 0 -69 28t-27 70zM483 563h365l-182 481z" />
<glyph unicode="&#xc4;" horiz-adv-x="1343" d="M20 78l453 1169q13 45 56.5 67.5t140.5 22.5t138 -22t56 -68l463 -1167q5 -13 -17 -35t-63.5 -40.5t-83.5 -18.5q-120 0 -174 143l-80 209h-485l-80 -213q-49 -139 -166 -139q-59 0 -112.5 35t-45.5 57zM313 1591q0 69 40 108.5t106 39.5q71 0 111 -39t40 -109 t-39 -108.5t-106 -38.5q-70 0 -111 38.5t-41 108.5zM483 563h365l-182 481zM729 1591q0 70 39 109t106 39q70 0 111 -39t41 -109q0 -69 -39.5 -108t-105.5 -39q-71 0 -111.5 38.5t-40.5 108.5z" />
<glyph unicode="&#xc5;" horiz-adv-x="1343" d="M20 78l453 1169q6 22 39 35q-98 66 -98 197q0 107 74 179.5t184 72.5q112 0 184 -71.5t72 -180.5q0 -132 -105 -197q33 -17 41 -35l463 -1167q5 -13 -17 -35t-63.5 -40.5t-83.5 -18.5q-120 0 -174 143l-80 209h-485l-80 -213q-49 -139 -166 -139q-59 0 -112.5 35 t-45.5 57zM483 563h365l-182 484zM559 1479q0 -49 32.5 -83t78.5 -34q47 0 79.5 34t32.5 83q0 51 -32.5 85.5t-79.5 34.5q-46 0 -78.5 -34.5t-32.5 -85.5z" />
<glyph unicode="&#xc6;" horiz-adv-x="1792" d="M20 78l443 1143q16 51 60 77.5t134 26.5h922q69 0 104 -33t35 -94v-10q0 -127 -139 -127h-651l100 -262h391q140 0 140 -117v-8q0 -123 -140 -123h-289l113 -289h346q140 0 140 -119v-12q0 -63 -35.5 -97t-104.5 -34h-393q-89 0 -135.5 28.5t-79.5 112.5l-74 197h-483 l-80 -213q-51 -139 -166 -139q-40 0 -80 17.5t-61.5 39t-16.5 35.5zM483 563h363l-180 481z" />
<glyph unicode="&#xc7;" horiz-adv-x="1339" d="M76 662q0 303 190.5 496.5t493.5 193.5q101 0 187.5 -21t144.5 -53.5t99.5 -73.5t60 -79.5t18.5 -71.5q0 -27 -9.5 -50.5t-24.5 -39t-33.5 -29t-36.5 -20t-34 -12t-25.5 -5t-10.5 1.5q-49 85 -136 132.5t-188 47.5q-169 0 -277 -115t-108 -300q0 -184 109.5 -301 t277.5 -117q116 0 204 53t126 147q3 1 20.5 0.5t44.5 -12.5t52.5 -27.5t44 -46t18.5 -67.5q0 -35 -19.5 -76.5t-62 -85t-102.5 -78.5t-150 -57.5t-194 -22.5q-198 0 -353 87t-241 244t-86 358zM508 -408l90 222q19 51 46 71.5t93 20.5h31q57 0 89 -22t32 -64v-10 q0 -26 -18.5 -51t-59.5 -60l-158 -156q-29 -16 -65.5 -16.5t-63.5 18.5t-16 47z" />
<glyph unicode="&#xc8;" horiz-adv-x="1228" d="M119 166v991q0 79 41.5 123.5t115.5 44.5h740q69 0 104 -33t35 -94v-10q0 -127 -139 -127h-594v-262h434q139 0 139 -117v-8q0 -123 -139 -123h-434v-289h604q139 0 139 -119v-12q0 -63 -35 -97t-104 -34h-750q-74 0 -115.5 43.5t-41.5 122.5zM350 1702q0 47 38 80t93 33 q50 0 103 -35q62 -39 122 -108t90 -125t23 -70q-8 -14 -63.5 -15.5t-143.5 19.5t-161 65q-47 29 -74 71t-27 85z" />
<glyph unicode="&#xc9;" horiz-adv-x="1228" d="M119 166v991q0 79 41.5 123.5t115.5 44.5h740q69 0 104 -33t35 -94v-10q0 -127 -139 -127h-594v-262h434q139 0 139 -117v-8q0 -123 -139 -123h-434v-289h604q139 0 139 -119v-12q0 -63 -35 -97t-104 -34h-750q-74 0 -115.5 43.5t-41.5 122.5zM459 1477q-7 14 23 70 t90 125t122 108q53 35 103 35q55 0 93 -33t38 -80q0 -43 -27 -85t-74 -71q-73 -44 -160.5 -65t-143 -19.5t-64.5 15.5z" />
<glyph unicode="&#xca;" horiz-adv-x="1228" d="M119 166v991q0 79 41.5 123.5t115.5 44.5h740q69 0 104 -33t35 -94v-10q0 -127 -139 -127h-594v-262h434q139 0 139 -117v-8q0 -123 -139 -123h-434v-289h604q139 0 139 -119v-12q0 -63 -35 -97t-104 -34h-750q-74 0 -115.5 43.5t-41.5 122.5zM332 1534q0 58 62 130 t134 121t115 60q43 -11 114.5 -60t133 -121t61.5 -130q0 -39 -25.5 -64.5t-66.5 -25.5q-100 0 -219 207q-116 -207 -215 -207q-41 0 -67.5 25.5t-26.5 64.5z" />
<glyph unicode="&#xcb;" horiz-adv-x="1228" d="M119 166v991q0 79 41.5 123.5t115.5 44.5h740q69 0 104 -33t35 -94v-10q0 -127 -139 -127h-594v-262h434q139 0 139 -117v-8q0 -123 -139 -123h-434v-289h604q139 0 139 -119v-12q0 -63 -35 -97t-104 -34h-750q-74 0 -115.5 43.5t-41.5 122.5zM287 1591q0 69 39.5 108.5 t105.5 39.5q71 0 111.5 -39t40.5 -109t-39.5 -108.5t-106.5 -38.5q-70 0 -110.5 38.5t-40.5 108.5zM702 1591q0 70 39.5 109t106.5 39q70 0 110.5 -39t40.5 -109q0 -69 -39.5 -108t-105.5 -39q-71 0 -111.5 38.5t-40.5 108.5z" />
<glyph unicode="&#xcc;" horiz-adv-x="573" d="M-31 1702q0 47 38 80t93 33q50 0 103 -35q62 -39 122 -108t90 -125t23 -70q-8 -14 -63.5 -15.5t-143.5 19.5t-161 65q-47 29 -74 71t-27 85zM135 129v1067q0 137 129 137h41q133 0 133 -137v-1067q0 -137 -133 -137h-41q-129 0 -129 137z" />
<glyph unicode="&#xcd;" horiz-adv-x="573" d="M129 1477q-7 14 23.5 70t90.5 125t122 108q53 35 102 35q55 0 93 -33t38 -80q0 -43 -26.5 -85t-73.5 -71q-73 -44 -160.5 -65t-143.5 -19.5t-65 15.5zM135 129v1067q0 137 129 137h41q133 0 133 -137v-1067q0 -137 -133 -137h-41q-129 0 -129 137z" />
<glyph unicode="&#xce;" horiz-adv-x="573" d="M-27 1534q0 58 62 130t134.5 121t115.5 60q43 -11 114.5 -60t133 -121t61.5 -130q0 -39 -25.5 -64.5t-66.5 -25.5q-100 0 -219 207q-116 -207 -215 -207q-41 0 -68 26t-27 64zM135 129v1067q0 137 129 137h41q133 0 133 -137v-1067q0 -137 -133 -137h-41q-129 0 -129 137 z" />
<glyph unicode="&#xcf;" horiz-adv-x="573" d="M-72 1591q0 69 40 108.5t106 39.5q71 0 111 -39t40 -109t-39 -108.5t-106 -38.5q-70 0 -111 38.5t-41 108.5zM135 129v1067q0 137 129 137h41q133 0 133 -137v-1067q0 -137 -133 -137h-41q-129 0 -129 137zM344 1591q0 70 39 109t106 39q70 0 111 -39t41 -109 q0 -69 -39.5 -108t-105.5 -39q-71 0 -111.5 38.5t-40.5 108.5z" />
<glyph unicode="&#xd0;" horiz-adv-x="1486" d="M16 653v25q0 41 26 67.5t79 26.5h74v385q0 78 45 123t114 45h342q332 0 524.5 -176t192.5 -481q0 -307 -197 -487.5t-530 -180.5h-324q-69 0 -118 48.5t-49 117.5v391h-74q-53 0 -79 26.5t-26 69.5zM496 260h194q200 0 312 106.5t112 299.5q0 188 -111.5 293.5 t-308.5 105.5h-198v-293h256q52 0 77 -26t25 -68v-25q0 -43 -25 -69.5t-77 -26.5h-256v-297z" />
<glyph unicode="&#xd1;" horiz-adv-x="1417" d="M119 129v1055q0 72 34.5 110.5t96.5 38.5h37q56 0 85 -18t68 -68l574 -788v737q0 137 129 137h28q127 0 127 -137v-1055q0 -72 -34 -110.5t-95 -38.5h-24q-56 0 -83.5 15.5t-62.5 58.5l-596 819v-756q0 -137 -131 -137h-28q-125 0 -125 137zM367 1548q0 89 53.5 150 t128.5 61q137 0 287 -141q19 58 49 95.5t67 37.5q43 0 70 -28t27 -70q0 -89 -54 -149t-129 -60q-138 0 -286 139q-19 -58 -49.5 -95.5t-67.5 -37.5q-42 0 -69 28t-27 70z" />
<glyph unicode="&#xd2;" horiz-adv-x="1509" d="M72 662q0 199 87.5 356.5t244 245.5t352.5 88q198 0 353.5 -87.5t242 -244.5t86.5 -356q0 -201 -87 -358.5t-243 -245t-354 -87.5t-353.5 87t-242 244t-86.5 358zM373 664q0 -188 106.5 -305t276.5 -117t276.5 116.5t106.5 303.5t-107.5 305t-277.5 118 q-171 0 -276 -115.5t-105 -305.5zM422 1702q0 47 38 80t93 33q49 0 102 -35q62 -39 122 -108t90.5 -125t23.5 -70q-8 -14 -64 -15.5t-144 19.5t-161 65q-47 29 -73.5 71t-26.5 85z" />
<glyph unicode="&#xd3;" horiz-adv-x="1509" d="M72 662q0 199 87.5 356.5t244 245.5t352.5 88q198 0 353.5 -87.5t242 -244.5t86.5 -356q0 -201 -87 -358.5t-243 -245t-354 -87.5t-353.5 87t-242 244t-86.5 358zM373 664q0 -188 106.5 -305t276.5 -117t276.5 116.5t106.5 303.5t-107.5 305t-277.5 118 q-171 0 -276 -115.5t-105 -305.5zM600 1477q-7 14 23.5 70t90.5 125t122 108q53 35 102 35q55 0 93 -33t38 -80q0 -43 -26.5 -85t-73.5 -71q-73 -44 -160.5 -65t-143.5 -19.5t-65 15.5z" />
<glyph unicode="&#xd4;" horiz-adv-x="1509" d="M72 662q0 199 87.5 356.5t244 245.5t352.5 88q198 0 353.5 -87.5t242 -244.5t86.5 -356q0 -201 -87 -358.5t-243 -245t-354 -87.5t-353.5 87t-242 244t-86.5 358zM373 664q0 -188 106.5 -305t276.5 -117t276.5 116.5t106.5 303.5t-107.5 305t-277.5 118 q-171 0 -276 -115.5t-105 -305.5zM444 1534q0 58 62 130t134.5 121t115.5 60q43 -11 114.5 -60t133 -121t61.5 -130q0 -39 -25.5 -64.5t-66.5 -25.5q-100 0 -219 207q-116 -207 -215 -207q-41 0 -68 26t-27 64z" />
<glyph unicode="&#xd5;" horiz-adv-x="1509" d="M72 662q0 199 87.5 356.5t244 245.5t352.5 88q198 0 353.5 -87.5t242 -244.5t86.5 -356q0 -201 -87 -358.5t-243 -245t-354 -87.5t-353.5 87t-242 244t-86.5 358zM373 664q0 -188 106.5 -305t276.5 -117t276.5 116.5t106.5 303.5t-107.5 305t-277.5 118 q-171 0 -276 -115.5t-105 -305.5zM416 1548q0 89 53.5 150t128.5 61q137 0 287 -141q19 58 49 95.5t67 37.5q43 0 70 -28t27 -70q0 -89 -54 -149t-129 -60q-138 0 -286 139q-19 -58 -49.5 -95.5t-67.5 -37.5q-42 0 -69 28t-27 70z" />
<glyph unicode="&#xd6;" horiz-adv-x="1509" d="M72 662q0 199 87.5 356.5t244 245.5t352.5 88q198 0 353.5 -87.5t242 -244.5t86.5 -356q0 -201 -87 -358.5t-243 -245t-354 -87.5t-353.5 87t-242 244t-86.5 358zM373 664q0 -188 106.5 -305t276.5 -117t276.5 116.5t106.5 303.5t-107.5 305t-277.5 118 q-171 0 -276 -115.5t-105 -305.5zM399 1591q0 69 40 108.5t106 39.5q71 0 111 -39t40 -109t-39 -108.5t-106 -38.5q-70 0 -111 38.5t-41 108.5zM815 1591q0 70 39.5 109t106.5 39q70 0 110.5 -39t40.5 -109q0 -69 -39.5 -108t-105.5 -39q-71 0 -111.5 38.5t-40.5 108.5z" />
<glyph unicode="&#xd7;" horiz-adv-x="1134" d="M143 215q1 43 43 84l230 227l-230 228q-82 80 -12 157l19 17q29 35 71.5 33t85.5 -48l219 -231l219 231q43 46 87 48t73 -33l17 -17q33 -30 32 -73t-43 -84l-229 -228l229 -227q43 -41 44 -84t-33 -74l-19 -16q-27 -33 -71.5 -32t-86.5 44l-219 234l-219 -234 q-42 -43 -85 -44t-72 32l-17 16q-34 31 -33 74z" />
<glyph unicode="&#xd8;" horiz-adv-x="1509" d="M74 662q0 146 50.5 273.5t140 219t217 144.5t276.5 53q225 0 391 -113l147 164q7 7 36 -3t57 -36.5t28 -60.5q0 -47 -47 -99l-82 -92q152 -188 152 -448q0 -146 -50.5 -274t-140 -220t-217 -144.5t-276.5 -52.5q-229 0 -398 115l-159 -176q-6 -8 -35 2t-57.5 37t-28.5 61 q0 44 47 99l96 106q-147 183 -147 445zM354 664q0 -135 60 -240l553 614q-94 56 -211 56q-183 0 -292.5 -119.5t-109.5 -310.5zM541 289q96 -58 217 -58q181 0 292 121t111 310q0 137 -63 245z" />
<glyph unicode="&#xd9;" horiz-adv-x="1357" d="M109 557v639q0 68 34 102.5t97 34.5h39q131 0 131 -137v-635q0 -321 270 -321q136 0 202 79.5t66 243.5v633q0 137 131 137h41q129 0 129 -137v-635q0 -287 -145 -435.5t-426 -148.5t-425 147t-144 433zM354 1690q0 47 38 79.5t93 32.5q50 0 103 -35q62 -39 122 -108 t90 -125t23 -70q-8 -14 -63.5 -15.5t-143.5 20t-161 65.5q-47 29 -74 71t-27 85z" />
<glyph unicode="&#xda;" horiz-adv-x="1357" d="M109 557v639q0 68 34 102.5t97 34.5h39q131 0 131 -137v-635q0 -321 270 -321q136 0 202 79.5t66 243.5v633q0 137 131 137h41q129 0 129 -137v-635q0 -287 -145 -435.5t-426 -148.5t-425 147t-144 433zM539 1464q-7 14 23 70t90 125t122 108q53 35 103 35q55 0 93 -32.5 t38 -79.5q0 -43 -27 -85t-74 -71q-73 -44 -160.5 -65.5t-143 -20t-64.5 15.5z" />
<glyph unicode="&#xdb;" horiz-adv-x="1357" d="M109 557v639q0 68 34 102.5t97 34.5h39q131 0 131 -137v-635q0 -321 270 -321q136 0 202 79.5t66 243.5v633q0 137 131 137h41q129 0 129 -137v-635q0 -287 -145 -435.5t-426 -148.5t-425 147t-144 433zM365 1534q0 58 62 130t134 121t115 60q43 -11 114.5 -60t133 -121 t61.5 -130q0 -39 -25.5 -64.5t-66.5 -25.5q-100 0 -219 207q-116 -207 -215 -207q-41 0 -67.5 25.5t-26.5 64.5z" />
<glyph unicode="&#xdc;" horiz-adv-x="1357" d="M109 557v639q0 68 34 102.5t97 34.5h39q131 0 131 -137v-635q0 -321 270 -321q136 0 202 79.5t66 243.5v633q0 137 131 137h41q129 0 129 -137v-635q0 -287 -145 -435.5t-426 -148.5t-425 147t-144 433zM319 1591q0 69 40 108.5t106 39.5q71 0 111 -39t40 -109 t-39 -108.5t-106 -38.5q-70 0 -111 38.5t-41 108.5zM735 1591q0 70 39.5 109t106.5 39q70 0 110.5 -39t40.5 -109q0 -69 -39.5 -108t-105.5 -39q-71 0 -111.5 38.5t-40.5 108.5z" />
<glyph unicode="&#xdd;" horiz-adv-x="1234" d="M4 1217q-3 5 1.5 18t19 29.5t36.5 32t58 26t78 10.5q87 0 143 -104l278 -457l283 455q61 106 146 106q38 0 71.5 -10.5t54.5 -26t36 -32.5t20 -29.5t2 -17.5l-461 -685v-403q0 -137 -133 -137h-41q-129 0 -129 137v403zM467 1464q-7 14 23 70t90 125t122 108 q53 35 103 35q55 0 93 -32.5t38 -79.5q0 -43 -26.5 -85t-73.5 -71q-73 -44 -160.5 -65.5t-143.5 -20t-65 15.5z" />
<glyph unicode="&#xde;" horiz-adv-x="1222" d="M119 129v1067q0 137 127 137h43q133 0 133 -137v-90h194q266 0 406.5 -112.5t140.5 -327.5q0 -216 -137.5 -326.5t-407.5 -110.5h-196v-100q0 -137 -133 -137h-43q-62 0 -94.5 35t-32.5 102zM422 459h196q125 0 189.5 52.5t64.5 152.5q0 206 -251 206h-199v-411z" />
<glyph unicode="&#xdf;" horiz-adv-x="1198" d="M109 125v807q0 258 125 380t380 122q216 0 340.5 -94.5t124.5 -252.5q0 -124 -62.5 -194.5t-189.5 -93.5q166 -53 250 -163.5t84 -260.5q0 -174 -112 -288t-281 -114q-143 0 -220 49.5t-77 127.5q0 32 17 62t34 45.5t21 12.5q32 -34 70 -51.5t100 -17.5q71 0 121.5 50 t50.5 122q0 84 -53 143t-179 94q-65 20 -96 53.5t-31 98.5q0 31 13 62t26 46l13 15q112 0 168.5 40t56.5 126q0 75 -52.5 119t-140.5 44q-213 0 -213 -260v-829q0 -68 -34 -103.5t-95 -35.5h-30q-60 0 -94.5 36.5t-34.5 102.5z" />
<glyph unicode="&#xe0;" horiz-adv-x="1118" d="M57 266q0 171 156.5 253t486.5 87h33q0 97 -52.5 148t-152.5 51q-174 0 -247 -154q0 -1 -10.5 -1.5t-27 1t-36 5t-39.5 13t-36.5 22.5t-27 34.5t-10.5 48.5q0 102 118.5 175t334.5 73q235 0 353 -105t118 -307v-592q0 -11 -34.5 -21.5t-74.5 -10.5q-147 0 -170 157 q-54 -78 -145 -122t-201 -44q-155 0 -245.5 80t-90.5 209zM258 1372q0 47 38 80t93 33q50 0 103 -35q62 -39 122 -108t90 -125t23 -70q-8 -14 -64 -15.5t-144 20t-161 65.5q-47 29 -73.5 70.5t-26.5 84.5zM334 287q0 -56 41.5 -88.5t113.5 -32.5q107 0 175.5 63.5 t68.5 161.5v58l-53 -3q-175 -5 -260.5 -42t-85.5 -117z" />
<glyph unicode="&#xe1;" horiz-adv-x="1118" d="M57 266q0 171 156.5 253t486.5 87h33q0 97 -52.5 148t-152.5 51q-174 0 -247 -154q0 -1 -10.5 -1.5t-27 1t-36 5t-39.5 13t-36.5 22.5t-27 34.5t-10.5 48.5q0 102 118.5 175t334.5 73q235 0 353 -105t118 -307v-592q0 -11 -34.5 -21.5t-74.5 -10.5q-147 0 -170 157 q-54 -78 -145 -122t-201 -44q-155 0 -245.5 80t-90.5 209zM334 287q0 -56 41.5 -88.5t113.5 -32.5q107 0 175.5 63.5t68.5 161.5v58l-53 -3q-175 -5 -260.5 -42t-85.5 -117zM391 1147q-7 14 23.5 70t90.5 125t122 108q53 35 102 35q55 0 93 -33t38 -80q0 -43 -26.5 -84.5 t-73.5 -70.5q-73 -44 -160.5 -65.5t-143.5 -20t-65 15.5z" />
<glyph unicode="&#xe2;" horiz-adv-x="1118" d="M57 266q0 171 156.5 253t486.5 87h33q0 97 -52.5 148t-152.5 51q-174 0 -247 -154q0 -1 -10.5 -1.5t-27 1t-36 5t-39.5 13t-36.5 22.5t-27 34.5t-10.5 48.5q0 102 118.5 175t334.5 73q235 0 353 -105t118 -307v-592q0 -11 -34.5 -21.5t-74.5 -10.5q-147 0 -170 157 q-54 -78 -145 -122t-201 -44q-155 0 -245.5 80t-90.5 209zM248 1204q0 58 62 130.5t134 121.5t115 60q43 -11 114.5 -60t133 -121.5t61.5 -130.5q0 -39 -25.5 -64.5t-66.5 -25.5q-100 0 -219 207q-116 -207 -215 -207q-41 0 -67.5 25.5t-26.5 64.5zM334 287 q0 -56 41.5 -88.5t113.5 -32.5q107 0 175.5 63.5t68.5 161.5v58l-53 -3q-175 -5 -260.5 -42t-85.5 -117z" />
<glyph unicode="&#xe3;" horiz-adv-x="1118" d="M57 266q0 171 156.5 253t486.5 87h33q0 97 -52.5 148t-152.5 51q-174 0 -247 -154q0 -1 -10.5 -1.5t-27 1t-36 5t-39.5 13t-36.5 22.5t-27 34.5t-10.5 48.5q0 102 118.5 175t334.5 73q235 0 353 -105t118 -307v-592q0 -11 -34.5 -21.5t-74.5 -10.5q-147 0 -170 157 q-54 -78 -145 -122t-201 -44q-155 0 -245.5 80t-90.5 209zM211 1219q0 89 53.5 150t128.5 61q136 0 287 -142q19 58 49.5 95.5t67.5 37.5q43 0 69.5 -28t26.5 -70q0 -89 -53.5 -149t-128.5 -60q-139 0 -287 139q-19 -58 -49.5 -95.5t-67.5 -37.5q-42 0 -69 28.5t-27 70.5z M334 287q0 -56 41.5 -88.5t113.5 -32.5q107 0 175.5 63.5t68.5 161.5v58l-53 -3q-175 -5 -260.5 -42t-85.5 -117z" />
<glyph unicode="&#xe4;" horiz-adv-x="1118" d="M57 266q0 171 156.5 253t486.5 87h33q0 97 -52.5 148t-152.5 51q-174 0 -247 -154q0 -1 -10.5 -1.5t-27 1t-36 5t-39.5 13t-36.5 22.5t-27 34.5t-10.5 48.5q0 102 118.5 175t334.5 73q235 0 353 -105t118 -307v-592q0 -11 -34.5 -21.5t-74.5 -10.5q-147 0 -170 157 q-54 -78 -145 -122t-201 -44q-155 0 -245.5 80t-90.5 209zM195 1262q0 69 39.5 108t105.5 39q71 0 111.5 -38.5t40.5 -108.5t-39.5 -109t-106.5 -39q-70 0 -110.5 39t-40.5 109zM334 287q0 -56 41.5 -88.5t113.5 -32.5q107 0 175.5 63.5t68.5 161.5v58l-53 -3 q-175 -5 -260.5 -42t-85.5 -117zM610 1262q0 70 39.5 108.5t106.5 38.5q70 0 110.5 -38.5t40.5 -108.5q0 -69 -39.5 -108.5t-105.5 -39.5q-71 0 -111.5 39t-40.5 109z" />
<glyph unicode="&#xe5;" horiz-adv-x="1118" d="M57 266q0 171 156.5 253t486.5 87h33q0 97 -52.5 148t-152.5 51q-174 0 -247 -154q0 -1 -10.5 -1.5t-27 1t-36 5t-39.5 13t-36.5 22.5t-27 34.5t-10.5 48.5q0 102 118.5 175t334.5 73q235 0 353 -105t118 -307v-592q0 -11 -34.5 -21.5t-74.5 -10.5q-147 0 -170 157 q-54 -78 -145 -122t-201 -44q-155 0 -245.5 80t-90.5 209zM293 1364q0 107 73 178.5t185 71.5q114 0 185 -70.5t71 -179.5q0 -108 -72.5 -179t-185.5 -71q-114 0 -185 70.5t-71 179.5zM334 287q0 -56 41.5 -88.5t113.5 -32.5q107 0 175.5 63.5t68.5 161.5v58l-53 -3 q-175 -5 -260.5 -42t-85.5 -117zM438 1364q0 -49 32.5 -84t78.5 -35q49 0 81 34t32 85t-33 86t-80 35q-46 0 -78.5 -35t-32.5 -86z" />
<glyph unicode="&#xe6;" horiz-adv-x="1779" d="M57 266q0 171 156.5 253t486.5 87h33q0 97 -52.5 148t-152.5 51q-174 0 -247 -154q0 -1 -10.5 -1.5t-27 1t-36 5t-39.5 13t-36.5 22.5t-27 34.5t-10.5 48.5q0 101 113 174.5t317 73.5q250 0 355 -145q132 145 350 145q222 0 361 -140t139 -360v-20q-2 -40 -17.5 -60 t-52.5 -20h-690q15 -112 93.5 -175t197.5 -63q197 0 280 148q1 2 15.5 -0.5t35 -10.5t41 -21.5t35 -39t14.5 -57.5q0 -89 -118.5 -159.5t-313.5 -70.5q-318 0 -440 226q-54 -100 -164 -161t-250 -61q-154 0 -246 80t-92 209zM334 287q0 -56 41.5 -88.5t113.5 -32.5 q107 0 175.5 63.5t68.5 161.5v58l-53 -3q-175 -5 -260.5 -42t-85.5 -117zM967 590h493q-6 106 -68 168.5t-165 62.5q-101 0 -173 -64.5t-87 -166.5z" />
<glyph unicode="&#xe7;" horiz-adv-x="1052" d="M55 500q0 227 149 373.5t378 146.5q87 0 161 -19t121.5 -48.5t81 -66t48 -71.5t14.5 -65q0 -52 -39 -85t-78 -41t-43 -1q-67 165 -254 165q-119 0 -195.5 -81t-76.5 -207q0 -129 76.5 -212t195.5 -83q187 0 254 166q2 2 18 3t40 -8t46.5 -22t39 -40t16.5 -62 q0 -38 -25.5 -82t-74 -87t-134.5 -71.5t-192 -28.5q-232 0 -379.5 147.5t-147.5 379.5zM350 -408l90 222q19 51 46.5 71.5t93.5 20.5h30q57 0 89 -22t32 -64v-10q0 -26 -18.5 -51t-59.5 -60l-157 -156q-29 -16 -66 -16.5t-64 18.5t-16 47z" />
<glyph unicode="&#xe8;" horiz-adv-x="1126" d="M55 492q0 229 148 379.5t375 150.5q221 0 359 -140t138 -360v-20q-2 -41 -16.5 -60.5t-52.5 -19.5h-691q15 -111 94 -174.5t197 -63.5q196 0 283 148q1 2 15 -0.5t34.5 -10.5t41 -21.5t34.5 -39t14 -57.5q0 -89 -117.5 -159.5t-314.5 -70.5q-245 0 -393 141.5t-148 377.5 zM248 1372q0 47 38 80t93 33q49 0 102 -35q62 -39 122 -108t90.5 -125t23.5 -70q-8 -14 -64 -15.5t-144 20t-161 65.5q-47 29 -73.5 70.5t-26.5 84.5zM315 590h492q-5 105 -68 168t-166 63q-101 0 -172 -64.5t-86 -166.5z" />
<glyph unicode="&#xe9;" horiz-adv-x="1126" d="M55 492q0 229 148 379.5t375 150.5q221 0 359 -140t138 -360v-20q-2 -41 -16.5 -60.5t-52.5 -19.5h-691q15 -111 94 -174.5t197 -63.5q196 0 283 148q1 2 15 -0.5t34.5 -10.5t41 -21.5t34.5 -39t14 -57.5q0 -89 -117.5 -159.5t-314.5 -70.5q-245 0 -393 141.5t-148 377.5 zM315 590h492q-5 105 -68 168t-166 63q-101 0 -172 -64.5t-86 -166.5zM406 1147q-7 14 23 70t90 125t122 108q53 35 102 35q55 0 93 -33t38 -80q0 -43 -26.5 -84.5t-73.5 -70.5q-73 -44 -160.5 -65.5t-143 -20t-64.5 15.5z" />
<glyph unicode="&#xea;" horiz-adv-x="1126" d="M55 492q0 229 148 379.5t375 150.5q221 0 359 -140t138 -360v-20q-2 -41 -16.5 -60.5t-52.5 -19.5h-691q15 -111 94 -174.5t197 -63.5q196 0 283 148q1 2 15 -0.5t34.5 -10.5t41 -21.5t34.5 -39t14 -57.5q0 -89 -117.5 -159.5t-314.5 -70.5q-245 0 -393 141.5t-148 377.5 zM264 1204q0 58 62 130.5t134 121.5t115 60q31 -8 82.5 -40.5t102.5 -76t88 -97.5t37 -98q0 -39 -25.5 -64.5t-66.5 -25.5q-101 0 -220 207q-116 -207 -215 -207q-41 0 -67.5 25.5t-26.5 64.5zM315 590h492q-5 105 -68 168t-166 63q-101 0 -172 -64.5t-86 -166.5z" />
<glyph unicode="&#xeb;" horiz-adv-x="1126" d="M55 492q0 229 148 379.5t375 150.5q221 0 359 -140t138 -360v-20q-2 -41 -16.5 -60.5t-52.5 -19.5h-691q15 -111 94 -174.5t197 -63.5q196 0 283 148q1 2 15 -0.5t34.5 -10.5t41 -21.5t34.5 -39t14 -57.5q0 -89 -117.5 -159.5t-314.5 -70.5q-245 0 -393 141.5t-148 377.5 zM219 1262q0 69 40 108t106 39q71 0 111 -38.5t40 -108.5t-39 -109t-106 -39q-70 0 -111 39t-41 109zM315 590h492q-5 105 -68 168t-166 63q-101 0 -172 -64.5t-86 -166.5zM635 1262q0 70 39 108.5t106 38.5q70 0 111 -38.5t41 -108.5q0 -69 -40 -108.5t-106 -39.5 q-71 0 -111 39t-40 109z" />
<glyph unicode="&#xec;" d="M-51 1372q0 47 38 80t93 33q49 0 102 -35q62 -39 122 -108t90.5 -125t23.5 -70q-8 -14 -64 -15.5t-144 20t-161 65.5q-47 29 -73.5 70.5t-26.5 84.5zM117 129v741q0 140 129 140h30q63 0 96.5 -32t33.5 -108v-741q0 -137 -127 -137h-31q-62 0 -96.5 31t-34.5 106z" />
<glyph unicode="&#xed;" d="M109 1147q-7 14 23 70t90 125t122 108q53 35 102 35q55 0 93.5 -33t38.5 -80q0 -43 -27 -84.5t-74 -70.5q-73 -44 -160.5 -65.5t-143 -20t-64.5 15.5zM117 129v741q0 140 129 140h30q63 0 96.5 -32t33.5 -108v-741q0 -137 -127 -137h-31q-62 0 -96.5 31t-34.5 106z" />
<glyph unicode="&#xee;" d="M-47 1204q0 58 62 130.5t134 121.5t115 60q43 -11 114.5 -60t133 -121.5t61.5 -130.5q0 -39 -25.5 -64.5t-66.5 -25.5q-100 0 -219 207q-116 -207 -215 -207q-41 0 -67.5 25.5t-26.5 64.5zM117 129v741q0 140 129 140h30q63 0 96.5 -32t33.5 -108v-741q0 -137 -127 -137 h-31q-62 0 -96.5 31t-34.5 106z" />
<glyph unicode="&#xef;" d="M-92 1262q0 69 39.5 108t105.5 39q71 0 111.5 -38.5t40.5 -108.5t-39.5 -109t-106.5 -39q-70 0 -110.5 39t-40.5 109zM117 129v741q0 140 129 140h30q63 0 96.5 -32t33.5 -108v-741q0 -137 -127 -137h-31q-62 0 -96.5 31t-34.5 106zM324 1262q0 70 39 108.5t106 38.5 q70 0 111 -38.5t41 -108.5q0 -69 -40 -108.5t-106 -39.5q-71 0 -111 39t-40 109z" />
<glyph unicode="&#xf0;" horiz-adv-x="1226" d="M63 463q0 209 133 340t347 131q107 0 192.5 -45.5t132.5 -116.5q-51 222 -227 361l-203 -109q-50 -25 -85.5 -15.5t-53.5 50.5l-4 10q-19 39 -6.5 72.5t63.5 60.5l84 43q-98 41 -233 60q-13 3 0 43.5t68 81t143 40.5q155 0 305 -81l209 108q32 19 59 16t44.5 -15 t35.5 -36l6 -8q25 -33 10 -70t-67 -63l-121 -64q123 -118 194.5 -285.5t71.5 -369.5q0 -290 -155.5 -459.5t-411.5 -169.5q-241 0 -386 130.5t-145 359.5zM342 467q0 -121 70 -193.5t186 -72.5q124 0 196 83.5t72 217.5v84q-33 59 -104 101t-152 42q-126 0 -197 -70.5 t-71 -191.5z" />
<glyph unicode="&#xf1;" horiz-adv-x="1189" d="M109 129v848q0 4 14.5 12t41 14.5t52.5 6.5q64 0 112 -37.5t62 -126.5q121 176 330 176q95 0 167.5 -32t116 -89.5t65.5 -131t22 -161.5v-479q0 -137 -127 -137h-31q-63 0 -97 31t-34 106v436q0 100 -49 157.5t-136 57.5q-74 0 -131.5 -35.5t-89.5 -95.5v-520 q0 -137 -127 -137h-30q-63 0 -97 31t-34 106zM256 1219q0 89 53.5 150t128.5 61q136 0 287 -142q19 58 49.5 95.5t67.5 37.5q43 0 69.5 -28t26.5 -70q0 -89 -53.5 -149t-128.5 -60q-139 0 -287 139q-19 -58 -49.5 -95.5t-67.5 -37.5q-42 0 -69 28.5t-27 70.5z" />
<glyph unicode="&#xf2;" horiz-adv-x="1179" d="M55 500q0 230 149.5 376t387.5 146q236 0 384 -146.5t148 -379.5t-148.5 -378t-387.5 -145q-238 0 -385.5 145.5t-147.5 381.5zM258 1372q0 47 38 80t93 33q50 0 103 -35q62 -39 122 -108t90 -125t23 -70q-8 -14 -64 -15.5t-144 20t-161 65.5q-47 29 -73.5 70.5 t-26.5 84.5zM309 500q0 -130 79.5 -214.5t201.5 -84.5q120 0 199 84t79 211q0 131 -78.5 216t-199.5 85q-122 0 -201.5 -84t-79.5 -213z" />
<glyph unicode="&#xf3;" horiz-adv-x="1179" d="M55 500q0 230 149.5 376t387.5 146q236 0 384 -146.5t148 -379.5t-148.5 -378t-387.5 -145q-238 0 -385.5 145.5t-147.5 381.5zM309 500q0 -130 79.5 -214.5t201.5 -84.5q120 0 199 84t79 211q0 131 -78.5 216t-199.5 85q-122 0 -201.5 -84t-79.5 -213zM455 1147 q-7 14 23 70t90 125t122 108q53 35 103 35q55 0 93 -33t38 -80q0 -43 -27 -84.5t-74 -70.5q-73 -44 -160.5 -65.5t-143 -20t-64.5 15.5z" />
<glyph unicode="&#xf4;" horiz-adv-x="1179" d="M55 500q0 230 149.5 376t387.5 146q236 0 384 -146.5t148 -379.5t-148.5 -378t-387.5 -145q-238 0 -385.5 145.5t-147.5 381.5zM281 1204q0 58 62 130.5t134 121.5t115 60q43 -11 114.5 -60t133 -121.5t61.5 -130.5q0 -39 -25.5 -64.5t-66.5 -25.5q-100 0 -219 207 q-116 -207 -215 -207q-41 0 -67.5 25.5t-26.5 64.5zM309 500q0 -130 79.5 -214.5t201.5 -84.5q120 0 199 84t79 211q0 131 -78.5 216t-199.5 85q-122 0 -201.5 -84t-79.5 -213z" />
<glyph unicode="&#xf5;" horiz-adv-x="1179" d="M55 500q0 230 149.5 376t387.5 146q236 0 384 -146.5t148 -379.5t-148.5 -378t-387.5 -145q-238 0 -385.5 145.5t-147.5 381.5zM252 1219q0 89 53.5 150t128.5 61q136 0 287 -142q19 58 49.5 95.5t67.5 37.5q43 0 69.5 -28t26.5 -70q0 -89 -53.5 -149t-128.5 -60 q-139 0 -287 139q-19 -58 -49.5 -95.5t-67.5 -37.5q-42 0 -69 28.5t-27 70.5zM309 500q0 -130 79.5 -214.5t201.5 -84.5q120 0 199 84t79 211q0 131 -78.5 216t-199.5 85q-122 0 -201.5 -84t-79.5 -213z" />
<glyph unicode="&#xf6;" horiz-adv-x="1179" d="M55 500q0 230 149.5 376t387.5 146q236 0 384 -146.5t148 -379.5t-148.5 -378t-387.5 -145q-238 0 -385.5 145.5t-147.5 381.5zM236 1262q0 69 39.5 108t105.5 39q71 0 111 -38.5t40 -108.5t-39 -109t-106 -39q-70 0 -110.5 39t-40.5 109zM309 500q0 -130 79.5 -214.5 t201.5 -84.5q120 0 199 84t79 211q0 131 -78.5 216t-199.5 85q-122 0 -201.5 -84t-79.5 -213zM651 1262q0 70 39.5 108.5t106.5 38.5q70 0 110.5 -38.5t40.5 -108.5q0 -69 -39.5 -108.5t-105.5 -39.5q-71 0 -111.5 39t-40.5 109z" />
<glyph unicode="&#xf7;" horiz-adv-x="1228" d="M123 524v15q0 49 29.5 76.5t89.5 27.5h743q60 0 89.5 -27.5t29.5 -76.5v-15q0 -106 -119 -106h-743q-119 0 -119 106zM477 145v25q0 121 119 121h33q121 0 121 -121v-25q0 -118 -121 -118h-33q-119 0 -119 118zM477 893v25q0 120 119 120h33q121 0 121 -120v-25 q0 -119 -121 -119h-33q-119 0 -119 119z" />
<glyph unicode="&#xf8;" horiz-adv-x="1179" d="M39 -25q0 43 47 93l88 98q-108 136 -108 330q0 223 151.5 374.5t378.5 151.5q151 0 285 -80l155 174q6 7 34.5 -2t56.5 -34t28 -56q0 -41 -45 -94l-94 -105q108 -140 108 -325q0 -147 -68.5 -267.5t-190.5 -190t-273 -69.5q-157 0 -281 76l-153 -168q-6 -7 -34.5 2.5 t-56.5 34.5t-28 57zM309 498q0 -88 43 -160l383 420q-64 45 -141 45q-123 0 -204 -86.5t-81 -218.5zM455 240q61 -45 139 -45q123 0 204 86t81 217q0 90 -45 157q1 0 -94 -103.5t-190 -207.5z" />
<glyph unicode="&#xf9;" horiz-adv-x="1189" d="M100 387v483q0 140 127 140h31q131 0 131 -140v-440q0 -101 49.5 -158t139.5 -57q70 0 126.5 35.5t88.5 95.5v524q0 140 129 140h28q63 0 97 -32.5t34 -107.5v-845q0 -5 -14 -13t-40.5 -14t-53.5 -6q-145 0 -174 158q-121 -177 -328 -177q-95 0 -168 32t-116.5 89.5 t-65 131t-21.5 161.5zM260 1372q0 47 38 80t93 33q50 0 103 -35q62 -39 122 -108t90 -125t23 -70q-8 -14 -64 -15.5t-144 20t-161 65.5q-47 29 -73.5 70.5t-26.5 84.5z" />
<glyph unicode="&#xfa;" horiz-adv-x="1189" d="M100 387v483q0 140 127 140h31q131 0 131 -140v-440q0 -101 49.5 -158t139.5 -57q70 0 126.5 35.5t88.5 95.5v524q0 140 129 140h28q63 0 97 -32.5t34 -107.5v-845q0 -5 -14 -13t-40.5 -14t-53.5 -6q-145 0 -174 158q-121 -177 -328 -177q-95 0 -168 32t-116.5 89.5 t-65 131t-21.5 161.5zM467 1147q-7 14 23 70t90 125t122 108q53 35 103 35q55 0 93 -33t38 -80q0 -43 -26.5 -84.5t-73.5 -70.5q-73 -44 -160.5 -65.5t-143.5 -20t-65 15.5z" />
<glyph unicode="&#xfb;" horiz-adv-x="1189" d="M100 387v483q0 140 127 140h31q131 0 131 -140v-440q0 -101 49.5 -158t139.5 -57q70 0 126.5 35.5t88.5 95.5v524q0 140 129 140h28q63 0 97 -32.5t34 -107.5v-845q0 -5 -14 -13t-40.5 -14t-53.5 -6q-145 0 -174 158q-121 -177 -328 -177q-95 0 -168 32t-116.5 89.5 t-65 131t-21.5 161.5zM285 1204q0 58 62 130.5t134 121.5t115 60q43 -11 114.5 -60t133 -121.5t61.5 -130.5q0 -39 -25.5 -64.5t-66.5 -25.5q-100 0 -219 207q-116 -207 -215 -207q-41 0 -67.5 25.5t-26.5 64.5z" />
<glyph unicode="&#xfc;" horiz-adv-x="1189" d="M100 387v483q0 140 127 140h31q131 0 131 -140v-440q0 -101 49.5 -158t139.5 -57q70 0 126.5 35.5t88.5 95.5v524q0 140 129 140h28q63 0 97 -32.5t34 -107.5v-845q0 -5 -14 -13t-40.5 -14t-53.5 -6q-145 0 -174 158q-121 -177 -328 -177q-95 0 -168 32t-116.5 89.5 t-65 131t-21.5 161.5zM242 1262q0 69 39.5 108t105.5 39q71 0 111.5 -38.5t40.5 -108.5t-39.5 -109t-106.5 -39q-70 0 -110.5 39t-40.5 109zM657 1262q0 70 39.5 108.5t106.5 38.5q70 0 110.5 -38.5t40.5 -108.5q0 -69 -39.5 -108.5t-105.5 -39.5q-71 0 -111.5 39t-40.5 109 z" />
<glyph unicode="&#xfd;" horiz-adv-x="1087" d="M23 926q-3 9 17.5 28.5t60 38t79.5 19.5q117 0 162 -146l217 -571l193 569q46 148 159 148q37 0 76.5 -17.5t61 -37t18.5 -27.5l-455 -1182q-56 -141 -163 -141q-38 0 -77.5 17t-60 36t-16.5 27l166 376q-69 9 -94 66zM410 1137q-7 14 23 70t90 125t122 108q53 35 103 35 q55 0 93 -33t38 -80q0 -43 -27 -85t-74 -71q-73 -44 -160.5 -65t-143 -19.5t-64.5 15.5z" />
<glyph unicode="&#xfe;" horiz-adv-x="1251" d="M109 -260v1651q0 5 14.5 12.5t40.5 13.5t53 6q35 0 65 -10.5t57 -35t42.5 -71.5t15.5 -114v-348q57 84 140.5 131t183.5 47q205 0 334 -143.5t129 -380.5q0 -238 -128.5 -381.5t-338.5 -143.5q-101 0 -186.5 44t-133.5 112v-389q0 -139 -127 -139h-30q-63 0 -97 32 t-34 107zM397 442q0 -104 72 -171.5t178 -67.5q117 0 187.5 81.5t70.5 213.5q0 130 -71 211.5t-185 81.5q-89 0 -154 -43.5t-98 -120.5v-185z" />
<glyph unicode="&#xff;" horiz-adv-x="1087" d="M23 926q-3 9 17.5 28.5t60 38t79.5 19.5q117 0 162 -146l217 -571l193 569q46 148 159 148q37 0 76.5 -17.5t61 -37t18.5 -27.5l-455 -1182q-56 -141 -163 -141q-38 0 -77.5 17t-60 36t-16.5 27l166 376q-69 9 -94 66zM195 1262q0 69 39.5 108t105.5 39q71 0 111.5 -38.5 t40.5 -108.5t-39.5 -109t-106.5 -39q-70 0 -110.5 39t-40.5 109zM610 1262q0 70 39.5 108.5t106.5 38.5q70 0 110.5 -38.5t40.5 -108.5q0 -69 -39.5 -108.5t-105.5 -39.5q-71 0 -111.5 39t-40.5 109z" />
<glyph unicode="&#x152;" horiz-adv-x="2109" d="M72 662q0 199 87.5 356.5t244 245.5t352.5 88q108 0 207 -27h933q140 0 140 -127v-10q0 -127 -140 -127h-598q110 -96 125 -262h316q139 0 139 -117v-8q0 -123 -139 -123h-314q-9 -178 -129 -289h613q137 0 137 -119v-12q0 -131 -137 -131h-946q-99 -27 -209 -27 q-198 0 -353.5 87t-242 244t-86.5 358zM373 664q0 -188 106.5 -305t276.5 -117t276.5 116.5t106.5 303.5t-107.5 305t-277.5 118q-171 0 -276 -115.5t-105 -305.5z" />
<glyph unicode="&#x153;" horiz-adv-x="1939" d="M55 500q0 230 149.5 376t387.5 146q127 0 229.5 -50.5t169.5 -142.5q67 92 170 142.5t230 50.5q221 0 359 -140t138 -360v-20q-2 -41 -16.5 -60.5t-52.5 -19.5h-691q15 -111 94 -174.5t197 -63.5q196 0 283 148q1 2 15 -0.5t34.5 -10.5t41 -21.5t34.5 -39t14 -57.5 q0 -89 -117.5 -159.5t-314.5 -70.5q-290 0 -426 187q-67 -89 -168 -138t-227 -49q-238 0 -385.5 145.5t-147.5 381.5zM309 500q0 -130 79.5 -214.5t201.5 -84.5q120 0 199 84t79 211q0 131 -78.5 216t-199.5 85q-122 0 -201.5 -84t-79.5 -213zM1128 590h492 q-5 105 -67.5 168t-166.5 63q-101 0 -172 -64.5t-86 -166.5z" />
<glyph unicode="&#x178;" horiz-adv-x="1234" d="M4 1217q-3 5 1.5 18t19 29.5t36.5 32t58 26t78 10.5q87 0 143 -104l278 -457l283 455q61 106 146 106q38 0 71.5 -10.5t54.5 -26t36 -32.5t20 -29.5t2 -17.5l-461 -685v-403q0 -137 -133 -137h-41q-129 0 -129 137v403zM260 1591q0 69 40 108.5t106 39.5q71 0 111 -39 t40 -109t-39 -108.5t-106 -38.5q-70 0 -111 38.5t-41 108.5zM676 1591q0 70 39 109t106 39q70 0 111 -39t41 -109q0 -69 -40 -108t-106 -39q-71 0 -111 38.5t-40 108.5z" />
<glyph unicode="&#x2c6;" horiz-adv-x="1024" d="M201 1204q0 58 62 130.5t134 121.5t115 60q43 -11 114.5 -60t133 -121.5t61.5 -130.5q0 -39 -25.5 -64.5t-66.5 -25.5q-100 0 -219 207q-116 -207 -215 -207q-41 0 -67.5 25.5t-26.5 64.5z" />
<glyph unicode="&#x2dc;" horiz-adv-x="1024" d="M170 1219q0 89 53.5 150t128.5 61q136 0 287 -142q19 58 49.5 95.5t67.5 37.5q43 0 69.5 -28t26.5 -70q0 -89 -53.5 -149t-128.5 -60q-139 0 -287 139q-19 -58 -49.5 -95.5t-67.5 -37.5q-42 0 -69 28.5t-27 70.5z" />
<glyph unicode="&#x2000;" horiz-adv-x="922" />
<glyph unicode="&#x2001;" horiz-adv-x="1845" />
<glyph unicode="&#x2002;" horiz-adv-x="922" />
<glyph unicode="&#x2003;" horiz-adv-x="1845" />
<glyph unicode="&#x2004;" horiz-adv-x="615" />
<glyph unicode="&#x2005;" horiz-adv-x="461" />
<glyph unicode="&#x2006;" horiz-adv-x="307" />
<glyph unicode="&#x2007;" horiz-adv-x="307" />
<glyph unicode="&#x2008;" horiz-adv-x="230" />
<glyph unicode="&#x2009;" horiz-adv-x="369" />
<glyph unicode="&#x200a;" horiz-adv-x="102" />
<glyph unicode="&#x2010;" horiz-adv-x="876" d="M74 479v43q0 48 31.5 79.5t87.5 31.5h491q56 0 87.5 -31.5t31.5 -79.5v-43q0 -48 -31.5 -79t-87.5 -31h-491q-56 0 -87.5 31t-31.5 79z" />
<glyph unicode="&#x2011;" horiz-adv-x="876" d="M74 479v43q0 48 31.5 79.5t87.5 31.5h491q56 0 87.5 -31.5t31.5 -79.5v-43q0 -48 -31.5 -79t-87.5 -31h-491q-56 0 -87.5 31t-31.5 79z" />
<glyph unicode="&#x2012;" horiz-adv-x="876" d="M74 479v43q0 48 31.5 79.5t87.5 31.5h491q56 0 87.5 -31.5t31.5 -79.5v-43q0 -48 -31.5 -79t-87.5 -31h-491q-56 0 -87.5 31t-31.5 79z" />
<glyph unicode="&#x2013;" horiz-adv-x="1138" d="M74 489v25q0 47 30.5 78t88.5 31h743q60 0 89.5 -30.5t29.5 -78.5v-25q0 -49 -29.5 -79.5t-89.5 -30.5h-743q-59 0 -89 30.5t-30 79.5z" />
<glyph unicode="&#x2014;" horiz-adv-x="1474" d="M74 489v25q0 47 30.5 78t88.5 31h1089q60 0 89.5 -30.5t29.5 -78.5v-25q0 -49 -29.5 -79.5t-89.5 -30.5h-1089q-59 0 -89 30.5t-30 79.5z" />
<glyph unicode="&#x2018;" horiz-adv-x="479" d="M59 934v10q0 74 68 156l162 223q17 20 45.5 24.5t53.5 -5t40 -32.5t8 -53l-92 -323q-19 -71 -45 -99t-92 -28h-31q-55 0 -86 32t-31 95z" />
<glyph unicode="&#x2019;" horiz-adv-x="479" d="M45 899l92 326q8 35 16.5 55.5t23.5 38t38.5 24.5t58.5 7h29q55 0 86 -31.5t31 -93.5v-13q0 -78 -66 -153l-164 -225q-17 -19 -45 -23.5t-52.5 5t-39.5 32t-8 51.5z" />
<glyph unicode="&#x201a;" horiz-adv-x="479" d="M33 -158l92 326q19 70 45.5 97.5t93.5 27.5h29q55 0 86 -31.5t31 -93.5v-12q0 -80 -68 -154l-162 -225q-18 -19 -46 -23.5t-52.5 5t-39.5 32t-9 51.5z" />
<glyph unicode="&#x201c;" horiz-adv-x="890" d="M59 934v10q0 76 68 156l162 223q18 20 46.5 24.5t53 -5t39.5 -32.5t8 -53l-94 -323q-16 -71 -42.5 -99t-92.5 -28h-31q-55 0 -86 32t-31 95zM473 934v10q0 78 66 156l161 223q18 19 47 23.5t53.5 -4.5t39 -32t8.5 -53l-92 -323q-16 -70 -43.5 -98.5t-94.5 -28.5h-30 q-55 0 -85 32t-30 95z" />
<glyph unicode="&#x201d;" horiz-adv-x="890" d="M43 899l92 326q16 69 43.5 97t93.5 28h31q55 0 85 -31.5t30 -93.5v-13q0 -81 -66 -153l-162 -225q-18 -19 -46 -23.5t-52.5 5t-39.5 32t-9 51.5zM455 899l94 326q19 71 44 98t91 27h33q54 0 84 -31.5t30 -93.5v-13q0 -76 -65 -153l-164 -225q-17 -19 -45.5 -23.5t-53.5 5 t-40 32t-8 51.5z" />
<glyph unicode="&#x201e;" horiz-adv-x="890" d="M33 -158l92 326q8 35 16.5 55.5t23.5 38t38.5 24.5t58.5 7h29q55 0 86 -31.5t31 -93.5v-12q0 -79 -66 -154l-164 -225q-17 -19 -45 -23.5t-52.5 5t-39.5 32t-8 51.5zM444 -158l93 326q19 71 44.5 98t92.5 27h31q55 0 84.5 -31.5t29.5 -93.5v-12q0 -77 -65 -154l-162 -225 q-18 -20 -47 -24.5t-54 5t-40 32.5t-7 52z" />
<glyph unicode="&#x2022;" horiz-adv-x="710" d="M94 502q0 113 75 190.5t187 77.5q110 0 186 -77.5t76 -190.5q0 -109 -76.5 -186.5t-185.5 -77.5q-112 0 -187 75.5t-75 188.5z" />
<glyph unicode="&#x2026;" horiz-adv-x="1466" d="M88 121v29q0 135 135 135h37q139 0 139 -135v-29q0 -135 -139 -135h-37q-135 0 -135 135zM578 121v29q0 135 135 135h37q139 0 139 -135v-29q0 -135 -139 -135h-37q-135 0 -135 135zM1065 121v29q0 135 137 135h35q139 0 139 -135v-29q0 -135 -139 -135h-35 q-137 0 -137 135z" />
<glyph unicode="&#x202f;" horiz-adv-x="369" />
<glyph unicode="&#x2039;" horiz-adv-x="651" d="M68 502q0 14 42.5 72.5t101.5 125.5t132 119.5t125 52.5h4q50 0 77.5 -28t27.5 -74v-6q0 -93 -277 -262q43 -27 76 -49t73 -52.5t66 -55.5t44 -53t18 -50v-9q0 -44 -28 -73t-77 -29h-4q-52 0 -125 53t-132 119.5t-101.5 125.5t-42.5 73z" />
<glyph unicode="&#x203a;" horiz-adv-x="651" d="M76 233v9q0 89 276 260q-276 166 -276 262v6q0 46 27 74t77 28h2q43 0 99.5 -35t108 -85.5t96.5 -104t71.5 -94t26.5 -51.5q0 -14 -42 -73t-101 -125.5t-132.5 -119.5t-126.5 -53h-2q-49 0 -76.5 28.5t-27.5 73.5z" />
<glyph unicode="&#x205f;" horiz-adv-x="461" />
<glyph unicode="&#x20ac;" horiz-adv-x="1292" d="M47 504v20q0 36 25.5 58t77.5 22h71v119h-71q-52 0 -77.5 22.5t-25.5 59.5v20q0 36 25.5 58t77.5 22h90q46 209 194 328t363 119q196 0 317 -80.5t121 -186.5q0 -30 -14 -56.5t-33.5 -43t-40 -28t-35.5 -15t-18 -0.5q-59 85 -126 124.5t-171 39.5q-97 0 -167 -52 t-102 -149h326q51 0 76.5 -22t25.5 -58v-20q0 -37 -25 -59.5t-77 -22.5h-350v-119h350q51 0 76.5 -22t25.5 -58v-20q0 -36 -25.5 -58t-76.5 -22h-326q32 -97 105 -151t172 -54q104 0 170.5 42.5t120.5 131.5q3 4 18.5 0.5t36.5 -15t41.5 -28.5t34.5 -43.5t14 -56.5 q0 -46 -27.5 -93t-79 -89t-138.5 -68.5t-193 -26.5q-223 0 -372 118.5t-193 332.5h-88q-52 0 -77.5 22t-25.5 58z" />
<glyph unicode="&#x2122;" horiz-adv-x="1415" d="M27 1249v6q0 72 77 72h424q80 0 80 -72v-6q0 -75 -80 -75h-125v-416q0 -80 -75 -80h-25q-72 0 -72 80v416h-127q-77 0 -77 75zM686 758v491q0 84 74 84h59q34 0 51 -11t29 -38l115 -278l112 278q13 29 30 39t48 10h60q73 0 73 -84v-491q0 -80 -69 -80h-25q-69 0 -69 80 v327l-87 -239q-4 -15 -7.5 -21t-20 -11t-47.5 -5q-13 0 -22.5 1t-16.5 1.5t-12.5 3.5t-8 3.5t-5.5 6t-3.5 6t-3 7.5t-2.5 8l-90 235v-323q0 -80 -66 -80h-28q-68 0 -68 80z" />
<glyph unicode="&#x25fc;" horiz-adv-x="1013" d="M0 0v1014h1014v-1014h-1014z" />
</font>
</defs>
</svg>
