<?xml version="1.0" standalone="no"?>
<!DOCTYPE svg PUBLIC "-//W3C//DTD SVG 1.1//EN" "http://www.w3.org/Graphics/SVG/1.1/DTD/svg11.dtd" >
<svg xmlns="http://www.w3.org/2000/svg">
<metadata>Generated by IcoMoon</metadata>
<defs>
<font id="icomoon" horiz-adv-x="1024">
<font-face units-per-em="1024" ascent="960" descent="-64" />
<missing-glyph horiz-adv-x="1024" />
<glyph unicode="&#x20;" horiz-adv-x="512" d="" />
<glyph unicode="&#xe900;" d="M591.448-28.69h-88.276c-9.75 0-17.656 7.906-17.656 17.656v406.068c0 9.75 7.906 17.656 17.656 17.656h88.276c9.75 0 17.656-7.906 17.656-17.656v-406.068c0-9.75-7.906-17.656-17.656-17.656z" />
<glyph unicode="&#xe901;" d="M591.448-28.69h-88.276c-9.75 0-17.656 7.906-17.656 17.656v300.138c0 9.75 7.906 17.656 17.656 17.656h88.276c9.75 0 17.656-7.906 17.656-17.656v-300.138c0-9.75-7.906-17.656-17.656-17.656z" />
<glyph unicode="&#xe902;" d="M768-28.69h-88.276c-9.75 0-17.656 7.906-17.656 17.656v723.862c0 9.75 7.906 17.656 17.656 17.656h88.276c9.75 0 17.656-7.906 17.656-17.656v-723.862c0-9.75-7.906-17.656-17.656-17.656z" />
<glyph unicode="&#xe903;" d="M768-28.69h-88.276c-9.75 0-17.656 7.906-17.656 17.656v512c0 9.75 7.906 17.656 17.656 17.656h88.276c9.75 0 17.656-7.906 17.656-17.656v-512c0-9.75-7.906-17.656-17.656-17.656z" />
<glyph unicode="&#xe904;" d="M238.344-28.69h-88.276c-9.75 0-17.656 7.906-17.656 17.656v300.138c0 9.75 7.906 17.656 17.656 17.656h88.276c9.75 0 17.656-7.906 17.656-17.656v-300.138c0-9.75-7.906-17.656-17.656-17.656z" />
<glyph unicode="&#xe905;" d="M944.552-28.69h-88.276c-9.75 0-17.656 7.906-17.656 17.656v829.792c0 9.75 7.906 17.656 17.656 17.656h88.276c9.75 0 17.656-7.906 17.656-17.656v-829.794c-0.002-9.748-7.906-17.654-17.656-17.654z" />
<glyph unicode="&#xe906;" d="M944.552-28.69h-88.276c-9.75 0-17.656 7.906-17.656 17.656v617.93c0 9.75 7.906 17.656 17.656 17.656h88.276c9.75 0 17.656-7.906 17.656-17.656v-617.932c-0.002-9.748-7.906-17.654-17.656-17.654z" />
<glyph unicode="&#xe907;" d="M414.896-28.69h-88.276c-9.75 0-17.656 7.906-17.656 17.656v512c0 9.75 7.906 17.656 17.656 17.656h88.276c9.75 0 17.656-7.906 17.656-17.656v-512c0-9.75-7.906-17.656-17.656-17.656z" />
<glyph unicode="&#xe908;" d="M414.896-28.69h-88.276c-9.75 0-17.656 7.906-17.656 17.656v406.068c0 9.75 7.906 17.656 17.656 17.656h88.276c9.75 0 17.656-7.906 17.656-17.656v-406.068c0-9.75-7.906-17.656-17.656-17.656z" />
<glyph unicode="&#xe909;" d="M238.344-28.69h-88.276c-9.75 0-17.656 7.906-17.656 17.656v194.206c0 9.75 7.906 17.656 17.656 17.656h88.276c9.75 0 17.656-7.906 17.656-17.656v-194.206c0-9.75-7.906-17.656-17.656-17.656z" />
<glyph unicode="&#xe90a;" d="M52.966 59.586h-35.31c-9.75 0-17.656 7.906-17.656 17.656v0c0 9.75 7.906 17.656 17.656 17.656h35.31v-35.312z" />
<glyph unicode="&#xe90b;" d="M52.966 165.518h-35.31c-9.75 0-17.656 7.906-17.656 17.656v0c0 9.75 7.906 17.656 17.656 17.656h35.31v-35.312z" />
<glyph unicode="&#xe90c;" d="M52.966 271.448h-35.31c-9.75 0-17.656 7.906-17.656 17.656v0c0 9.75 7.906 17.656 17.656 17.656h35.31v-35.312z" />
<glyph unicode="&#xe90d;" d="M52.966 377.38h-35.31c-9.75 0-17.656 7.906-17.656 17.656v0c0 9.75 7.906 17.656 17.656 17.656h35.31v-35.312z" />
<glyph unicode="&#xe90e;" d="M52.966 483.31h-35.31c-9.75 0-17.656 7.906-17.656 17.656v0c0 9.75 7.906 17.656 17.656 17.656h35.31v-35.312z" />
<glyph unicode="&#xe90f;" d="M52.966 589.242h-35.31c-9.75 0-17.656 7.906-17.656 17.656v0c0 9.75 7.906 17.656 17.656 17.656h35.31v-35.312z" />
<glyph unicode="&#xe910;" d="M52.966 695.172h-35.31c-9.75 0-17.656 7.906-17.656 17.656v0c0 9.75 7.906 17.656 17.656 17.656h35.31v-35.312z" />
<glyph unicode="&#xe911;" d="M52.966 801.104h-35.31c-9.75 0-17.656 7.904-17.656 17.654v0c0 9.75 7.906 17.656 17.656 17.656h35.31v-35.31z" />
<glyph unicode="&#xe912;" d="M52.966-28.69v0c-9.75 0-17.656 7.906-17.656 17.656v935.724c0 9.75 7.906 17.656 17.656 17.656v0c9.75 0 17.656-7.906 17.656-17.656v-935.724c-0.002-9.75-7.906-17.656-17.656-17.656z" />
<glyph unicode="&#xe913;" d="M0-28.69v0c0 9.75 7.906 17.656 17.656 17.656h988.69c9.75 0 17.656-7.906 17.656-17.656v0c0-9.75-7.906-17.656-17.656-17.656h-988.69c-9.75 0.002-17.656 7.906-17.656 17.656z" />
<glyph unicode="&#xe914;" d="M512 960v0c-9.75 0-17.656-7.906-17.656-17.656v-52.964h35.31v52.964c0.002 9.75-7.904 17.656-17.654 17.656z" />
<glyph unicode="&#xe915;" d="M335.448 200.828h353.104v-35.31h-353.104v35.31z" />
<glyph unicode="&#xe916;" d="M247.396-51.666l68.024 323.114h52.966l-67.772-321.918c-1.66-7.886-8.618-13.53-16.676-13.53h-26.534c-6.498 0-11.346 5.978-10.008 12.334z" />
<glyph unicode="&#xe917;" d="M776.604-51.666l-68.024 323.114h-52.966l67.772-321.918c1.66-7.886 8.618-13.53 16.676-13.53h26.534c6.496 0 11.346 5.978 10.008 12.334z" />
<glyph unicode="&#xe918;" d="M1006.344 854.068h-988.688c-9.75 0-17.656 7.906-17.656 17.656v17.656c0 9.75 7.906 17.656 17.656 17.656h988.69c9.75 0 17.656-7.906 17.656-17.656v-17.656c-0.002-9.75-7.908-17.656-17.658-17.656z" />
<glyph unicode="&#xe919;" d="M1006.344 854.068h-988.688v-564.966c0-19.502 15.808-35.31 35.31-35.31h918.068c19.502 0 35.31 15.808 35.31 35.31v564.966z" />
<glyph unicode="&#xe91a;" d="M547.31 342.068h-70.62c-9.75 0-17.656 7.906-17.656 17.656v282.482c0 9.75 7.906 17.656 17.656 17.656h70.62c9.75 0 17.656-7.906 17.656-17.656v-282.482c0-9.75-7.906-17.656-17.656-17.656z" />
<glyph unicode="&#xe91b;" d="M547.31 342.068h-70.62c-9.75 0-17.656 7.906-17.656 17.656v194.206c0 9.75 7.906 17.656 17.656 17.656h70.62c9.75 0 17.656-7.906 17.656-17.656v-194.206c0-9.75-7.906-17.656-17.656-17.656z" />
<glyph unicode="&#xe91c;" d="M388.414 342.068h-70.62c-9.75 0-17.656 7.906-17.656 17.656v194.206c0 9.75 7.906 17.656 17.656 17.656h70.62c9.75 0 17.656-7.906 17.656-17.656v-194.206c0-9.75-7.906-17.656-17.656-17.656z" />
<glyph unicode="&#xe91d;" d="M388.414 342.068h-70.62c-9.75 0-17.656 7.906-17.656 17.656v105.932c0 9.75 7.906 17.656 17.656 17.656h70.62c9.75 0 17.656-7.906 17.656-17.656v-105.932c0-9.75-7.906-17.656-17.656-17.656z" />
<glyph unicode="&#xe91e;" d="M229.518 342.068h-70.62c-9.75 0-17.656 7.906-17.656 17.656v105.932c0 9.75 7.906 17.656 17.656 17.656h70.62c9.75 0 17.656-7.906 17.656-17.656v-105.932c-0.002-9.75-7.906-17.656-17.656-17.656z" />
<glyph unicode="&#xe91f;" d="M229.518 342.068h-70.62c-9.75 0-17.656 7.906-17.656 17.656v35.31c0 9.75 7.906 17.656 17.656 17.656h70.62c9.75 0 17.656-7.906 17.656-17.656v-35.31c-0.002-9.75-7.906-17.656-17.656-17.656z" />
<glyph unicode="&#xe920;" d="M706.206 342.068h-70.62c-9.75 0-17.656 7.906-17.656 17.656v194.206c0 9.75 7.906 17.656 17.656 17.656h70.62c9.75 0 17.656-7.906 17.656-17.656v-194.206c0-9.75-7.906-17.656-17.656-17.656z" />
<glyph unicode="&#xe921;" d="M706.206 342.068h-70.62c-9.75 0-17.656 7.906-17.656 17.656v105.932c0 9.75 7.906 17.656 17.656 17.656h70.62c9.75 0 17.656-7.906 17.656-17.656v-105.932c0-9.75-7.906-17.656-17.656-17.656z" />
<glyph unicode="&#xe922;" d="M865.104 342.068h-70.62c-9.75 0-17.656 7.906-17.656 17.656v388.414c0 9.75 7.906 17.656 17.656 17.656h70.62c9.75 0 17.656-7.906 17.656-17.656v-388.414c-0.002-9.75-7.906-17.656-17.656-17.656z" />
<glyph unicode="&#xe923;" d="M865.104 342.068h-70.62c-9.75 0-17.656 7.906-17.656 17.656v300.138c0 9.75 7.906 17.656 17.656 17.656h70.62c9.75 0 17.656-7.906 17.656-17.656v-300.138c-0.002-9.75-7.906-17.656-17.656-17.656z" />
<glyph unicode="&#xe924;" d="M918.068 324.416h-812.136c-9.75 0-17.656 7.906-17.656 17.656v0c0 9.75 7.906 17.656 17.656 17.656h812.138c9.75 0 17.656-7.906 17.656-17.656v0c-0.002-9.754-7.906-17.656-17.658-17.656z" />
<glyph unicode="&#xe925;" d="M783.726 131.248c53.246 0 96.564 43.318 96.564 96.564s-43.318 96.564-96.564 96.564-96.564-43.318-96.564-96.564c0-53.246 43.318-96.564 96.564-96.564z" />
<glyph unicode="&#xe926;" d="M787.97 127.292c-65.612 0-118.992-53.378-118.992-118.99 0-0.114 0.002-0.23 0.004-0.34l1.206-56.384c0.184-8.656 7.254-15.578 15.912-15.578h204.944c8.792 0 15.918 7.124 15.918 15.918v56.384c0 65.612-53.378 118.99-118.992 118.99z" />
<glyph unicode="&#xe927;" d="M783.726 324.377c-53.246 0-96.564-43.318-96.564-96.564s43.318-96.564 96.564-96.564c1.424 0 2.836 0.046 4.244 0.108v192.914c-1.408 0.058-2.82 0.106-4.244 0.106z" />
<glyph unicode="&#xe928;" d="M668.977 8.302c0-0.114 0.002-0.23 0.004-0.34l1.206-56.384c0.184-8.656 7.254-15.578 15.912-15.578h101.87v191.294c-65.612-0.002-118.992-53.38-118.992-118.992z" />
<glyph unicode="&#xe929;" d="M511.927 131.248c53.246 0 96.564 43.318 96.564 96.564s-43.318 96.564-96.564 96.564c-53.246 0-96.564-43.318-96.564-96.564s43.32-96.564 96.564-96.564z" />
<glyph unicode="&#xe92a;" d="M516.171 127.292c-65.612 0-118.992-53.378-118.992-118.99 0-0.114 0.002-0.23 0.004-0.34l1.206-56.384c0.184-8.656 7.254-15.578 15.912-15.578h204.944c8.792 0 15.918 7.124 15.918 15.918v56.384c0.002 65.612-53.378 118.99-118.992 118.99z" />
<glyph unicode="&#xe92b;" d="M511.927 324.377c-53.246 0-96.564-43.318-96.564-96.564s43.318-96.564 96.564-96.564c1.424 0 2.836 0.046 4.244 0.108v192.914c-1.406 0.058-2.82 0.106-4.244 0.106z" />
<glyph unicode="&#xe92c;" d="M397.179 8.302c0-0.114 0.002-0.23 0.004-0.34l1.206-56.384c0.184-8.656 7.254-15.578 15.912-15.578h101.87v191.294c-65.612-0.002-118.992-53.38-118.992-118.992z" />
<glyph unicode="&#xe92d;" d="M231.784 131.248c53.246 0 96.564 43.318 96.564 96.564s-43.318 96.564-96.564 96.564-96.564-43.318-96.564-96.564c0.002-53.246 43.322-96.564 96.564-96.564z" />
<glyph unicode="&#xe92e;" d="M236.030 127.292c-65.612 0-118.992-53.378-118.992-118.99 0-0.114 0.002-0.23 0.004-0.34l1.206-56.384c0.184-8.656 7.254-15.578 15.912-15.578h204.944c8.792 0 15.918 7.124 15.918 15.918v56.384c0.002 65.612-53.378 118.99-118.992 118.99z" />
<glyph unicode="&#xe92f;" d="M231.784 324.377c-53.246 0-96.564-43.318-96.564-96.564s43.318-96.564 96.564-96.564c1.424 0 2.836 0.046 4.244 0.108v192.914c-1.406 0.058-2.82 0.106-4.244 0.106z" />
<glyph unicode="&#xe930;" d="M117.038 8.302c0-0.114 0.002-0.23 0.004-0.34l1.206-56.384c0.184-8.656 7.254-15.578 15.912-15.578h101.87v191.294c-65.612-0.002-118.992-53.38-118.992-118.992z" />
<glyph unicode="&#xe931;" d="M770.992 426.247h-247.246v153.866c0 8.792-7.124 15.918-15.918 15.918-8.792 0-15.918-7.124-15.918-15.918v-153.866h-264.223c-8.792 0-15.918-7.124-15.918-15.918v-42.446c0-8.792 7.124-15.918 15.918-15.918s15.918 7.124 15.918 15.918v26.528h248.306v-26.53c0-8.792 7.124-15.918 15.918-15.918 8.792 0 15.918 7.124 15.918 15.918v26.528h231.328v-26.528c0-8.792 7.124-15.918 15.918-15.918s15.918 7.124 15.918 15.918v42.446c-0.002 8.794-7.128 15.92-15.92 15.92z" />
<glyph unicode="&#xe932;" d="M251.634 810.228h-66.028c-8.792 0-15.918 7.124-15.918 15.918s7.124 15.918 15.918 15.918h66.028c8.792 0 15.918-7.124 15.918-15.918 0-8.792-7.124-15.918-15.918-15.918z" />
<glyph unicode="&#xe933;" d="M228.052 714.184c-4.072 0-8.148 1.554-11.256 4.66-6.216 6.218-6.216 16.294 0 22.512l42.020 42.020c6.218 6.214 16.294 6.214 22.512 0 6.216-6.218 6.216-16.294 0-22.512l-42.020-42.020c-3.108-3.104-7.184-4.66-11.256-4.66z" />
<glyph unicode="&#xe934;" d="M269.643 864.254c-4.072 0-8.148 1.554-11.256 4.66l-42.016 42.020c-6.216 6.218-6.216 16.294 0 22.512 6.218 6.214 16.294 6.214 22.512 0l42.018-42.020c6.216-6.218 6.216-16.294 0-22.512-3.11-3.106-7.186-4.66-11.258-4.66z" />
<glyph unicode="&#xe935;" d="M847.030 810.228h-66.028c-8.792 0-15.918 7.124-15.918 15.918s7.124 15.918 15.918 15.918h66.028c8.792 0 15.918-7.124 15.918-15.918-0.002-8.792-7.126-15.918-15.918-15.918z" />
<glyph unicode="&#xe936;" d="M804.584 714.184c-4.072 0-8.148 1.554-11.256 4.66l-42.020 42.020c-6.216 6.218-6.216 16.294 0 22.512 6.218 6.214 16.294 6.214 22.512 0l42.020-42.020c6.216-6.218 6.216-16.294 0-22.512-3.108-3.104-7.184-4.66-11.256-4.66z" />
<glyph unicode="&#xe937;" d="M762.991 864.254c-4.072 0-8.148 1.554-11.256 4.66-6.216 6.218-6.216 16.294 0 22.512l42.020 42.020c6.218 6.214 16.294 6.214 22.51 0 6.216-6.218 6.216-16.294 0-22.512l-42.020-42.020c-3.108-3.106-7.182-4.66-11.254-4.66z" />
<glyph unicode="&#xe938;" d="M506.765 960c-49.602 0-96.234-19.314-131.31-54.39s-54.39-81.708-54.39-131.31 19.314-96.234 54.39-131.31c35.074-35.072 81.708-54.39 131.31-54.39s96.234 19.314 131.31 54.39c35.072 35.074 54.39 81.708 54.39 131.31s-19.314 96.234-54.39 131.31c-35.072 35.076-81.706 54.39-131.31 54.39z" />
<glyph unicode="&#xe939;" d="M611.505 775.364c-7.672 0-14.43 5.56-15.694 13.378-0.792 4.892-1.994 9.742-3.578 14.41-2.82 8.326 1.64 17.362 9.966 20.186 8.33 2.824 17.362-1.64 20.184-9.966 2.148-6.338 3.78-12.914 4.852-19.546 1.404-8.678-4.492-16.848-13.17-18.254-0.86-0.142-1.716-0.208-2.56-0.208z" />
<glyph unicode="&#xe93a;" d="M588.249 826.298c-4.554 0-9.076 1.944-12.226 5.716-17.236 20.644-42.478 32.484-69.254 32.484-8.792 0-15.918 7.124-15.918 15.918s7.124 15.918 15.918 15.918c36.24 0 70.39-16.006 93.69-43.914 5.634-6.748 4.732-16.786-2.016-22.42-2.976-2.488-6.596-3.702-10.194-3.702z" />
<glyph unicode="&#xe93b;" d="M583.169 773.242h-18.040v9.55c0 8.792-7.124 15.918-15.918 15.918s-15.918-7.124-15.918-15.918v-9.55h-53.056v9.55c0 8.792-7.124 15.918-15.918 15.918-8.792 0-15.918-7.124-15.918-15.918v-9.55h-18.040c-8.792 0-15.918-7.124-15.918-15.918s7.124-15.918 15.918-15.918h18.040v-119.908c0-8.792 7.124-15.918 15.918-15.918 8.792 0 15.918 7.124 15.918 15.918v119.908h53.056v-119.908c0-8.792 7.124-15.918 15.918-15.918s15.918 7.124 15.918 15.918v119.908h18.040c8.792 0 15.918 7.124 15.918 15.918 0 8.79-7.124 15.918-15.918 15.918z" />
<glyph unicode="&#xe93c;" d="M574.681 620.437h-135.826c-8.79 0-15.918-7.126-15.918-15.918v-118.848c0-8.79 7.126-15.918 15.918-15.918h135.826c4.396 0 8.374 1.78 11.254 4.662 2.88 2.88 4.662 6.86 4.662 11.254v118.85c0 8.79-7.126 15.918-15.916 15.918z" />
<glyph unicode="&#xe93d;" d="M506.765 620.437v-150.682h67.912c4.396 0 8.374 1.78 11.254 4.662 2.88 2.88 4.662 6.86 4.662 11.254v118.848c0 8.79-7.126 15.918-15.918 15.918h-67.91z" />
<glyph unicode="&#xe93e;" d="M422.929 561.011h167.66v-31.834h-167.66v31.834z" />
<glyph unicode="&#xe93f;" d="M422.929 561.011h83.83v-31.834h-83.83v31.834z" />
<glyph unicode="&#xe940;" d="M669.538 374.154h-315.077l65.641 114.872h183.795z" />
<glyph unicode="&#xe941;" d="M669.538 374.154h-315.077l98.462 86.974 150.974 27.897z" />
<glyph unicode="&#xe942;" d="M669.538 374.154h-315.077l198.564 42.667 50.872 72.205z" />
<glyph unicode="&#xe943;" d="M669.538 62.359h-315.077l65.641 114.872h183.795z" />
<glyph unicode="&#xe944;" d="M669.538 62.359h-315.077l98.462 83.692 150.974 31.179z" />
<glyph unicode="&#xe945;" d="M669.538 62.359h-315.077l198.564 39.385 50.872 75.487z" />
<glyph unicode="&#xe946;" d="M315.077 62.359h-315.077l65.641 114.872h183.795z" />
<glyph unicode="&#xe947;" d="M315.077 62.359h-315.077l98.462 83.692 150.974 31.179z" />
<glyph unicode="&#xe948;" d="M315.077 62.359h-315.077l198.564 39.385 50.872 75.487z" />
<glyph unicode="&#xe949;" d="M1024 62.359h-315.077l65.641 114.872h183.795z" />
<glyph unicode="&#xe94a;" d="M1024 62.359h-315.077l98.462 83.692 150.974 31.179z" />
<glyph unicode="&#xe94b;" d="M1024 62.359h-315.077l198.564 39.385 50.872 75.487z" />
<glyph unicode="&#xe94c;" d="M493.949 226.462h-316.718l65.641 114.872h185.436z" />
<glyph unicode="&#xe94d;" d="M493.949 226.462h-316.718l100.103 83.692 150.974 31.179z" />
<glyph unicode="&#xe94e;" d="M493.949 226.462h-316.718l200.205 41.026 50.872 73.846z" />
<glyph unicode="&#xe94f;" d="M846.769 226.462h-316.718l65.641 114.872h185.436z" />
<glyph unicode="&#xe950;" d="M846.769 226.462h-316.718l100.103 83.692 150.974 31.179z" />
<glyph unicode="&#xe951;" d="M846.769 226.462h-316.718l198.564 41.026 52.513 73.846z" />
<glyph unicode="&#xe952;" d="M528.41 620.308c0-9.846-6.564-16.41-16.41-16.41v0c-9.846 0-16.41 6.564-16.41 16.41v196.923c0 9.846 6.564 16.41 16.41 16.41v0c9.846 0 16.41-6.564 16.41-16.41v-196.923z" />
<glyph unicode="&#xe953;" d="M415.179 587.487c3.282-8.205 0-18.051-8.205-21.333v0c-8.205-3.282-18.051 0-21.333 8.205l-80.41 180.513c-3.282 8.205 0 18.051 8.205 21.333v0c8.205 3.282 18.051 0 21.333-8.205l80.41-180.513z" />
<glyph unicode="&#xe954;" d="M328.205 516.923c6.564-4.923 8.205-16.41 3.282-22.974v0c-4.923-6.564-16.41-8.205-22.974-3.282l-157.538 119.795c-6.564 4.923-8.205 16.41-3.282 22.974v0c4.923 6.564 16.41 8.205 22.974 3.282l157.538-119.795z" />
<glyph unicode="&#xe955;" d="M270.769 418.462c9.846 0 16.41-8.205 16.41-16.41v0c0-9.846-8.205-16.41-16.41-16.41l-196.923 8.205c-9.846 0-16.41 8.205-16.41 16.41v0c0 9.846 8.205 16.41 16.41 16.41l196.923-8.205z" />
<glyph unicode="&#xe956;" d="M608.821 587.487c-3.282-8.205 0-18.051 8.205-21.333v0c8.205-3.282 18.051 0 21.333 8.205l80.41 180.513c3.282 8.205 0 18.051-8.205 21.333v0c-8.205 3.282-18.051 0-21.333-8.205l-80.41-180.513z" />
<glyph unicode="&#xe957;" d="M695.795 516.923c-6.564-4.923-8.205-16.41-3.282-22.974v0c4.923-6.564 16.41-8.205 22.974-3.282l155.897 119.795c6.564 4.923 8.205 16.41 3.282 22.974v0c-4.923 6.564-16.41 8.205-22.974 3.282l-155.897-119.795z" />
<glyph unicode="&#xe958;" d="M753.231 418.462c-9.846 0-16.41-8.205-16.41-16.41v0c0-9.846 8.205-16.41 16.41-16.41l196.923 8.205c9.846 0 16.41 8.205 16.41 16.41v0c0 9.846-8.205 16.41-16.41 16.41l-196.923-8.205z" />
<glyph unicode="&#xe959;" d="M1024.003 447.999c0-282.771-229.231-512.001-512.001-512.001s-512.001 229.231-512.001 512.001c0 282.771 229.231 512.001 512.001 512.001s512.001-229.231 512.001-512.001z" />
<glyph unicode="&#xe95a;" d="M188.345 192.566h647.379v-29.229h-647.379v29.229z" />
<glyph unicode="&#xe95b;" d="M188.345 294.612h50.29v-82.867h-50.29v82.867z" />
<glyph unicode="&#xe95c;" d="M254.658 371.446h50.276v-159.738h-50.276v159.738z" />
<glyph unicode="&#xe95d;" d="M321.006 336.066h50.29v-124.312h-50.29v124.312z" />
<glyph unicode="&#xe95e;" d="M387.353 473.564h50.282v-261.862h-50.282v261.862z" />
<glyph unicode="&#xe95f;" d="M453.667 433.1h50.282v-221.404h-50.282v221.404z" />
<glyph unicode="&#xe960;" d="M520.052 573.068h50.282v-361.295h-50.282v361.295z" />
<glyph unicode="&#xe961;" d="M586.365 399.625h50.276v-187.88h-50.276v187.88z" />
<glyph unicode="&#xe962;" d="M652.747 362.478h50.282v-150.727h-50.282v150.727z" />
<glyph unicode="&#xe963;" d="M719.060 513.181h50.282v-301.459h-50.282v301.459z" />
<glyph unicode="&#xe964;" d="M785.374 674.776h50.29v-463.060h-50.29v463.060z" />
<glyph unicode="&#xe965;" d="M213.465 353.34c-0.792 0-1.595 0.241-2.301 0.729-1.871 1.265-2.344 3.813-1.073 5.686l67.667 99.249 65.96-5.204 66.623 134.652 66.666-18.806 68.522 108.699 69.32-133.593 61.356-59.118 64.337 173.535 66.652 95.155c1.305 1.865 3.85 2.301 5.706 1.010 1.85-1.3 2.295-3.85 0.996-5.698l-66.038-94.291-68.333-184.291-71.34 68.729-0.304 0.6-63.057 121.509-64.167-101.785-66.015 18.617-66.058-133.522-66.744 5.267-65.005-95.324c-0.786-1.168-2.066-1.805-3.371-1.805z" />
<glyph unicode="&#xe966;" d="M294.416 454.709c0-8.073-6.544-14.617-14.617-14.617s-14.617 6.544-14.617 14.617c0 8.073 6.544 14.617 14.617 14.617s14.617-6.544 14.617-14.617z" />
<glyph unicode="&#xe967;" d="M360.801 449.482c0-8.073-6.544-14.617-14.617-14.617s-14.617 6.544-14.617 14.617c0 8.073 6.544 14.617 14.617 14.617s14.617-6.544 14.617-14.617z" />
<glyph unicode="&#xe968;" d="M427.12 583.592c0-8.078-6.548-14.626-14.626-14.626s-14.626 6.548-14.626 14.626c0 8.078 6.548 14.626 14.626 14.626s14.626-6.548 14.626-14.626z" />
<glyph unicode="&#xe969;" d="M493.425 564.877c0-8.073-6.544-14.617-14.617-14.617s-14.617 6.544-14.617 14.617c0 8.073 6.544 14.617 14.617 14.617s14.617-6.544 14.617-14.617z" />
<glyph unicode="&#xe96a;" d="M559.804 670.102c0-8.070-6.542-14.612-14.612-14.612s-14.612 6.542-14.612 14.612c0 8.070 6.542 14.612 14.612 14.612s14.612-6.542 14.612-14.612z" />
<glyph unicode="&#xe96b;" d="M626.117 542.279c0-8.070-6.542-14.612-14.612-14.612s-14.612 6.542-14.612 14.612c0 8.070 6.542 14.612 14.612 14.612s14.612-6.542 14.612-14.612z" />
<glyph unicode="&#xe96c;" d="M692.505 478.367c0-8.073-6.544-14.617-14.617-14.617s-14.617 6.544-14.617 14.617c0 8.073 6.544 14.617 14.617 14.617s14.617-6.544 14.617-14.617z" />
<glyph unicode="&#xe96d;" d="M758.819 657.249c0-8.073-6.544-14.617-14.617-14.617s-14.617 6.544-14.617 14.617c0 8.073 6.544 14.617 14.617 14.617s14.617-6.544 14.617-14.617z" />
<glyph unicode="&#xe96e;" d="M825.132 751.966c0-8.073-6.544-14.617-14.617-14.617s-14.617 6.544-14.617 14.617c0 8.073 6.544 14.617 14.617 14.617s14.617-6.544 14.617-14.617z" />
<glyph unicode="&#xe96f;" d="M228.083 357.465c0-8.070-6.542-14.612-14.612-14.612s-14.612 6.542-14.612 14.612c0 8.070 6.542 14.612 14.612 14.612s14.612-6.542 14.612-14.612z" />
<glyph unicode="&#xe970;" d="M1024 448c0-282.77-229.23-512-512-512s-512 229.23-512 512c0 282.77 229.23 512 512 512s512-229.23 512-512z" />
<glyph unicode="&#xe971;" d="M218.994 771.219h586.215v-613.183h-586.215v613.183z" />
<glyph unicode="&#xe972;" d="M282.259 667.805h522.747v-3.65h-522.747v3.65z" />
<glyph unicode="&#xe973;" d="M282.259 660.1h522.747v-3.65h-522.747v3.65z" />
<glyph unicode="&#xe974;" d="M282.259 612.246h522.747v-3.65h-522.747v3.65z" />
<glyph unicode="&#xe975;" d="M282.259 568.041h522.747v-3.65h-522.747v3.65z" />
<glyph unicode="&#xe976;" d="M282.259 524.040h522.747v-3.65h-522.747v3.65z" />
<glyph unicode="&#xe977;" d="M282.259 479.835h522.747v-3.65h-522.747v3.65z" />
<glyph unicode="&#xe978;" d="M282.259 435.631h522.747v-3.65h-522.747v3.65z" />
<glyph unicode="&#xe979;" d="M282.259 391.427h522.747v-3.65h-522.747v3.65z" />
<glyph unicode="&#xe97a;" d="M282.259 347.425h522.747v-3.65h-522.747v3.65z" />
<glyph unicode="&#xe97b;" d="M282.259 303.221h522.747v-3.65h-522.747v3.65z" />
<glyph unicode="&#xe97c;" d="M282.259 259.016h522.747v-3.65h-522.747v3.65z" />
<glyph unicode="&#xe97d;" d="M282.259 214.812h522.747v-3.65h-522.747v3.65z" />
<glyph unicode="&#xe97e;" d="M280.231 736.748h4.055v-552.554h-4.055v552.554z" />
<glyph unicode="&#xe97f;" d="M713.556 501.937h49.679v-288.95h-49.679v288.95z" />
<glyph unicode="&#xe980;" d="M616.022 448.203h49.679v-235.013h-49.679v235.013z" />
<glyph unicode="&#xe981;" d="M636.705 257.394c0 10.544 0.406 21.088 2.028 31.835 1.622 10.95 9.328 15.411 17.641 15.005 0.203 7.097 0 14.6-0.406 22.508-1.419 25.752-6.489 48.665-12.572 73.404-4.055 17.033 2.23 21.697-15.816 24.738-5.475 1.014-9.328 3.447-11.761 6.894v-195.675c6.894 7.3 13.789 13.991 20.886 21.291z" />
<glyph unicode="&#xe982;" d="M518.489 375.205h49.679v-162.015h-49.679v162.015z" />
<glyph unicode="&#xe983;" d="M420.955 420.626h49.679v-207.639h-49.679v207.639z" />
<glyph unicode="&#xe984;" d="M468.201 249.283c-12.166 0-18.655 8.516-19.872 17.641h-27.577v-53.937h49.679v36.296c-0.608 0.203-1.419 0-2.23 0z" />
<glyph unicode="&#xe985;" d="M323.219 464.627h49.679v-251.64h-49.679v251.64z" />
<glyph unicode="&#xe986;" d="M264.415 619.545c1.419 0 2.433 0.406 3.042 1.419s1.014 2.23 1.014 3.853c-0.406-0.406-1.014-0.811-1.622-1.217-0.811-0.406-1.419-0.608-2.433-0.608-1.419 0-2.636 0.406-3.65 1.419s-1.419 2.23-1.419 3.853c0 1.622 0.608 2.839 1.622 3.853s2.433 1.419 3.853 1.419c2.636 0 4.258-1.217 5.272-3.447 0.608-1.217 0.811-2.839 0.811-4.461s-0.203-3.042-0.608-4.055-0.811-2.028-1.419-2.636c-1.217-1.217-2.636-1.825-4.258-1.825s-3.244 0.608-4.664 1.622l1.419 2.028c0.406-0.203 0.811-0.608 1.419-0.811s1.217-0.406 1.622-0.406zM264.821 625.426c1.014 0 1.622 0.203 2.23 0.811s1.014 1.217 1.014 2.028-0.203 1.419-0.811 2.028c-0.608 0.608-1.419 0.811-2.23 0.811s-1.622-0.203-2.23-0.811c-0.608-0.608-0.811-1.217-0.811-2.028s0.203-1.419 0.811-2.028c0.406-0.406 1.217-0.811 2.028-0.811z" />
<glyph unicode="&#xe987;" d="M261.373 586.899c1.014 0.811 2.23 1.217 3.853 1.217s2.839-0.406 3.853-1.217c1.014-0.811 1.622-1.825 1.622-3.042s-0.608-2.23-1.622-3.244c1.622-1.014 2.23-2.433 2.23-4.055 0-1.419-0.608-2.433-1.622-3.447s-2.433-1.419-4.258-1.419c-1.825 0-3.244 0.406-4.258 1.419s-1.622 2.028-1.622 3.447c0 1.825 0.811 3.042 2.23 4.055-1.217 1.014-1.622 2.028-1.622 3.244-0.406 1.217 0.203 2.23 1.217 3.042zM262.996 574.53c0.608-0.406 1.419-0.608 2.23-0.608s1.622 0.203 2.23 0.608 1.014 1.014 1.014 1.825-0.406 1.419-1.014 2.028c-0.608 0.406-1.419 0.608-2.23 0.608s-1.622-0.203-2.23-0.608-1.014-1.014-1.014-2.028c0-0.608 0.203-1.217 1.014-1.825zM263.198 581.83c0.608-0.406 1.217-0.608 2.028-0.608s1.419 0.203 2.028 0.608 0.811 1.014 0.811 1.622-0.203 1.217-0.811 1.622c-0.608 0.406-1.217 0.608-2.028 0.608s-1.419-0.203-2.028-0.608-0.811-1.014-0.811-1.622c0-0.608 0.203-1.217 0.811-1.622z" />
<glyph unicode="&#xe988;" d="M260.562 537.625v4.664h11.152v-2.433l-6.691-13.586h-3.042l6.489 13.383h-5.678v-2.23h-2.23v0.203z" />
<glyph unicode="&#xe989;" d="M266.443 494.638c-1.419 0-2.433-0.406-3.042-1.419s-1.014-2.23-1.014-3.853c0.406 0.406 1.014 0.811 1.622 1.217 0.811 0.406 1.419 0.608 2.433 0.608 1.419 0 2.636-0.406 3.65-1.419s1.419-2.23 1.419-3.853c0-1.622-0.608-2.839-1.622-3.853s-2.433-1.419-3.853-1.419c-2.636 0-4.258 1.217-5.272 3.447-0.608 1.217-0.811 2.839-0.811 4.461s0.203 3.042 0.608 4.055 0.811 2.028 1.419 2.636c1.217 1.217 2.636 1.825 4.461 1.825 1.622 0 3.244-0.608 4.664-1.622l-1.419-2.028c-0.406 0.203-0.811 0.608-1.419 0.811-1.014 0.203-1.419 0.406-1.825 0.406zM265.834 488.554c-1.014 0-1.622-0.203-2.23-0.811s-1.014-1.217-1.014-2.028 0.203-1.419 0.811-2.028c0.608-0.608 1.419-0.811 2.23-0.811s1.622 0.203 2.23 0.811c0.608 0.608 0.811 1.217 0.811 2.028s-0.203 1.419-0.811 2.028c-0.406 0.608-1.014 0.811-2.028 0.811z" />
<glyph unicode="&#xe98a;" d="M270.295 451.244v-2.433h-6.691v-3.853c0.608 0.406 1.419 0.608 2.23 0.608 1.419 0 2.839-0.406 3.853-1.419 1.014-0.811 1.622-2.028 1.622-3.65s-0.608-2.839-1.622-3.853c-1.217-1.014-2.433-1.419-4.055-1.419-2.23 0-3.853 0.811-5.069 2.23l1.419 2.028c0.203-0.203 0.203-0.203 0.406-0.406s0.608-0.406 1.217-0.608c0.608-0.203 1.419-0.406 2.028-0.406 0.811 0 1.419 0.203 2.028 0.608s1.014 1.217 1.014 2.028-0.406 1.622-1.014 2.028-1.419 0.811-2.433 0.811-2.028-0.203-2.839-0.811l-1.217 1.217v7.705h9.125v-0.406z" />
<glyph unicode="&#xe98b;" d="M267.051 396.090v2.839h2.636v-2.839h1.825v-2.433h-1.825v-4.055h-2.636v4.055h-6.894v2.433l5.88 9.53h2.839l-5.678-9.53h3.853z" />
<glyph unicode="&#xe98c;" d="M260.968 357.766v2.433h9.328v-2.028l-3.853-4.258c1.419 0 2.636-0.406 3.447-1.419 0.811-0.811 1.217-1.825 1.217-3.042 0-1.622-0.608-2.839-1.622-3.853s-2.433-1.419-4.258-1.419c-1.825 0-3.447 0.608-5.069 1.622l1.217 2.23c1.217-0.811 2.636-1.419 4.055-1.419 1.014 0 1.622 0.203 2.23 0.608s0.811 1.014 0.811 1.825-0.406 1.419-1.014 2.028c-0.608 0.406-1.622 0.811-2.839 0.811-0.608 0-1.217 0-1.622-0.203v2.028l3.65 4.258h-5.678v-0.203z" />
<glyph unicode="&#xe98d;" d="M267.457 308.493c0.406 0.608 0.608 1.217 0.608 1.825s-0.203 1.217-0.811 1.622c-0.406 0.406-1.014 0.608-1.825 0.608-1.217 0-2.433-0.608-3.244-2.028l-2.23 1.217c0.608 1.014 1.419 1.825 2.23 2.433s2.028 0.811 3.244 0.811c1.419 0 2.433-0.406 3.447-1.217s1.419-2.028 1.419-3.447c0-0.811-0.203-1.622-0.608-2.433s-1.217-1.622-2.433-2.839l-3.65-3.853h7.3v-2.636h-10.95v2.23l4.867 4.867c1.419 1.217 2.23 2.028 2.636 2.839z" />
<glyph unicode="&#xe98e;" d="M264.415 269.155h5.88v-15.816h-2.636v13.586h-3.244v2.23z" />
<glyph unicode="&#xe98f;" d="M259.751 209.743c-1.014 1.419-1.622 3.447-1.622 6.083 0 2.433 0.608 4.461 1.622 6.083 1.014 1.419 2.636 2.23 4.867 2.23s3.853-0.811 4.867-2.23 1.622-3.447 1.622-6.083c0-2.433-0.608-4.461-1.622-6.083-1.014-1.419-2.636-2.23-4.867-2.23s-3.853 0.811-4.867 2.23zM261.576 220.084c-0.608-1.014-1.014-2.433-1.014-4.258s0.406-3.244 1.014-4.258 1.622-1.622 3.042-1.622 2.23 0.608 2.839 1.622c0.608 1.014 1.014 2.433 1.014 4.258s-0.406 3.244-1.014 4.258-1.622 1.622-2.839 1.622c-1.419 0-2.433-0.608-3.042-1.622z" />
<glyph unicode="&#xe990;" d="M512.608 218.665h36.093v-61.643h-36.093v61.643z" />
<glyph unicode="&#xe991;" d="M530.655 480.646c-75.837 0-137.48-61.44-137.48-137.48 0-75.837 61.44-137.48 137.48-137.48 75.837 0 137.48 61.44 137.48 137.48-0.203 76.040-61.643 137.48-137.48 137.48zM530.655 239.145c-57.385 0-104.022 46.638-104.022 104.022s46.638 104.022 104.022 104.022 104.022-46.638 104.022-104.022-46.638-104.022-104.022-104.022z" />
<glyph unicode="&#xe992;" d="M497.198 164.322h66.915c1.825 0 3.447-1.419 3.447-3.447v-123.691c0-1.825-1.419-3.447-3.447-3.447h-66.915c-1.825 0-3.447 1.419-3.447 3.447v123.691c0 1.825 1.622 3.447 3.447 3.447z" />
<glyph unicode="&#xe993;" d="M2.063 435.828c2.508-5.017 6.689-8.779 11.914-10.451l130.848-44.94c2.299-0.836 4.389-1.045 6.689-1.045 8.57 0 16.722 5.435 19.648 14.004l102.63 299.528 5.226-1.881c26.546-9.406 56.227-7.734 81.519 4.598l12.75 6.271c15.259 7.316 33.025 8.57 48.911 2.926l238.703-82.355c-2.508-9.197-7.316-19.857-15.677-25.71-9.615-6.689-24.456-6.689-43.895 0l-107.019 36.579c-5.435 1.881-11.496 1.254-16.513-1.463s-8.779-7.525-10.242-12.959c-0.209-0.627-15.259-55.809-61.661-80.682-29.263-15.677-65.842-16.095-108.691-1.463-10.869 3.762-22.574-2.090-26.337-12.959s2.090-22.574 12.959-26.337c25.083-8.57 48.911-12.959 71.067-12.959 25.71 0 49.329 5.853 70.858 17.349 41.804 22.574 63.961 61.452 74.203 85.49l87.789-30.099c32.607-11.078 59.78-9.406 80.891 5.226 33.234 22.992 35.534 67.932 35.743 72.949 0.209 8.988-5.435 17.14-14.004 20.275l-255.007 87.998c-26.337 8.988-55.6 7.316-80.682-5.017l-12.75-6.271c-15.468-7.525-33.443-8.57-49.538-2.926l-21.111 7.525c-1.254 0.836-2.508 1.463-3.971 1.881l-130.221 45.358c-10.869 3.762-22.574-2.090-26.337-12.959l-109.736-319.803c-1.672-5.017-1.254-10.66 1.045-15.677zM143.362 738.491l91.552-31.353-96.15-280.716-91.552 31.353 96.15 280.716z" />
<glyph unicode="&#xe994;" d="M217.565 246.245c10.242-20.902 30.726-33.025 52.464-33.862 0-8.988 2.090-18.185 6.062-26.546 7.107-14.632 19.439-25.501 34.907-30.726 6.48-2.299 13.168-3.344 19.648-3.344 9.197 0 18.185 2.090 26.546 6.271l10.869 5.435c0.836-6.271 2.717-12.75 5.644-18.812 7.107-14.632 19.439-25.501 34.907-30.726 6.48-2.299 13.168-3.344 19.648-3.344 9.197 0 18.185 2.090 26.546 6.271l237.658 116.425c53.092 25.919 102.003 59.362 145.479 99.285l53.092 48.702 121.442 59.362c10.242 5.017 14.423 17.349 9.406 27.591l-147.987 303.709c-2.508 5.017-6.689 8.779-11.914 10.451-5.226 1.881-10.869 1.463-15.886-1.045l-124.159-60.825c-10.242-5.017-14.423-17.349-9.406-27.591l141.717-289.704-43.895-40.341c-40.55-37.206-86.326-68.35-135.655-92.597l-237.658-116.425c-4.598-2.299-9.824-2.508-14.841-0.836-4.808 1.672-8.779 5.226-11.078 9.824s-2.508 9.824-0.836 14.841c1.672 4.808 5.226 8.779 9.824 11.078l132.938 65.006c10.242 5.017 14.423 17.349 9.406 27.591s-17.349 14.423-27.591 9.406l-195.644-95.732c-4.598-2.299-9.824-2.508-14.841-0.836-4.808 1.672-8.779 5.226-11.078 9.824s-2.508 9.824-0.836 14.841c1.672 4.808 5.226 8.779 9.824 11.078l190.628 93.224c10.242 5.017 14.423 17.349 9.406 27.591s-17.349 14.423-27.591 9.406l-214.247-104.72c-9.615-4.598-21.111-0.627-25.919 8.779-2.299 4.598-2.508 9.824-0.836 14.841 1.672 4.808 5.226 8.779 9.824 11.078l194.181 95.105c10.242 5.017 14.423 17.349 9.406 27.591s-17.349 14.423-27.591 9.406l-170.771-83.609c-9.615-4.598-21.111-0.627-25.919 8.779-4.598 9.615-0.627 21.111 8.779 25.919l90.715 44.313c10.242 5.017 14.423 17.349 9.406 27.591s-17.349 14.423-27.591 9.406l-90.715-44.313c-30.099-14.632-42.64-51.21-27.8-81.309 4.18-8.57 10.033-15.468 17.14-21.111-12.541-16.931-15.468-40.968-5.226-61.661zM758.722 692.506l86.953 42.64 130.43-266.503-86.953-42.64-130.43 266.503z" />
<glyph unicode="&#xe995;" d="M35.31 77.241h141.241v-70.621h-141.241v70.621z" />
<glyph unicode="&#xe996;" d="M847.448 77.241h141.241v-70.621h-141.241v70.621z" />
<glyph unicode="&#xe997;" d="M0 889.379h1024v-812.138h-1024v812.138z" />
<glyph unicode="&#xe998;" d="M882.759 748.138h141.241v-70.621h-141.241v70.621z" />
<glyph unicode="&#xe999;" d="M882.759 289.103h141.241v-70.621h-141.241v70.621z" />
<glyph unicode="&#xe99a;" d="M882.759 218.483v70.621h70.621v388.414h-70.621v70.621h70.621v52.824c0 9.834-7.962 17.796-17.796 17.796h-847.166c-9.834 0-17.796-7.962-17.796-17.796v-635.304c0-9.834 7.962-17.796 17.796-17.796h847.166c9.834 0 17.796 7.962 17.796 17.796v52.824h-70.621z" />
<glyph unicode="&#xe99b;" d="M529.655 500.966h-72.033c-3.001 20.886-11.229 40.060-23.34 56.214l50.97 50.97c6.903 6.903 6.903 18.061 0 24.964s-18.061 6.903-24.964 0l-50.97-50.97c-16.154 12.111-35.328 20.339-56.214 23.34v72.033c0 9.763-7.91 17.655-17.655 17.655s-17.655-7.892-17.655-17.655v-72.033c-20.886-3.001-40.060-11.229-56.232-23.34l-50.97 50.97c-6.903 6.903-18.061 6.903-24.964 0s-6.903-18.061 0-24.964l50.97-50.97c-12.094-16.154-20.321-35.328-23.322-56.214h-72.033c-9.746 0-17.655-7.892-17.655-17.655s7.91-17.655 17.655-17.655h72.033c3.001-20.886 11.229-40.060 23.34-56.214l-50.97-50.97c-6.903-6.903-6.903-18.061 0-24.964 3.443-3.443 7.962-5.173 12.482-5.173s9.039 1.73 12.482 5.173l50.97 50.97c16.154-12.111 35.328-20.339 56.232-23.34v-72.033c0-9.763 7.91-17.655 17.655-17.655s17.655 7.892 17.655 17.655v72.033c20.886 3.001 40.060 11.229 56.232 23.34l50.97-50.97c3.443-3.443 7.962-5.173 12.482-5.173s9.039 1.73 12.482 5.173c6.903 6.903 6.903 18.061 0 24.964l-50.97 50.97c12.111 16.172 20.321 35.328 23.34 56.214h71.998c9.746 0 17.655 7.892 17.655 17.655s-7.91 17.655-17.655 17.655zM335.448 395.034c-48.675 0-88.276 39.601-88.276 88.276s39.601 88.276 88.276 88.276 88.276-39.601 88.276-88.276-39.601-88.276-88.276-88.276z" />
<glyph unicode="&#xe99c;" d="M635.586 483.31c-9.746 0-17.655-7.892-17.655-17.655v-17.655c0-9.763 7.91-17.655 17.655-17.655s17.655 7.892 17.655 17.655v17.655c0 9.763-7.91 17.655-17.655 17.655z" />
<glyph unicode="&#xe99d;" d="M723.862 483.31c-9.746 0-17.655-7.892-17.655-17.655v-17.655c0-9.763 7.91-17.655 17.655-17.655s17.655 7.892 17.655 17.655v17.655c0 9.763-7.91 17.655-17.655 17.655z" />
<glyph unicode="&#xe99e;" d="M812.138 483.31c-9.746 0-17.655-7.892-17.655-17.655v-17.655c0-9.763 7.91-17.655 17.655-17.655 9.763 0 17.655 7.892 17.655 17.655v17.655c0 9.763-7.892 17.655-17.655 17.655z" />
<glyph unicode="&#xe99f;" d="M635.586 412.69c-9.746 0-17.655-7.892-17.655-17.655v-17.655c0-9.763 7.91-17.655 17.655-17.655s17.655 7.892 17.655 17.655v17.655c0 9.763-7.91 17.655-17.655 17.655z" />
<glyph unicode="&#xe9a0;" d="M723.862 412.69c-9.746 0-17.655-7.892-17.655-17.655v-17.655c0-9.763 7.91-17.655 17.655-17.655s17.655 7.892 17.655 17.655v17.655c0 9.763-7.91 17.655-17.655 17.655z" />
<glyph unicode="&#xe9a1;" d="M812.138 412.69c-9.746 0-17.655-7.892-17.655-17.655v-17.655c0-9.763 7.91-17.655 17.655-17.655 9.763 0 17.655 7.892 17.655 17.655v17.655c0 9.763-7.892 17.655-17.655 17.655z" />
<glyph unicode="&#xe9a2;" d="M635.586 342.069c-9.746 0-17.655-7.892-17.655-17.655v-17.655c0-9.763 7.91-17.655 17.655-17.655s17.655 7.892 17.655 17.655v17.655c0 9.763-7.91 17.655-17.655 17.655z" />
<glyph unicode="&#xe9a3;" d="M723.862 342.069c-9.746 0-17.655-7.892-17.655-17.655v-17.655c0-9.763 7.91-17.655 17.655-17.655s17.655 7.892 17.655 17.655v17.655c0 9.763-7.91 17.655-17.655 17.655z" />
<glyph unicode="&#xe9a4;" d="M812.138 342.069c-9.746 0-17.655-7.892-17.655-17.655v-17.655c0-9.763 7.91-17.655 17.655-17.655 9.763 0 17.655 7.892 17.655 17.655v17.655c0 9.763-7.892 17.655-17.655 17.655z" />
<glyph unicode="&#xe9a5;" d="M617.931 624.552h211.862v-70.621h-211.862v70.621z" />
<glyph unicode="&#xe9a6;" d="M353.103 483.31c0-9.751-7.904-17.655-17.655-17.655s-17.655 7.904-17.655 17.655c0 9.751 7.904 17.655 17.655 17.655s17.655-7.904 17.655-17.655z" />
<glyph unicode="&#xe9a7;" d="M260.339 881.898h260.339v-728.949h-260.339v728.949z" />
<glyph unicode="&#xe9a8;" d="M520.678 517.424h451.254v-364.475h-451.254v364.475z" />
<glyph unicode="&#xe9a9;" d="M885.153 699.661c0-100.647-81.59-182.237-182.237-182.237s-182.237 81.59-182.237 182.237c0 100.647 81.59 182.237 182.237 182.237s182.237-81.59 182.237-182.237z" />
<glyph unicode="&#xe9aa;" d="M347.119 881.898h86.78v-104.136h-86.78v104.136z" />
<glyph unicode="&#xe9ab;" d="M694.237 517.424h86.78v-104.136h-86.78v104.136z" />
<glyph unicode="&#xe9ac;" d="M399.186 66.169c0-38.342-31.082-69.424-69.424-69.424s-69.424 31.082-69.424 69.424c0 38.342 31.082 69.424 69.424 69.424s69.424-31.082 69.424-69.424z" />
<glyph unicode="&#xe9ad;" d="M919.864 66.169c0-38.342-31.082-69.424-69.424-69.424s-69.424 31.082-69.424 69.424c0 38.342 31.082 69.424 69.424 69.424s69.424-31.082 69.424-69.424z" />
<glyph unicode="&#xe9ae;" d="M1006.644 135.593h-850.441c-9.598 0-17.356 7.758-17.356 17.356s7.758 17.356 17.356 17.356h850.441c9.598 0 17.356-7.758 17.356-17.356s-7.758-17.356-17.356-17.356z" />
<glyph unicode="&#xe9af;" d="M156.203 829.831h-86.78c-9.598 0-17.356 7.758-17.356 17.356s7.758 17.356 17.356 17.356h86.78c9.598 0 17.356-7.758 17.356-17.356s-7.758-17.356-17.356-17.356z" />
<glyph unicode="&#xe9b0;" d="M156.203 135.593c-9.598 0-17.356 7.758-17.356 17.356v694.237c0 9.598 7.758 17.356 17.356 17.356s17.356-7.758 17.356-17.356v-694.237c0-9.598-7.758-17.356-17.356-17.356z" />
<glyph unicode="&#xe9b1;" d="M104.136 847.186c0-28.756-23.312-52.068-52.068-52.068s-52.068 23.312-52.068 52.068c0 28.756 23.312 52.068 52.068 52.068s52.068-23.312 52.068-52.068z" />
<glyph unicode="&#xe9b2;" glyph-name="clock" d="M705.687 446.653h-125.761c-6.41 24.635-25.691 43.916-50.326 50.326v178.588c0 9.738-7.889 17.609-17.609 17.609s-17.609-7.871-17.609-17.609v-178.588c-30.287-7.871-52.826-35.2-52.826-67.934 0-38.845 31.59-70.435 70.435-70.435 32.717 0 60.063 22.539 67.934 52.826h125.761c9.72 0 17.609 7.871 17.609 17.609s-7.871 17.609-17.609 17.609zM511.991 393.827c-19.422 0-35.217 15.795-35.217 35.217s15.795 35.217 35.217 35.217 35.217-15.795 35.217-35.217-15.795-35.217-35.217-35.217zM883.747 788.068l72.125-72.125c3.31-3.31 7.783-5.159 12.449-5.159s9.157 1.849 12.449 5.159c55.767 55.749 55.767 146.487 0 202.236-55.749 55.749-146.487 55.749-202.236 0-3.31-3.31-5.159-7.765-5.159-12.449s1.849-9.157 5.159-12.449l80.313-80.313-29.917-29.917c-84.17 75.436-195.263 121.43-316.922 121.43s-232.752-45.994-316.922-121.43l-29.935 29.917 80.313 80.313c3.31 3.31 5.159 7.765 5.159 12.449s-1.849 9.157-5.159 12.449c-55.749 55.749-146.487 55.749-202.236 0-55.767-55.749-55.767-146.487 0-202.236 3.31-3.31 7.783-5.159 12.449-5.159s9.157 1.849 12.449 5.159l72.125 72.125 29.512-29.512c-82.391-85.526-133.21-201.673-133.21-329.512 0-174.291 94.33-326.888 234.566-409.667l-53.319-53.319c-6.885-6.885-6.885-18.014 0-24.899 3.434-3.434 7.942-5.159 12.449-5.159s9.016 1.726 12.449 5.159l60.75 60.75c63.004-30.886 133.773-48.301 208.54-48.301s145.536 17.415 208.54 48.301l60.75-60.75c3.434-3.434 7.942-5.159 12.449-5.159s9.016 1.726 12.449 5.159c6.885 6.885 6.885 18.014 0 24.899l-53.319 53.319c140.236 82.779 234.566 235.376 234.566 409.667 0 127.839-50.819 243.986-133.21 329.512l29.53 29.512zM955.854 893.281c37.788-37.788 41.592-96.883 11.428-138.986l-150.396 150.414c42.067 30.164 101.18 26.378 138.968-11.428zM56.7 754.313c-30.164 42.085-26.36 101.18 11.428 138.968s96.901 41.574 138.968 11.428l-150.396-150.396zM511.991-11.174c-242.736 0-440.218 197.482-440.218 440.218s197.482 440.218 440.218 440.218 440.218-197.482 440.218-440.218-197.464-440.218-440.218-440.218zM862.088 632.302c-35.394 60.732-86.107 111.428-146.822 146.822-0.282 0.194-0.458 0.493-0.757 0.669-0.317 0.176-0.652 0.176-0.968 0.335-59.394 34.231-128.191 53.936-201.532 53.936s-142.138-19.687-201.532-53.936c-0.317-0.158-0.669-0.141-0.968-0.335-0.299-0.176-0.458-0.475-0.757-0.669-60.732-35.394-111.428-86.089-146.822-146.822-0.194-0.299-0.493-0.458-0.669-0.757s-0.176-0.652-0.317-0.968c-34.231-59.412-53.936-128.191-53.936-201.532s19.704-142.138 53.936-201.532c0.158-0.317 0.141-0.652 0.317-0.968 0.247-0.44 0.616-0.757 0.898-1.162 35.394-60.539 86.001-111.093 146.593-146.417 0.282-0.194 0.458-0.493 0.757-0.669 0.458-0.264 0.951-0.37 1.409-0.581 59.306-34.073 127.927-53.671 201.092-53.671s141.785 19.599 201.092 53.671c0.458 0.211 0.951 0.317 1.409 0.581 0.299 0.176 0.458 0.475 0.757 0.669 60.592 35.323 111.199 85.86 146.593 146.417 0.282 0.405 0.652 0.722 0.898 1.162 0.176 0.299 0.176 0.652 0.317 0.968 34.231 59.412 53.936 128.191 53.936 201.532s-19.704 142.138-53.936 201.532c-0.158 0.317-0.141 0.652-0.317 0.968-0.194 0.299-0.493 0.475-0.669 0.757zM711.727 118.321l-8.399 14.545c-4.878 8.417-15.637 11.322-24.054 6.445-8.417-4.86-11.305-15.637-6.445-24.054l8.435-14.598c-45.836-23.719-97.2-37.912-151.646-40.5v16.711c0 9.738-7.889 17.609-17.609 17.609s-17.609-7.871-17.609-17.609v-16.711c-54.446 2.571-105.811 16.781-151.646 40.5l8.435 14.598c4.86 8.435 1.972 19.194-6.445 24.054-8.47 4.86-19.194 1.955-24.054-6.445l-8.399-14.545c-44.462 28.667-82.321 66.543-110.988 110.988l14.545 8.399c8.417 4.86 11.305 15.637 6.445 24.054-4.878 8.417-15.619 11.358-24.054 6.445l-14.598-8.435c-23.719 45.836-37.912 97.218-40.5 151.646h16.711c9.72 0 17.609 7.871 17.609 17.609s-7.889 17.609-17.609 17.609h-16.746c2.588 54.446 16.781 105.828 40.5 151.646l14.598-8.435c2.782-1.602 5.811-2.36 8.787-2.36 6.093 0 12.009 3.17 15.267 8.804 4.86 8.435 1.972 19.194-6.445 24.054l-14.545 8.435c28.667 44.444 66.543 82.321 110.988 110.988l8.399-14.545c3.275-5.635 9.174-8.804 15.267-8.804 2.976 0 6.005 0.757 8.787 2.36 8.417 4.86 11.305 15.637 6.445 24.054l-8.435 14.598c45.836 23.719 97.2 37.912 151.646 40.5v-16.711c0-9.738 7.889-17.609 17.609-17.609s17.609 7.871 17.609 17.609v16.711c54.446-2.571 105.811-16.781 151.646-40.5l-8.435-14.598c-4.86-8.435-1.972-19.194 6.445-24.054 2.782-1.602 5.811-2.36 8.787-2.36 6.093 0 12.009 3.17 15.267 8.804l8.399 14.545c44.462-28.667 82.321-66.543 110.988-110.988l-14.545-8.399c-8.417-4.86-11.305-15.637-6.445-24.054 3.275-5.635 9.174-8.804 15.267-8.804 2.976 0 6.005 0.757 8.787 2.36l14.598 8.435c23.719-45.836 37.912-97.218 40.5-151.646h-16.711c-9.72 0-17.609-7.871-17.609-17.609s7.889-17.609 17.609-17.609h16.711c-2.588-54.446-16.781-105.828-40.5-151.646l-14.598 8.435c-8.452 4.895-19.194 1.955-24.054-6.445-4.86-8.435-1.972-19.194 6.445-24.054l14.545-8.399c-28.632-44.48-66.491-82.338-110.953-111.023z" />
<glyph unicode="&#xe9b3;" glyph-name="close" d="M665.056 448.018l327.217 327.217c42.279 42.277 42.279 110.78 0 153.057-42.277 42.277-110.78 42.277-153.055 0l-327.217-327.254-327.217 327.217c-42.277 42.277-110.78 42.277-153.057 0s-42.277-110.78 0-153.057l327.217-327.217-327.217-327.217c-42.277-42.277-42.277-110.78 0-153.055 42.277-42.279 110.78-42.279 153.057 0l327.217 327.215 327.217-327.215c42.277-42.279 110.78-42.279 153.055 0 42.279 42.277 42.279 110.78 0 153.055l-327.217 327.254z" />
<glyph unicode="&#xe9b4;" d="M500.364 956.675h523.636v-1017.351h-523.636v1017.351z" />
<glyph unicode="&#xe9b5;" d="M575.169 880.208h374.026v-864.416h-374.026v864.416z" />
<glyph unicode="&#xe9b6;" d="M575.169 880.208h374.026v-864.416z" />
<glyph unicode="&#xe9b7;" d="M999.065 462.961c0-131.286-106.428-237.714-237.714-237.714s-237.714 106.428-237.714 237.714c0 131.286 106.428 237.714 237.714 237.714s237.714-106.428 237.714-237.714z" />
<glyph unicode="&#xe9b8;" d="M761.351 702.338c131.325 0 237.714-106.39 237.714-237.714s-106.39-239.377-237.714-239.377z" />
<glyph unicode="&#xe9b9;" d="M980.779 444.675h-53.195c0-31.584-9.974-63.169-23.273-81.455l-36.571 13.299c13.299 19.948 23.273 46.545 23.273 76.468 0 38.234-21.61 63.169-53.195 63.169-29.922 0-48.208-21.61-63.169-59.844-21.61-54.857-46.545-88.104-93.091-88.104-44.883 0-78.13 31.584-86.442 81.455h-53.195v33.247h51.532c1.662 31.584 9.974 54.857 18.286 69.818l34.909-13.299c-6.649-11.636-18.286-33.247-18.286-68.156 0-41.558 24.935-56.519 46.545-56.519 28.26 0 41.558 19.948 61.506 66.494 23.273 54.857 49.87 83.117 98.078 83.117 41.558 0 81.455-29.922 91.429-84.779h54.857v-34.909z" />
<glyph unicode="&#xe9ba;" d="M759.688 524.468v-99.74c4.987 9.974 9.974 19.948 14.961 33.247 16.623 39.896 34.909 59.844 63.169 59.844 29.922 0 53.195-24.935 53.195-63.169 0-29.922-9.974-58.182-23.273-76.468l36.571-13.299c13.299 18.286 23.273 51.532 23.273 81.455h53.195v33.247h-54.857c-8.312 54.857-48.208 84.779-91.429 84.779-33.247-1.662-56.519-14.961-74.805-39.896z" />
<glyph unicode="&#xe9bb;" d="M606.753 77.299v56.519h-91.429c-54.857 14.961-128 24.935-209.455 24.935s-157.922-9.974-211.117-24.935h-93.091v-56.519c0-1.662-1.662-3.325-1.662-6.649 0-48.208 136.312-86.442 302.545-86.442 167.896 0 302.545 38.234 302.545 86.442 1.662 3.325 1.662 4.987 1.662 6.649z" />
<glyph unicode="&#xe9bc;" d="M606.753 125.506c0-47.74-135.454-86.442-302.545-86.442s-302.545 38.701-302.545 86.442c0 47.74 135.454 86.442 302.545 86.442s302.545-38.701 302.545-86.442z" />
<glyph unicode="&#xe9bd;" d="M304.208 211.948c167.896 0 302.545-38.234 302.545-86.442s-136.312-86.442-302.545-86.442z" />
<glyph unicode="&#xe9be;" d="M497.039 140.468c0-28.461-86.333-51.532-192.831-51.532s-192.831 23.072-192.831 51.532c0 28.461 86.333 51.532 192.831 51.532s192.831-23.072 192.831-51.532z" />
<glyph unicode="&#xe9bf;" d="M304.208 88.935c-106.39 0-192.831 23.273-192.831 51.532s86.442 51.532 192.831 51.532z" />
<glyph unicode="&#xe9c0;" d="M211.123 171.865c35.538 4.39 65.077 2.039 65.977-5.25s-27.179-16.758-62.717-21.148c-35.538-4.39-65.077-2.039-65.977 5.25s27.179 16.758 62.717 21.148z" />
<glyph unicode="&#xe9c1;" d="M21.61 93.922v-54.857c4.987-3.325 9.974-6.649 16.623-9.974v54.857c-6.649 3.325-11.636 6.649-16.623 9.974z" />
<glyph unicode="&#xe9c2;" d="M89.766 64v-54.857c4.987-1.662 9.974-3.325 16.623-4.987v54.857c-4.987 1.662-11.636 3.325-16.623 4.987z" />
<glyph unicode="&#xe9c3;" d="M159.584 49.039v-54.857c4.987 0 9.974-1.662 16.623-1.662v54.857c-6.649 0-11.636 1.662-16.623 1.662z" />
<glyph unicode="&#xe9c4;" d="M227.74 42.39v-54.857c4.987 0 9.974 0 16.623-1.662v54.857c-6.649 0-11.636 0-16.623 1.662z" />
<glyph unicode="&#xe9c5;" d="M304.208 39.065c-3.325 0-4.987 0-8.312 0v-54.857c3.325 0 4.987 0 8.312 0s4.987 0 8.312 0v54.857c-3.325 0-4.987 0-8.312 0z" />
<glyph unicode="&#xe9c6;" d="M364.052 40.727v-54.857c4.987 0 9.974 0 16.623 1.662v54.857c-4.987-1.662-9.974-1.662-16.623-1.662z" />
<glyph unicode="&#xe9c7;" d="M433.87 47.377v-54.857c4.987 0 11.636 1.662 16.623 1.662v54.857c-6.649 0-11.636-1.662-16.623-1.662z" />
<glyph unicode="&#xe9c8;" d="M502.026 60.675v-54.857c4.987 1.662 11.636 3.325 16.623 4.987v54.857c-6.649-3.325-11.636-4.987-16.623-4.987z" />
<glyph unicode="&#xe9c9;" d="M570.182 83.948v-54.857c6.649 3.325 11.636 6.649 16.623 9.974v54.857c-4.987-3.325-9.974-6.649-16.623-9.974z" />
<glyph unicode="&#xe9ca;" d="M606.753 248.519v56.519h-91.429c-54.857 14.961-128 24.935-209.455 24.935s-156.26-9.974-209.455-24.935h-94.753v-56.519c0-1.662-1.662-3.325-1.662-6.649 0-48.208 136.312-86.442 302.545-86.442 167.896 0 302.545 38.234 302.545 86.442 1.662 1.662 1.662 4.987 1.662 6.649z" />
<glyph unicode="&#xe9cb;" d="M606.753 296.727c0-47.74-135.454-86.442-302.545-86.442s-302.545 38.701-302.545 86.442c0 47.74 135.454 86.442 302.545 86.442s302.545-38.701 302.545-86.442z" />
<glyph unicode="&#xe9cc;" d="M304.208 383.169c167.896 0 302.545-38.234 302.545-86.442s-136.312-86.442-302.545-86.442z" />
<glyph unicode="&#xe9cd;" d="M497.039 311.688c0-28.461-86.333-51.532-192.831-51.532s-192.831 23.072-192.831 51.532c0 28.461 86.333 51.532 192.831 51.532s192.831-23.072 192.831-51.532z" />
<glyph unicode="&#xe9ce;" d="M304.208 260.156c-106.39 0-192.831 23.273-192.831 51.532s86.442 51.532 192.831 51.532z" />
<glyph unicode="&#xe9cf;" d="M211.087 343.013c35.538 4.39 65.077 2.039 65.977-5.25s-27.179-16.758-62.717-21.148c-35.538-4.39-65.077-2.039-65.977 5.25s27.179 16.758 62.717 21.148z" />
<glyph unicode="&#xe9d0;" d="M21.61 265.143v-54.857c4.987-3.325 9.974-6.649 16.623-9.974v54.857c-6.649 3.325-11.636 6.649-16.623 9.974z" />
<glyph unicode="&#xe9d1;" d="M89.766 235.221v-54.857c4.987-1.662 9.974-3.325 16.623-4.987v54.857c-4.987 1.662-11.636 3.325-16.623 4.987z" />
<glyph unicode="&#xe9d2;" d="M159.584 220.26v-54.857c4.987 0 9.974-1.662 16.623-1.662v54.857c-6.649 0-11.636 1.662-16.623 1.662z" />
<glyph unicode="&#xe9d3;" d="M227.74 213.61v-54.857c4.987 0 9.974 0 16.623-1.662v54.857c-6.649 0-11.636 0-16.623 1.662z" />
<glyph unicode="&#xe9d4;" d="M304.208 210.286c-3.325 0-4.987 0-8.312 0v-54.857c3.325 0 4.987 0 8.312 0s4.987 0 8.312 0v54.857c-3.325 0-4.987 0-8.312 0z" />
<glyph unicode="&#xe9d5;" d="M364.052 211.948v-54.857c4.987 0 9.974 0 16.623 1.662v54.857c-4.987-1.662-9.974-1.662-16.623-1.662z" />
<glyph unicode="&#xe9d6;" d="M433.87 218.597v-54.857c4.987 0 11.636 1.662 16.623 1.662v54.857c-6.649 0-11.636-1.662-16.623-1.662z" />
<glyph unicode="&#xe9d7;" d="M502.026 230.234v-54.857c4.987 1.662 11.636 3.325 16.623 4.987v54.857c-6.649-1.662-11.636-3.325-16.623-4.987z" />
<glyph unicode="&#xe9d8;" d="M570.182 255.169v-54.857c6.649 3.325 11.636 6.649 16.623 9.974v54.857c-4.987-3.325-9.974-6.649-16.623-9.974z" />
<glyph unicode="&#xe9d9;" d="M606.753 419.74v56.519h-91.429c-54.857 14.961-128 24.935-209.455 24.935s-156.26-9.974-209.455-24.935h-94.753v-56.519c0-1.662-1.662-3.325-1.662-6.649 0-48.208 136.312-86.442 302.545-86.442 167.896 0 302.545 38.234 302.545 86.442 1.662 1.662 1.662 4.987 1.662 6.649z" />
<glyph unicode="&#xe9da;" d="M606.753 467.948c0-47.74-135.454-86.442-302.545-86.442s-302.545 38.701-302.545 86.442c0 47.74 135.454 86.442 302.545 86.442s302.545-38.701 302.545-86.442z" />
<glyph unicode="&#xe9db;" d="M304.208 554.39c167.896 0 302.545-38.234 302.545-86.442s-136.312-86.442-302.545-86.442z" />
<glyph unicode="&#xe9dc;" d="M497.039 482.909c0-28.461-86.333-51.532-192.831-51.532s-192.831 23.072-192.831 51.532c0 28.461 86.333 51.532 192.831 51.532s192.831-23.072 192.831-51.532z" />
<glyph unicode="&#xe9dd;" d="M304.208 431.377c-106.39 0-192.831 23.273-192.831 51.532s86.442 51.532 192.831 51.532z" />
<glyph unicode="&#xe9de;" d="M211.27 512.662c35.538 4.39 65.077 2.039 65.977-5.25s-27.179-16.758-62.717-21.148c-35.538-4.39-65.077-2.039-65.977 5.25s27.179 16.758 62.717 21.148z" />
<glyph unicode="&#xe9df;" d="M21.61 436.364v-54.857c4.987-3.325 9.974-6.649 16.623-9.974v54.857c-6.649 3.325-11.636 6.649-16.623 9.974z" />
<glyph unicode="&#xe9e0;" d="M89.766 406.442v-54.857c4.987-1.662 9.974-3.325 16.623-4.987v54.857c-4.987 1.662-11.636 3.325-16.623 4.987z" />
<glyph unicode="&#xe9e1;" d="M159.584 391.481v-54.857c4.987 0 9.974-1.662 16.623-1.662v54.857c-6.649 0-11.636 1.662-16.623 1.662z" />
<glyph unicode="&#xe9e2;" d="M227.74 383.169v-54.857c4.987 0 9.974 0 16.623-1.662v54.857c-6.649 1.662-11.636 1.662-16.623 1.662z" />
<glyph unicode="&#xe9e3;" d="M304.208 381.506c-3.325 0-4.987 0-8.312 0v-54.857c3.325 0 4.987 0 8.312 0s4.987 0 8.312 0v54.857c-3.325 0-4.987 0-8.312 0z" />
<glyph unicode="&#xe9e4;" d="M364.052 383.169v-54.857c4.987 0 9.974 0 16.623 1.662v54.857c-4.987-1.662-9.974-1.662-16.623-1.662z" />
<glyph unicode="&#xe9e5;" d="M433.87 389.818v-54.857c4.987 0 11.636 1.662 16.623 1.662v54.857c-6.649 0-11.636-1.662-16.623-1.662z" />
<glyph unicode="&#xe9e6;" d="M502.026 401.455v-53.195c4.987 1.662 11.636 3.325 16.623 4.987v54.857c-6.649-3.325-11.636-4.987-16.623-6.649z" />
<glyph unicode="&#xe9e7;" d="M570.182 426.39v-54.857c6.649 3.325 11.636 6.649 16.623 9.974v54.857c-4.987-3.325-9.974-6.649-16.623-9.974z" />
<glyph unicode="&#xe9e8;" d="M744.426 861.57h165.428v-314.313h-165.428v314.313z" />
<glyph unicode="&#xe9e9;" d="M727.884 894.656h198.514v-33.086h-198.514v33.086z" />
<glyph unicode="&#xe9ea;" d="M0 67.515h1009.111v-66.171h-1009.111v66.171z" />
<glyph unicode="&#xe9eb;" d="M115.8 211.438l33.086 16.543 33.086-16.543v-178.662l-33.086-16.543-33.086 16.543z" />
<glyph unicode="&#xe9ec;" d="M0 211.438l33.086 16.543 33.086-16.543v-178.662l-33.086-16.543-33.086 16.543z" />
<glyph unicode="&#xe9ed;" d="M33.086 150.229h115.8v-33.086h-115.8v33.086z" />
<glyph unicode="&#xe9ee;" d="M231.599 497.628h678.255v-463.199h-678.255v463.199z" />
<glyph unicode="&#xe9ef;" d="M231.599 497.628h678.255v-463.199z" />
<glyph unicode="&#xe9f0;" d="M529.37 67.515v309.351c0 14.889-4.963 21.506-19.851 21.506h-153.848c-14.889 0-24.814-8.271-24.814-21.506v-309.351h198.514z" />
<glyph unicode="&#xe9f1;" d="M529.37 216.401v160.465c0 14.889-4.963 21.506-19.851 21.506h-153.848c-14.889 0-24.814-8.271-24.814-21.506z" />
<glyph unicode="&#xe9f2;" d="M509.519 231.289c0-14.889-11.58-28.123-28.123-28.123-14.889 0-28.123 11.58-28.123 28.123 0 14.889 11.58 28.123 28.123 28.123 14.889 0 28.123-11.58 28.123-28.123z" />
<glyph unicode="&#xe9f3;" d="M501.247 251.141c11.58-9.926 9.926-28.123 0-39.703s-28.123-9.926-39.703 0z" />
<glyph unicode="&#xe9f4;" d="M711.341 315.658h99.257v61.208c0 14.889-16.543 21.506-31.431 21.506h-67.826v-82.714z" />
<glyph unicode="&#xe9f5;" d="M694.798 315.658v82.714h-74.443c-14.889 0-24.814-8.271-24.814-21.506v-61.208h99.257z" />
<glyph unicode="&#xe9f6;" d="M694.798 299.115h-99.257v-64.517c0-14.889 9.926-18.197 24.814-18.197h74.443v82.714z" />
<glyph unicode="&#xe9f7;" d="M711.341 299.115v-82.714h67.826c14.889 0 31.431 3.309 31.431 18.197v64.517h-99.257z" />
<glyph unicode="&#xe9f8;" d="M1024 497.628l-453.273 354.016-451.619-354.016z" />
<glyph unicode="&#xe9f9;" d="M1024 497.628l-453.273 354.016-229.945-354.016z" />
<glyph unicode="&#xe9fa;" d="M246.488 596.885h650.132l-41.357 33.086h-567.418z" />
<glyph unicode="&#xe9fb;" d="M393.719 712.685h355.67l-21.506 16.543h-312.659z" />
<glyph unicode="&#xe9fc;" d="M1012.439-64c6.606 33.032 9.91 57.806 9.91 89.187 0 226.271-183.329 409.6-409.6 409.6s-409.6-181.677-409.6-407.948c0-31.381 3.303-56.155 9.91-89.187h799.381v-1.652z" />
<glyph unicode="&#xe9fd;" d="M216.361-64h796.077c6.606 33.032 9.91 57.806 9.91 89.187 0 226.271-181.677 411.252-407.948 411.252z" />
<glyph unicode="&#xe9fe;" d="M654.039 249.806c0-28.077-11.561-49.548-31.381-49.548h-105.703c-19.819 0-36.335 21.471-36.335 49.548v0c0 28.077 16.516 49.548 36.335 49.548h105.703c19.819 0 31.381-21.471 31.381-49.548v0z" />
<glyph unicode="&#xe9ff;" d="M847.277 960h-445.935c-16.516 0-31.381-16.516-31.381-33.032s13.213-33.032 31.381-33.032v0c4.955-148.645 18.168-412.903 150.297-482.271-3.303-3.303-4.955-4.955-4.955-9.91 0-6.606 6.606-11.561 16.516-18.168-9.91-4.955-16.516-11.561-16.516-18.168 0-13.213 18.168-21.471 46.245-26.426-1.652-52.852-1.652-107.355-1.652-156.903h-61.11v-49.548h198.194v49.548h-71.019c0 49.548 0 105.703-1.652 156.903 26.426 4.955 46.245 14.865 46.245 26.426 0 6.606-6.606 13.213-16.516 18.168 9.91 4.955 16.516 11.561 16.516 18.168 0 3.303-1.652 3.303-4.955 8.258 132.129 71.019 143.69 335.277 150.297 483.923v0c16.516 0 31.381 16.516 31.381 33.032s-14.865 33.032-31.381 33.032z" />
<glyph unicode="&#xea00;" d="M513.652 580.129h-115.613v6.606c-33.032 59.458-44.594 175.071-47.897 257.652h80.929v49.548h-128.826c3.303-115.613 13.213-312.155 95.794-374.916v0 0 0 0l115.613-18.168v79.277z" />
<glyph unicode="&#xea01;" d="M744.877 580.129h99.097v6.606c49.548 59.458 51.2 175.071 54.503 257.652h-71.019v49.548h120.568c-4.955-115.613-4.955-312.155-104.052-374.916v0 0 0 0l-99.097-18.168v79.277z" />
<glyph unicode="&#xea02;" d="M495.484 560.31l-92.49 8.258-1.652 3.303c-47.897 59.458-52.852 189.935-54.503 272.516h67.716v33.032h-99.097c3.303-66.065 0-275.819 82.581-358.4v0 0 0 0l102.4-18.168-4.955 59.458z" />
<glyph unicode="&#xea03;" d="M847.277 960h-218.013v-825.806h99.097v49.548h-71.019c0 49.548 0 105.703-1.652 156.903 26.426 4.955 46.245 14.865 46.245 26.426 0 6.606-6.606 13.213-16.516 18.168 9.91 4.955 16.516 11.561 16.516 18.168 0 3.303-1.652 3.303-4.955 8.258 132.129 69.368 143.69 333.626 150.297 482.271v0c16.516 0 31.381 16.516 31.381 33.032s-14.865 33.032-31.381 33.032z" />
<glyph unicode="&#xea04;" d="M843.974 832.826l-206.452 1.652-234.529 75.974h440.981z" />
<glyph unicode="&#xea05;" d="M637.523 367.071l-138.735 137.084-3.303 56.155 173.419-113.961z" />
<glyph unicode="&#xea06;" d="M650.735 743.639l-236.181 100.748v33.032l262.606-47.897z" />
<glyph unicode="&#xea07;" d="M654.083 649.961l-105.113 105.128 49.060 49.053 105.113-105.128-49.060-49.053z" />
<glyph unicode="&#xea08;" d="M703.838 473.511l-105.12 105.091 49.043 49.057 105.12-105.091-49.043-49.057z" />
<glyph unicode="&#xea09;" d="M624.31 860.903l47.897-97.445 109.006-16.516-77.626-75.974 18.168-107.355-97.445 51.2-95.794-51.2 18.168 107.355-79.277 75.974 109.006 16.516z" />
<glyph unicode="&#xea0a;" d="M624.31 860.903l47.897-97.445 109.006-16.516-77.626-75.974 18.168-107.355-74.323 72.671-118.916-72.671 57.806 112.31-118.916 71.019 145.342 1.652z" />
<glyph unicode="&#xea0b;" d="M381.523-64c-57.806 0-99.097 49.548-99.097 110.658v75.974c0 61.11 41.29 110.658 99.097 110.658h175.071c57.806 0 105.703-49.548 105.703-110.658v-75.974c0-61.11-47.897-110.658-105.703-110.658h-175.071z" />
<glyph unicode="&#xea0c;" d="M388.129-64c-21.471 0-39.639 19.819-39.639 41.29v0c0 21.471 18.168 41.29 39.639 41.29h279.123c21.471 0 39.639-19.819 39.639-41.29v0c0-21.471-18.168-41.29-39.639-41.29h-279.123z" />
<glyph unicode="&#xea0d;" d="M393.084 84.645c-21.471 0-39.639 11.561-39.639 33.032v0c0 21.471 18.168 33.032 39.639 33.032h322.065c21.471 0 39.639-11.561 39.639-33.032v0c0-21.471-18.168-33.032-39.639-33.032h-322.065z" />
<glyph unicode="&#xea0e;" d="M744.877 41.703c0-21.471-18.168-39.639-39.639-39.639h-317.11c-21.471 0-39.639 18.168-39.639 39.639v3.303c0 21.471 18.168 39.639 39.639 39.639h317.11c21.471 0 39.639-18.168 39.639-39.639v-3.303z" />
<glyph unicode="&#xea0f;" d="M371.613 150.71c-23.123 0-39.639 19.819-39.639 41.29v0c0 21.471 18.168 41.29 39.639 41.29h322.065c21.471 0 39.639-19.819 39.639-41.29v0c0-21.471-18.168-41.29-39.639-41.29h-322.065z" />
<glyph unicode="&#xea10;" d="M351.794 228.335c0 0 140.387 64.413 151.948 66.065 11.561 3.303 89.187-51.2 59.458-82.581s-115.613-21.471-115.613-21.471l-95.794 37.987z" />
<glyph unicode="&#xea11;" d="M265.91 233.29h49.548v-280.774h-49.548v280.774z" />
<glyph unicode="&#xea12;" d="M265.91 233.29h49.548v-280.774z" />
<glyph unicode="&#xea13;" d="M1.652 249.806h280.774v-313.806h-280.774v313.806z" />
<glyph unicode="&#xea14;" d="M1.652 249.806h280.774v-313.806z" />
<glyph unicode="&#xea15;" d="M211.406 92.903c0-14.595-11.831-26.426-26.426-26.426s-26.426 11.831-26.426 26.426c0 14.595 11.831 26.426 26.426 26.426s26.426-11.831 26.426-26.426z" />
<glyph unicode="&#xea16;" d="M95.794 92.903c0-14.595-11.831-26.426-26.426-26.426s-26.426 11.831-26.426 26.426c0 14.595 11.831 26.426 26.426 26.426s26.426-11.831 26.426-26.426z" />
<glyph unicode="&#xea17;" d="M0 873.955v-488.877l72.671-46.245 221.316 348.49z" />
<glyph unicode="&#xea18;" d="M1024 865.697v8.258l-293.987-186.632 221.316-348.49 72.671 46.245z" />
<glyph unicode="&#xea19;" d="M834.065 267.813c62.761 39.639 79.277 125.523 36.335 191.587l-52.852 82.581c-42.942 66.065-127.174 87.535-189.935 47.897l-188.284-118.916c-62.761-39.639-79.277-125.523-36.335-191.587l52.852-82.581c42.942-66.065 127.174-87.535 189.935-47.897l188.284 118.916z" />
<glyph unicode="&#xea1a;" d="M810.942 252.949c23.123 14.865 29.729 46.245 14.865 69.368v0c-14.865 23.123-46.245 29.729-69.368 14.865l-346.839-219.665c-23.123-14.865-29.729-46.245-14.865-69.368v0c14.865-23.123 46.245-29.729 69.368-14.865l346.839 219.665z" />
<glyph unicode="&#xea1b;" d="M404.645 279.374l52.852-82.581c42.942-66.065 127.174-87.535 189.935-47.897l188.284 118.916c62.761 39.639 79.277 125.523 36.335 191.587l-52.852 82.581z" />
<glyph unicode="&#xea1c;" d="M596.232 333.878c23.123 14.865 29.729 46.245 14.865 69.368v0c-14.865 23.123-46.245 29.729-69.368 14.865l-346.839-221.316c-23.123-14.865-29.729-46.245-14.865-69.368v0c14.865-23.123 46.245-29.729 69.368-14.865l346.839 221.316z" />
<glyph unicode="&#xea1d;" d="M668.903 267.813c23.123 14.865 29.729 46.245 14.865 69.368v0c-14.865 23.123-46.245 29.729-69.368 14.865l-346.839-221.316c-23.123-14.865-29.729-46.245-14.865-69.368v0c14.865-23.123 46.245-29.729 69.368-14.865l346.839 221.316z" />
<glyph unicode="&#xea1e;" d="M594.581 447.839c23.123 14.865 29.729 46.245 14.865 69.368v0c-14.865 23.123-46.245 29.729-69.368 14.865l-346.839-221.316c-23.123-14.865-29.729-46.245-14.865-69.368v0c14.865-23.123 46.245-29.729 69.368-14.865l346.839 221.316z" />
<glyph unicode="&#xea1f;" d="M663.948 606.394c0 0-194.89-28.077-211.406-33.032-14.865-4.955-61.11-117.265-8.258-130.477 54.503-13.213 140.387 56.155 140.387 56.155l79.277 107.355z" />
<glyph unicode="&#xea20;" d="M711.571 635.583l51.574 32.794 191.441-301.076-51.574-32.794-191.441 301.076z" />
<glyph unicode="&#xea21;" d="M763.045 667.503l-51.2-33.032 191.587-300.594z" />
<glyph unicode="&#xea22;" d="M1024 873.955l-293.987-186.632 221.316-348.49z" />
<glyph unicode="&#xea23;" d="M829.11 198.445l-31.381 19.819c18.168-1.652 37.987 6.606 47.897 23.123 14.865 23.123 8.258 54.503-14.865 69.368l-231.226 146.994c16.516 34.684-16.516 109.006-28.077 113.961-14.865 4.955-193.239 29.729-209.755 33.032-56.155 16.516-120.568-8.258-155.252-62.761l-52.852-82.581c-42.942-66.065-26.426-151.948 36.335-191.587l14.865-9.91c1.652-1.652 4.955-4.955 8.258-6.606l346.839-221.316c23.123-14.865 54.503-8.258 69.368 14.865 8.258 13.213 9.91 28.077 4.955 41.29l66.065-42.942c23.123-14.865 54.503-8.258 69.368 14.865 11.561 16.516 9.91 37.987 0 52.852l3.303-1.652c23.123-14.865 54.503-8.258 69.368 14.865 18.168 28.077 11.561 59.458-13.213 74.323z" />
<glyph unicode="&#xea24;" d="M576.413 49.8c-9.91 6.606-13.213 18.168-6.606 28.077l6.606 11.561c6.606 9.91 18.168 13.213 28.077 6.606v0c9.91-6.606 13.213-18.168 6.606-28.077l-6.606-11.561c-4.955-9.91-18.168-13.213-28.077-6.606v0z" />
<glyph unicode="&#xea25;" d="M791.123 130.729c-9.91 6.606-13.213 18.168-6.606 28.077l6.606 11.561c6.606 9.91 18.168 13.213 28.077 6.606v0c9.91-6.606 13.213-18.168 6.606-28.077l-6.606-11.561c-4.955-9.91-18.168-13.213-28.077-6.606v0z" />
<glyph unicode="&#xea26;" d="M718.452 64.665c-9.91 6.606-13.213 18.168-6.606 28.077l6.606 11.561c6.606 9.91 18.168 13.213 28.077 6.606v0c9.91-6.606 13.213-18.168 6.606-28.077l-6.606-11.561c-6.606-9.91-18.168-13.213-28.077-6.606v0z" />
<glyph unicode="&#xea27;" d="M792.774 243.039c-9.91 6.606-13.213 18.168-6.606 28.077l6.606 11.561c6.606 9.91 18.168 13.213 28.077 6.606v0c9.91-6.606 13.213-18.168 6.606-28.077l-4.955-11.561c-6.606-9.91-19.819-11.561-29.729-6.606v0z" />
<glyph unicode="&#xea28;" d="M120.613 333.795l-51.57 32.785 191.396 301.060 51.57-32.785-191.396-301.060z" />
<glyph unicode="&#xea29;" d="M260.955 667.503l51.2-33.032-191.587-300.594z" />
<glyph unicode="&#xea2a;" d="M0 873.955l293.987-186.632-221.316-348.49z" />
<glyph unicode="&#xea2b;" d="M115.613 556.845c-9.91-16.516-31.381-19.819-46.245-9.91-16.516 9.91-19.819 31.381-9.91 46.245 9.91 16.516 31.381 19.819 46.245 9.91s19.819-31.381 9.91-46.245z" />
<glyph unicode="&#xea2c;" d="M830.761 312.407l-231.226 146.994c16.516 34.684-16.516 109.006-28.077 113.961-6.606 3.303-52.852 9.91-100.748 16.516l-52.852-165.161 434.374-138.735c-3.303 9.91-9.91 19.819-21.471 26.426z" />
<glyph unicode="&#xea2d;" d="M611.097 561.8c14.865-24.774 21.471-89.187 1.652-100.748l-166.813-36.335c-19.819-11.561-46.245 0-61.11 23.123v0c-14.865 24.774-9.91 52.852 9.91 64.413l118.916 69.368c19.819 11.561 80.929 8.258 95.794-14.865l1.652-4.955z" />
<glyph unicode="&#xea2e;" glyph-name="delete" d="M685.381 448l302.693 302.668c47.894 47.894 47.894 125.535 0 173.405-47.845 47.87-125.535 47.87-173.381 0l-302.693-302.717-302.693 302.717c-47.845 47.87-125.535 47.87-173.381 0-47.894-47.894-47.894-125.535 0-173.405l302.668-302.668-302.668-302.668c-47.894-47.894-47.894-125.535 0-173.405 23.91-23.959 55.325-35.902 86.69-35.902 31.341 0 62.78 11.943 86.69 35.902l302.693 302.668 302.693-302.693c23.935-23.959 55.325-35.902 86.69-35.902s62.78 11.943 86.69 35.902c47.894 47.894 47.894 125.535 0 173.405l-302.693 302.693z" />
<glyph unicode="&#xea2f;" d="M864.548 688.826l-352.548-293.792-330.944 317.706c-79.23-82.468-128.090-194.308-128.090-317.704 0-253.518 205.516-459.036 459.034-459.036s459.034 205.518 459.034 459.034c0 111.798-40.056 214.178-106.486 293.792z" />
<glyph unicode="&#xea30;" d="M180.95 712.84l331.050-317.806v459.034c-130.128 0-247.516-54.236-331.050-141.228z" />
<glyph unicode="&#xea31;" d="M913.63 794.756l0.024 0.092c-84.202 100.912-210.87 165.152-352.572 165.152v-459.034l352.548 293.79z" />
<glyph unicode="&#xea32;" d="M617.932 6.62c-253.518 0-459.034 205.518-459.034 459.034 0 78.25 19.63 151.896 54.158 216.368l-32 30.718c-79.23-82.468-128.090-194.308-128.090-317.704 0-253.518 205.516-459.036 459.034-459.036 116.898 0 223.526 43.768 304.57 115.72-60.112-28.9-127.482-45.1-198.638-45.1z" />
<glyph unicode="&#xea33;" d="M312.904 808.574c-49.574-23.944-94.238-56.456-131.952-95.732l32.102-30.82c25.658 47.914 59.582 90.708 99.85 126.552z" />
<glyph unicode="&#xea34;" d="M51.2 849.067h921.6v-716.8h-921.6v716.8z" />
<glyph unicode="&#xea35;" d="M231.322 329.472c-4.369 0-8.738 1.673-12.066 5.001-6.673 6.673-6.673 17.459 0 24.132l49.357 49.34c6.673 6.673 17.459 6.673 24.132 0s6.673-17.459 0-24.132l-49.357-49.34c-3.328-3.345-7.697-5.001-12.066-5.001z" />
<glyph unicode="&#xea36;" d="M417.212 329.472c-4.369 0-8.738 1.673-12.066 5.001l-49.357 49.34c-6.673 6.673-6.673 17.459 0 24.132 6.656 6.673 17.459 6.673 24.132 0l49.357-49.34c6.673-6.673 6.673-17.459 0-24.132-3.328-3.345-7.697-5.001-12.066-5.001z" />
<glyph unicode="&#xea37;" d="M479.932 322.065c-4.369 0-8.738 1.673-12.066 5.001-6.673 6.673-6.673 17.459 0 24.132l142.080 142.063c6.673 6.673 17.459 6.673 24.132 0s6.673-17.459 0-24.132l-142.080-142.063c-3.328-3.328-7.697-5.001-12.066-5.001z" />
<glyph unicode="&#xea38;" d="M809.745 363.605c-4.369 0-8.738 1.673-12.066 5.001l-100.557 100.54c-6.673 6.673-6.673 17.459 0 24.132s17.459 6.673 24.132 0l100.557-100.54c6.673-6.673 6.673-17.459 0-24.132-3.328-3.345-7.697-5.001-12.066-5.001z" />
<glyph unicode="&#xea39;" d="M17.067 951.467h989.867v-102.4h-989.867v102.4z" />
<glyph unicode="&#xea3a;" d="M324.267 644.267h-187.733c-9.421 0-17.067 7.629-17.067 17.067s7.646 17.067 17.067 17.067h187.733c9.421 0 17.067-7.629 17.067-17.067s-7.646-17.067-17.067-17.067z" />
<glyph unicode="&#xea3b;" d="M221.867 712.533h-85.333c-9.421 0-17.067 7.629-17.067 17.067s7.646 17.067 17.067 17.067h85.333c9.421 0 17.067-7.629 17.067-17.067s-7.646-17.067-17.067-17.067z" />
<glyph unicode="&#xea3c;" d="M324.267 576h-187.733c-9.421 0-17.067 7.629-17.067 17.067s7.646 17.067 17.067 17.067h187.733c9.421 0 17.067-7.629 17.067-17.067s-7.646-17.067-17.067-17.067z" />
<glyph unicode="&#xea3d;" d="M375.467 422.4c0-28.277-22.923-51.2-51.2-51.2s-51.2 22.923-51.2 51.2c0 28.277 22.923 51.2 51.2 51.2s51.2-22.923 51.2-51.2z" />
<glyph unicode="&#xea3e;" d="M716.8 507.733c0-28.277-22.923-51.2-51.2-51.2s-51.2 22.923-51.2 51.2c0 28.277 22.923 51.2 51.2 51.2s51.2-22.923 51.2-51.2z" />
<glyph unicode="&#xea3f;" d="M887.467 337.067c0-28.277-22.923-51.2-51.2-51.2s-51.2 22.923-51.2 51.2c0 28.277 22.923 51.2 51.2 51.2s51.2-22.923 51.2-51.2z" />
<glyph unicode="&#xea40;" d="M494.933 302.933c0-28.277-22.923-51.2-51.2-51.2s-51.2 22.923-51.2 51.2c0 28.277 22.923 51.2 51.2 51.2s51.2-22.923 51.2-51.2z" />
<glyph unicode="&#xea41;" d="M256 302.933c0-28.277-22.923-51.2-51.2-51.2s-51.2 22.923-51.2 51.2c0 28.277 22.923 51.2 51.2 51.2s51.2-22.923 51.2-51.2z" />
<glyph unicode="&#xea42;" d="M1006.933 115.2h-989.867c-9.421 0-17.067 7.629-17.067 17.067s7.646 17.067 17.067 17.067h989.867c9.421 0 17.067-7.629 17.067-17.067s-7.646-17.067-17.067-17.067z" />
<glyph unicode="&#xea43;" d="M512 64c-9.421 0-17.067 7.629-17.067 17.067v51.2c0 9.438 7.646 17.067 17.067 17.067s17.067-7.629 17.067-17.067v-51.2c0-9.438-7.646-17.067-17.067-17.067z" />
<glyph unicode="&#xea44;" d="M512-55.467c-37.649 0-68.267 30.618-68.267 68.267s30.618 68.267 68.267 68.267 68.267-30.618 68.267-68.267-30.618-68.267-68.267-68.267zM512 46.933c-18.825 0-34.133-15.309-34.133-34.133s15.309-34.133 34.133-34.133 34.133 15.309 34.133 34.133-15.309 34.133-34.133 34.133z" />
<glyph unicode="&#xea45;" d="M202.17 72.424c-23.011-23.011-59.172-23.011-80.539 0v0c-23.011 23.011-23.011 59.172 0 80.539l410.915 410.915c23.011 23.011 59.172 23.011 80.539 0v0c23.011-23.011 23.011-59.172 0-80.539l-410.915-410.915z" />
<glyph unicode="&#xea46;" d="M613.085 563.878v0c23.011-23.011 23.011-59.172 0-80.539l-410.915-410.915c-23.011-23.011-59.172-23.011-80.539 0v0z" />
<glyph unicode="&#xea47;" d="M190.665-29.483c-26.299-26.299-67.39-26.299-93.689 0l-77.252 77.252c-26.299 26.299-26.299 67.39 0 93.689v0c26.299 26.299 67.39 26.299 93.689 0l77.252-77.252c26.299-26.299 26.299-67.39 0-93.689v0z" />
<glyph unicode="&#xea48;" d="M113.413 141.457l77.252-77.252c26.299-26.299 26.299-67.39 0-93.689v0c-26.299-26.299-67.39-26.299-93.689 0z" />
<glyph unicode="&#xea49;" d="M877.714 411.018c-69.034-69.034-142.998-31.23-212.032 37.804l-169.297 169.297c-69.034 69.034-105.194 142.998-37.804 212.032l29.586 29.586c69.034 69.034 142.998 31.23 212.032-37.804l169.297-169.297c69.034-69.034 105.194-142.998 37.804-212.032l-29.586-29.586z" />
<glyph unicode="&#xea4a;" d="M700.199 820.289l169.297-169.297c69.034-69.034 105.194-142.998 37.804-212.032l-29.586-29.586c-69.034-69.034-142.998-31.23-212.032 37.804z" />
<glyph unicode="&#xea4b;" d="M422.421 710.164c-13.149-13.149-34.517-13.149-47.666 0v0c-13.149 13.149-13.149 34.517 0 47.666l184.090 185.734c13.149 13.149 34.517 13.149 47.666 0v0c13.149-13.149 13.149-34.517 0-47.666l-184.090-185.734z" />
<glyph unicode="&#xea4c;" d="M606.51 943.563v0c13.149-13.149 13.149-34.517 0-47.666l-184.090-185.734c-13.149-13.149-34.517-13.149-47.666 0v0z" />
<glyph unicode="&#xea4d;" d="M807.037 325.547c-13.149-13.149-34.517-13.149-47.666 0v0c-13.149 13.149-13.149 34.517 0 47.666l184.090 184.090c13.149 13.149 34.517 13.149 47.666 0v0c13.149-13.149 13.149-34.517 0-47.666l-184.090-184.090z" />
<glyph unicode="&#xea4e;" d="M992.77 557.303v0c13.149-13.149 13.149-34.517 0-47.666l-185.734-184.090c-13.149-13.149-34.517-13.149-47.666 0v0z" />
<glyph unicode="&#xea4f;" d="M636.096 438.96c-11.506-11.506-31.23-11.506-42.735 0l-103.551 103.551c-11.506 11.506-11.506 31.23 0 42.735v0c11.506 11.506 31.23 11.506 42.735 0l103.551-103.551c11.506-11.506 11.506-31.23 0-42.735v0z" />
<glyph unicode="&#xea50;" d="M660.751 123.377h345.169v-147.929h-345.169v147.929z" />
<glyph unicode="&#xea51;" d="M660.751 123.377h345.169v-147.929z" />
<glyph unicode="&#xea52;" d="M1022.356-44.276c0-6.575-4.931-13.149-13.149-13.149h-351.743c-6.575 0-13.149 4.931-13.149 13.149v8.218c0 6.575 4.931 13.149 13.149 13.149h353.387c6.575 0 13.149-4.931 13.149-13.149v-8.218h-1.644z" />
<glyph unicode="&#xea53;" d="M1022.356 136.526c0-6.575-4.931-13.149-13.149-13.149h-351.743c-6.575 0-13.149 4.931-13.149 13.149v8.218c0 6.575 4.931 13.149 13.149 13.149h353.387c6.575 0 13.149-4.931 13.149-13.149v-8.218h-1.644z" />
<glyph unicode="&#xea54;" d="M919.65 657.55v-680.076h-282.87v387.752h-249.56v-387.752h-282.87v680.076l407.648 237.812z" />
<glyph unicode="&#xea55;" d="M1000.808 584.57c-3.994 0-8.036 1.034-11.728 3.204l-477.082 280.704-477.078-280.704c-11.030-6.492-25.226-2.81-31.716 8.218s-2.808 25.226 8.218 31.716l488.828 287.616c7.252 4.268 16.248 4.268 23.498 0l488.83-287.616c11.028-6.49 14.706-20.688 8.218-31.716-4.316-7.334-12.050-11.422-19.988-11.422z" />
<glyph unicode="&#xea56;" glyph-name="justice" d="M607.998 87.119v8.872c0 70.58-57.43 128.007-128.011 128.007h-320.008c-70.58 0-127.985-57.428-127.985-128.007v-8.886c-32-11.090-31.994-31.49-31.994-55.11 0-35.344 28.648-63.996 63.992-63.996h512.013c35.344 0 64.006 28.652 64.006 63.996-0.002 23.632-0.014 44.038-32.014 55.124zM960 704.001h-512.003v64.006c32 0 64 28.656 64 64.002v32c0 35.344-28.666 63.992-64.010 63.992h-256.008c-35.344 0-63.984-28.648-63.984-63.992v-32c0-35.344 32-64.002 64-64.002v-256.008c-32 0-64-28.656-64-64.002v-32c0-35.344 28.64-64 63.984-64h256.008c35.344 0 64.010 28.656 64.010 64v32c0 35.344-32 64.002-64 64.002v63.998h512.003c35.344 0 64.002 28.656 64.002 64s-28.658 64.002-64.002 64.002z" />
<glyph unicode="&#xea57;" d="M512.281 183.56c-9.434 0-17.060 7.626-17.060 17.060v443.563c0 9.434 7.626 17.060 17.060 17.060s17.060-7.626 17.060-17.060v-443.563c0-9.434-7.626-17.060-17.060-17.060z" />
<glyph unicode="&#xea58;" d="M512.281 797.724c-9.434 0-17.060 7.626-17.060 17.060v68.241c0 9.434 7.626 17.060 17.060 17.060s17.060-7.626 17.060-17.060v-68.241c0-9.434-7.626-17.060-17.060-17.060z" />
<glyph unicode="&#xea59;" d="M102.838 541.822c-6.773 0-13.187 4.043-15.849 10.731-3.497 8.752 0.768 18.681 9.52 22.178l333.099 133.24c8.667 3.497 18.681-0.751 22.178-9.502s-0.768-18.681-9.52-22.178l-333.099-133.257c-2.064-0.836-4.214-1.211-6.329-1.211z" />
<glyph unicode="&#xea5a;" d="M593.266 737.98c-6.568 0-12.812 3.787-15.627 10.168-3.804 8.632 0.102 18.681 8.718 22.502l328.476 145.045c8.684 3.787 18.732-0.102 22.502-8.718 3.804-8.632-0.102-18.681-8.718-22.502l-328.476-145.045c-2.252-0.989-4.572-1.45-6.875-1.45z" />
<glyph unicode="&#xea5b;" d="M102.838 473.582c-9.434 0-17.060 7.626-17.060 17.060v68.241c0 9.434 7.626 17.060 17.060 17.060s17.060-7.626 17.060-17.060v-68.241c0-9.434-7.626-17.060-17.060-17.060z" />
<glyph unicode="&#xea5c;" d="M921.725 814.784c-9.434 0-17.060 7.626-17.060 17.060v68.241c0 9.434 7.626 17.060 17.060 17.060s17.060-7.626 17.060-17.060v-68.241c0-9.434-7.626-17.060-17.060-17.060z" />
<glyph unicode="&#xea5d;" d="M1024 644.183h-204.551v17.060c0 18.050 4.623 35.195 13.75 50.993l88.525 153.353 88.525-153.353c9.11-15.798 13.75-32.943 13.75-50.993v-17.060zM855.753 678.303h131.943c-1.535 5.835-3.873 11.464-6.995 16.872l-58.977 102.173-58.977-102.173c-3.122-5.408-5.459-11.038-6.995-16.872z" />
<glyph unicode="&#xea5e;" d="M836.509 661.243c0-44.493 35.502-85.301 85.215-85.301s85.215 40.808 85.215 85.301h-170.431z" />
<glyph unicode="&#xea5f;" d="M921.725 558.882c-56.401 0-102.275 45.909-102.275 102.361v17.060h204.534v-17.060c0-56.452-45.858-102.361-102.258-102.361zM855.855 644.183c7.216-26.955 31.049-51.18 65.869-51.18s58.653 24.225 65.869 51.18h-131.738z" />
<glyph unicode="&#xea60;" d="M205.694 302.98h-205.694l0.751 17.777c0.699 16.668 5.272 32.397 13.563 46.779l88.542 153.353 88.525-153.353c8.274-14.382 12.863-30.111 13.563-46.779l0.751-17.777zM37.959 337.101h129.776c-1.484 4.623-3.429 9.093-5.92 13.375l-58.977 102.173-58.977-102.173c-2.474-4.282-4.453-8.752-5.903-13.375z" />
<glyph unicode="&#xea61;" d="M17.794 320.041c-1.894-45.824 34.035-88.798 85.045-88.798s86.955 42.974 85.045 88.798h-170.089z" />
<glyph unicode="&#xea62;" d="M102.838 214.182c-28.115 0-54.183 11.038-73.41 31.118-19.397 20.216-29.855 47.717-28.695 75.457l0.682 16.344h202.828l0.682-16.344c1.16-27.74-9.298-55.241-28.695-75.457-19.21-20.080-45.278-31.118-73.393-31.118zM36.167 302.98c2.576-12.659 8.769-24.55 17.896-34.069 12.744-13.29 30.077-20.609 48.775-20.609 18.715 0 36.048 7.319 48.775 20.609 9.127 9.52 15.303 21.41 17.896 34.069h-133.342z" />
<glyph unicode="&#xea63;" d="M768.183-21.162h-511.804c0 75.372 61.109 136.481 136.481 136.481h238.842c75.372 0 136.481-61.109 136.481-136.481z" />
<glyph unicode="&#xea64;" d="M409.921 200.62h204.722v-85.301h-204.722v85.301z" />
<glyph unicode="&#xea65;" d="M597.582 729.484c0-47.103-38.198-85.301-85.301-85.301s-85.301 38.198-85.301 85.301c0 47.103 38.198 85.301 85.301 85.301s85.301-38.198 85.301-85.301z" />
<glyph unicode="&#xea66;" d="M512 456.258l-512 194.89 512 166.813 512-166.813z" />
<glyph unicode="&#xea67;" d="M512 817.961l512-166.813-512-194.89z" />
<glyph unicode="&#xea68;" d="M512 355.51l-386.477 146.994-125.523-41.29 512-194.89 512 194.89-125.523 41.29z" />
<glyph unicode="&#xea69;" d="M512 266.323l512 194.89-125.523 41.29-386.477-146.994z" />
<glyph unicode="&#xea6a;" d="M512 165.574l-386.477 146.994-125.523-41.29 512-193.239 512 193.239-125.523 41.29z" />
<glyph unicode="&#xea6b;" d="M512 78.039l512 193.239-125.523 41.29-386.477-146.994z" />
<glyph unicode="&#xea6c;" glyph-name="location" d="M512 960c-191.626 0-347.527-155.899-347.527-347.525 0-77.005 45.336-194.115 142.676-368.549 66.423-119.022 132.54-219.556 135.329-223.791l47.788-72.435c4.818-7.305 12.982-11.701 21.735-11.701s16.917 4.395 21.735 11.701l47.786 72.43c2.762 4.187 68.398 103.851 135.331 223.795 97.34 174.426 142.676 291.536 142.676 368.549 0 191.626-155.901 347.525-347.527 347.525zM671.378 269.304c-66.002-118.266-130.6-216.366-133.323-220.489l-26.055-39.493-26.047 39.483c-2.737 4.156-67.831 103.135-133.331 220.499-90.291 161.805-136.072 277.265-136.072 343.171 0 162.911 132.537 295.448 295.45 295.448s295.45-132.537 295.45-295.448c0-65.915-45.782-181.371-136.072-343.171zM512 807.33c-106.247 0-192.684-86.439-192.684-192.684s86.437-192.684 192.684-192.684 192.684 86.439 192.684 192.684-86.437 192.684-192.684 192.684zM512 474.038c-77.532 0-140.607 63.075-140.607 140.607s63.075 140.607 140.607 140.607c77.534 0 140.607-63.075 140.607-140.607s-63.073-140.607-140.607-140.607z" />
<glyph unicode="&#xea6d;" d="M512 960c-160.816 0-291.184-130.368-291.184-291.184v-198.976h97.062v198.976c0 107.040 87.084 194.124 194.124 194.124s194.124-87.084 194.124-194.124v-198.976h97.062v198.976c-0.004 160.816-130.372 291.184-291.188 291.184z" />
<glyph unicode="&#xea6e;" d="M875.982 518.37h-194.124l-72.796-291.184 72.796-291.186h194.124c13.346 0 24.266 10.92 24.266 24.266v533.838c-0.002 13.346-10.92 24.266-24.266 24.266z" />
<glyph unicode="&#xea6f;" d="M681.858 518.37h-533.84c-13.346 0-24.266-10.92-24.266-24.266v-533.838c0-13.346 10.92-24.266 24.266-24.266h533.838c13.346 0 24.266 10.92 24.266 24.266v533.838c0.002 13.346-10.918 24.266-24.264 24.266z" />
<glyph unicode="&#xea70;" d="M487.734 299.982c0 40.206-32.59 72.796-72.796 72.796-40.202 0-72.796-32.59-72.796-72.796 0-25.062 12.666-47.162 31.946-60.258l-31.946-158.13h145.592l-31.946 158.13c19.28 13.094 31.946 35.196 31.946 60.258z" />
<glyph unicode="&#xea71;" d="M158.897 651.034h847.448v-423.724h-847.448v423.724z" />
<glyph unicode="&#xea72;" d="M1024 209.655h-882.759v459.034h882.759v-459.034zM176.552 244.966h812.138v388.414h-812.138v-388.414z" />
<glyph unicode="&#xea73;" d="M158.897 792.276h-88.276c-9.746 0-17.655 7.892-17.655 17.655s7.91 17.655 17.655 17.655h88.276c9.746 0 17.655-7.892 17.655-17.655s-7.91-17.655-17.655-17.655z" />
<glyph unicode="&#xea74;" d="M158.897 633.379c-9.746 0-17.655 7.892-17.655 17.655v158.897c0 9.763 7.91 17.655 17.655 17.655s17.655-7.892 17.655-17.655v-158.897c0-9.763-7.91-17.655-17.655-17.655z" />
<glyph unicode="&#xea75;" d="M158.897 86.069c-9.746 0-17.655 7.892-17.655 17.655v123.586c0 9.763 7.91 17.655 17.655 17.655s17.655-7.892 17.655-17.655v-123.586c0-9.763-7.91-17.655-17.655-17.655z" />
<glyph unicode="&#xea76;" d="M406.069 15.448c0-39.003-31.618-70.621-70.621-70.621s-70.621 31.618-70.621 70.621c0 39.003 31.618 70.621 70.621 70.621s70.621-31.618 70.621-70.621z" />
<glyph unicode="&#xea77;" d="M829.793 15.448c0-39.003-31.618-70.621-70.621-70.621s-70.621 31.618-70.621 70.621c0 39.003 31.618 70.621 70.621 70.621s70.621-31.618 70.621-70.621z" />
<glyph unicode="&#xea78;" d="M918.069 86.069h-759.172c-9.746 0-17.655 7.892-17.655 17.655s7.91 17.655 17.655 17.655h759.172c9.746 0 17.655-7.892 17.655-17.655s-7.91-17.655-17.655-17.655z" />
<glyph unicode="&#xea79;" d="M1006.345 492.138h-847.448c-9.746 0-17.655 7.892-17.655 17.655s7.91 17.655 17.655 17.655h847.448c9.746 0 17.655-7.892 17.655-17.655s-7.91-17.655-17.655-17.655z" />
<glyph unicode="&#xea7a;" d="M1006.345 350.897h-847.448c-9.746 0-17.655 7.892-17.655 17.655s7.91 17.655 17.655 17.655h847.448c9.746 0 17.655-7.892 17.655-17.655s-7.91-17.655-17.655-17.655z" />
<glyph unicode="&#xea7b;" d="M300.138 209.655c-9.746 0-17.655 7.892-17.655 17.655v423.724c0 9.763 7.91 17.655 17.655 17.655s17.655-7.892 17.655-17.655v-423.724c0-9.763-7.91-17.655-17.655-17.655z" />
<glyph unicode="&#xea7c;" d="M441.379 209.655c-9.746 0-17.655 7.892-17.655 17.655v423.724c0 9.763 7.91 17.655 17.655 17.655s17.655-7.892 17.655-17.655v-423.724c0-9.763-7.91-17.655-17.655-17.655z" />
<glyph unicode="&#xea7d;" d="M582.621 209.655c-9.746 0-17.655 7.892-17.655 17.655v423.724c0 9.763 7.91 17.655 17.655 17.655s17.655-7.892 17.655-17.655v-423.724c0-9.763-7.91-17.655-17.655-17.655z" />
<glyph unicode="&#xea7e;" d="M723.862 209.655c-9.746 0-17.655 7.892-17.655 17.655v423.724c0 9.763 7.91 17.655 17.655 17.655s17.655-7.892 17.655-17.655v-423.724c0-9.763-7.91-17.655-17.655-17.655z" />
<glyph unicode="&#xea7f;" d="M865.103 209.655c-9.746 0-17.655 7.892-17.655 17.655v423.724c0 9.763 7.91 17.655 17.655 17.655s17.655-7.892 17.655-17.655v-423.724c0-9.763-7.91-17.655-17.655-17.655z" />
<glyph unicode="&#xea80;" d="M105.931 809.931c0-29.252-23.713-52.966-52.966-52.966s-52.966 23.713-52.966 52.966c0 29.252 23.713 52.966 52.966 52.966s52.966-23.713 52.966-52.966z" />
<glyph unicode="&#xea81;" d="M247.172 809.931h247.172v-141.241h-247.172v141.241z" />
<glyph unicode="&#xea82;" d="M494.345 951.172h282.483v-282.483h-282.483v282.483z" />
<glyph unicode="&#xea83;" d="M776.828 898.207h176.552v-229.517h-176.552v229.517z" />
<glyph unicode="&#xea84;" d="M123.586 59.586h776.828v211.862h-776.828v-211.862z" />
<glyph unicode="&#xea85;" d="M123.586 59.586v123.586h-123.586l70.62-105.932-70.62-105.93h158.896v88.276h-35.31z" />
<glyph unicode="&#xea86;" d="M1024 183.172h-123.586v-123.586h-35.31v-88.276h158.896l-70.62 105.932 70.62 105.93z" />
<glyph unicode="&#xea87;" d="M370.758 183.172h-70.62c-9.764 0-17.656 7.892-17.656 17.656s7.892 17.656 17.656 17.656h70.62c9.764 0 17.656-7.892 17.656-17.656s-7.892-17.656-17.656-17.656z" />
<glyph unicode="&#xea88;" d="M547.31 183.172h-105.93c-9.764 0-17.656 7.892-17.656 17.656s7.892 17.656 17.656 17.656h105.932c9.764 0 17.656-7.892 17.656-17.656s-7.894-17.656-17.658-17.656z" />
<glyph unicode="&#xea89;" d="M459.034 112.552h-158.896c-9.764 0-17.656 7.892-17.656 17.656s7.892 17.656 17.656 17.656h158.896c9.764 0 17.656-7.892 17.656-17.656s-7.892-17.656-17.656-17.656z" />
<glyph unicode="&#xea8a;" d="M723.862 112.552h-35.31c-9.764 0-17.656 7.892-17.656 17.656s7.892 17.656 17.656 17.656h35.31c9.764 0 17.656-7.892 17.656-17.656s-7.892-17.656-17.656-17.656z" />
<glyph unicode="&#xea8b;" d="M617.932 112.552h-88.276c-9.764 0-17.656 7.892-17.656 17.656s7.892 17.656 17.656 17.656h88.276c9.764 0 17.656-7.892 17.656-17.656-0.002-9.764-7.894-17.656-17.656-17.656z" />
<glyph unicode="&#xea8c;" d="M723.862 183.172h-88.276c-9.764 0-17.656 7.892-17.656 17.656s7.892 17.656 17.656 17.656h88.276c9.764 0 17.656-7.892 17.656-17.656s-7.892-17.656-17.656-17.656z" />
<glyph unicode="&#xea8d;" d="M899.26 271.448c34.48 62.888 54.114 135.080 54.114 211.862 0 243.764-197.614 441.38-441.38 441.38s-441.38-197.614-441.38-441.38c0-76.782 19.65-148.974 54.13-211.862h774.516z" />
<glyph unicode="&#xea8e;" d="M771.792 271.448c47.228 57.802 75.652 131.566 75.652 211.862 0 184.974-150.476 335.448-335.448 335.448-184.956 0-335.448-150.476-335.448-335.448 0-80.296 28.424-154.060 75.652-211.862h519.592z" />
<glyph unicode="&#xea8f;" d="M617.932 606.896c0 58.51-47.422 105.932-105.932 105.932s-105.932-47.422-105.932-105.932c0-58.51 47.422-105.932 105.932-105.932s105.932 47.424 105.932 105.932z" />
<glyph unicode="&#xea90;" d="M653.242 271.448h-282.484v88.028c0 78 63.24 141.242 141.242 141.242s141.242-63.24 141.242-141.242v-88.028z" />
<glyph unicode="&#xea91;" d="M545.36 566.914l184.626 384.016c2.672 5.546 8.266 9.070 14.422 9.070h257.922c5.5 0 10.61-2.828 13.546-7.484 2.922-4.656 3.25-10.492 0.876-15.446l-244.782-509.148c-1.984-4.118-5.626-7.196-10.016-8.454-1.438-0.414-2.922-0.618-4.406-0.618-3 0-5.968 0.844-8.562 2.476l-197.766 125.132c-6.86 4.346-9.374 13.144-5.86 20.456z" />
<glyph unicode="&#xea92;" d="M883.964 960h118.366c5.5 0 10.61-2.828 13.546-7.484 2.922-4.656 3.25-10.492 0.876-15.446l-244.782-509.148c-1.984-4.118-5.626-7.196-10.016-8.454-1.438-0.414-2.922-0.618-4.406-0.618-3 0-5.968 0.844-8.562 2.476l-95.076 60.158 230.054 478.516z" />
<glyph unicode="&#xea93;" d="M478.638 566.914l-184.624 384.016c-2.672 5.546-8.266 9.070-14.422 9.070h-257.922c-5.5 0-10.61-2.828-13.546-7.484-2.922-4.656-3.25-10.492-0.876-15.446l244.782-509.148c1.984-4.118 5.626-7.196 10.016-8.454 1.438-0.414 2.922-0.618 4.406-0.618 3 0 5.968 0.844 8.562 2.476l197.766 125.132c6.858 4.346 9.374 13.144 5.858 20.456z" />
<glyph unicode="&#xea94;" d="M140.036 960h-118.366c-5.5 0-10.61-2.828-13.546-7.484-2.922-4.656-3.25-10.492-0.876-15.446l244.782-509.148c1.984-4.118 5.626-7.196 10.016-8.454 1.438-0.414 2.922-0.618 4.406-0.618 3 0 5.968 0.844 8.562 2.476l95.076 60.158-230.054 478.516z" />
<glyph unicode="&#xea95;" d="M832.218 256c0-176.731-143.269-320-320-320s-320 143.269-320 320c0 176.731 143.269 320 320 320s320-143.269 320-320z" />
<glyph unicode="&#xea96;" d="M512.218-64c88.366 0 168.366 35.818 226.272 93.726l-452.546 452.548c-57.91-57.908-93.726-137.908-93.726-226.274 0-176.73 143.268-320 320-320z" />
<glyph unicode="&#xea97;" d="M595.888 97.586c-5.25 0-10.532 1.266-15.406 3.828l-68.266 35.882-68.266-35.882c-11.218-5.882-24.578-4.906-34.796 2.524-10.266 7.454-15.296 19.844-13.156 32.336l13.032 76-55.234 53.82c-9.078 8.86-12.282 21.844-8.36 33.898s14.14 20.688 26.688 22.516l76.312 11.086 34.14 69.148c5.594 11.36 16.954 18.422 29.624 18.43h0.016c12.688 0 24.046-7.062 29.656-18.43l34.126-69.148 76.296-11.086c12.562-1.828 22.782-10.46 26.704-22.516s0.718-25.040-8.36-33.89l-55.234-53.828 13.046-76c2.14-12.492-2.89-24.882-13.156-32.336-5.796-4.212-12.578-6.352-19.406-6.352zM376.138 289.016l61.25-59.696c3.766-3.68 5.484-8.976 4.594-14.164l-14.454-84.29 8.984-15.29-7.438 14.164 75.704 39.796c4.656 2.454 10.218 2.454 14.874 0l75.704-39.796 17.328 3.828-15.766-2.704-14.468 84.29c-0.89 5.188 0.828 10.484 4.594 14.164l61.25 59.696 1.704 17.656-2.296-15.836-84.626 12.296c-5.218 0.758-9.718 4.032-12.046 8.758l-37.844 76.688c0-0.016-0.954-0.008-1.532 0-0.234 0-0.39 0-0.39 0l-37.86-76.696c-2.328-4.718-6.828-7.992-12.046-8.75l-84.624-12.296-11.766-13.282 11.17 11.464z" />
<glyph unicode="&#xea98;" d="M768.264 240c-4.172 0-8.328 1.766-11.376 4.64-3.032 3.040-4.626 7.204-4.626 11.36 0 4.164 1.594 8.32 4.626 11.36 5.922 5.922 16.64 5.922 22.562 0 3.046-3.040 4.812-7.196 4.812-11.36 0-4.156-1.766-8.32-4.812-11.36-2.874-2.874-7.030-4.64-11.186-4.64z" />
<glyph unicode="&#xea99;" d="M512.264 496c-4.328 0-8.328 1.766-11.374 4.64-3.032 3.040-4.626 7.204-4.626 11.36 0 4.164 1.594 8.32 4.626 11.36 5.922 5.922 16.64 5.922 22.562 0 3.046-3.040 4.812-7.196 4.812-11.36 0-4.156-1.766-8.32-4.812-11.36-2.876-2.874-7.032-4.64-11.188-4.64z" />
<glyph unicode="&#xea9a;" d="M331.138 420.962c-4.156 0-8.328 1.766-11.204 4.804-3.046 2.876-4.796 7.040-4.796 11.196 0 4.32 1.75 8.484 4.796 11.36 5.766 5.922 16.64 5.922 22.562 0 3.032-3.040 4.64-7.040 4.64-11.36 0-4.156-1.61-8.32-4.64-11.196-3.044-3.040-7.044-4.804-11.358-4.804z" />
<glyph unicode="&#xea9b;" d="M693.216 59.040c-4.156 0-8.328 1.602-11.36 4.64-2.876 2.882-4.64 7.046-4.64 11.36 0 4.164 1.766 8.32 4.64 11.204 6.078 6.078 16.64 6.078 22.718 0 2.876-2.882 4.64-7.040 4.64-11.204 0-4.312-1.766-8.312-4.64-11.36-3.044-3.040-7.2-4.64-11.358-4.64z" />
<glyph unicode="&#xea9c;" d="M693.216 420.962c-4.156 0-8.328 1.766-11.36 4.64-2.876 3.040-4.64 7.204-4.64 11.36 0 4.32 1.766 8.484 4.64 11.36 5.922 5.922 16.64 5.922 22.718 0 2.876-2.876 4.64-7.040 4.64-11.36 0-4.156-1.766-8.32-4.64-11.36-3.044-2.876-7.2-4.64-11.358-4.64z" />
<glyph unicode="&#xea9d;" d="M748.732 337.922c-4.156 0-8.312 1.758-11.36 4.804-2.876 2.876-4.64 7.040-4.64 11.196 0 4.32 1.766 8.484 4.64 11.36 6.078 5.922 16.64 5.922 22.718 0 2.89-2.876 4.64-7.040 4.64-11.36 0-4.156-1.75-8.32-4.64-11.196-3.030-3.046-7.202-4.804-11.358-4.804z" />
<glyph unicode="&#xea9e;" d="M414.17 476.484c-4.156 0-8.312 1.758-11.188 4.796-3.046 2.882-4.812 7.040-4.812 11.204 0 4.156 1.766 8.32 4.812 11.36 5.906 5.922 16.64 5.922 22.546 0 3.046-3.040 4.64-7.040 4.64-11.36 0-4.164-1.594-8.32-4.64-11.36-3.030-2.882-7.030-4.64-11.358-4.64z" />
<glyph unicode="&#xea9f;" d="M748.732 142.086c-4.156 0-8.312 1.594-11.36 4.64-2.876 3.040-4.64 7.040-4.64 11.36 0 4.156 1.766 8.32 4.64 11.196 5.922 6.078 16.796 6.078 22.718 0 2.89-2.876 4.64-7.040 4.64-11.196 0-4.32-1.75-8.32-4.64-11.36-3.030-3.046-7.202-4.64-11.358-4.64z" />
<glyph unicode="&#xeaa0;" d="M610.17 476.484c-4.156 0-8.312 1.758-11.36 4.64-2.876 3.040-4.64 7.196-4.64 11.36 0 4.32 1.766 8.476 4.64 11.36 5.922 5.922 16.64 5.922 22.718 0 2.89-3.040 4.64-7.040 4.64-11.36 0-4.164-1.75-8.32-4.64-11.36-3.030-2.882-7.186-4.64-11.358-4.64z" />
<glyph unicode="&#xeaa1;" d="M763.138 291.040c-4.328 0-8.484 1.766-11.36 4.64-3.046 3.046-4.64 7.204-4.64 11.36 0 4.164 1.594 8.32 4.64 11.368 5.922 5.914 16.64 5.914 22.562 0 3.032-3.046 4.796-7.204 4.796-11.368 0-4.156-1.766-8.312-4.796-11.36-2.888-2.876-7.046-4.64-11.202-4.64z" />
<glyph unicode="&#xeaa2;" d="M461.216 490.882c-4.328 0-8.328 1.758-11.36 4.64-3.046 3.040-4.64 7.040-4.64 11.36 0 4.156 1.594 8.32 4.64 11.36 5.922 5.922 16.64 5.922 22.718 0 2.876-3.040 4.64-7.204 4.64-11.36s-1.766-8.32-4.64-11.36c-3.044-2.882-7.2-4.64-11.358-4.64z" />
<glyph unicode="&#xeaa3;" d="M725.702 98.726c-4.172 0-8.328 1.758-11.36 4.632-2.89 3.046-4.64 7.046-4.64 11.368 0 4.156 1.75 8.312 4.64 11.36 5.922 5.914 16.796 5.914 22.718 0 2.876-3.046 4.64-7.204 4.64-11.36 0-4.32-1.766-8.32-4.64-11.368-3.046-2.874-7.202-4.632-11.358-4.632z" />
<glyph unicode="&#xeaa4;" d="M653.53 453.446c-4.156 0-8.312 1.758-11.36 4.64-2.876 3.040-4.64 7.196-4.64 11.36 0 4.32 1.766 8.32 4.64 11.36 5.922 5.922 16.812 5.922 22.562 0 3.046-2.882 4.796-7.040 4.796-11.36 0-4.164-1.75-8.32-4.796-11.36-2.874-2.882-7.030-4.64-11.202-4.64z" />
<glyph unicode="&#xeaa5;" d="M724.42 383.204c-4.156 0-8.328 1.602-11.36 4.64-2.89 2.882-4.64 7.040-4.64 11.36 0 4.156 1.75 8.32 4.64 11.36 6.078 5.922 16.64 5.922 22.718 0 3.032-3.040 4.64-7.204 4.64-11.36 0-4.32-1.61-8.476-4.64-11.36-3.046-3.040-7.046-4.64-11.358-4.64z" />
<glyph unicode="&#xeaa6;" d="M369.060 452.32c-4.328 0-8.328 1.602-11.36 4.64-2.89 2.882-4.64 7.040-4.64 11.204 0 4.32 1.75 8.476 4.64 11.36 5.922 5.922 16.796 5.922 22.718 0 2.876-2.882 4.64-7.040 4.64-11.36 0-4.164-1.766-8.32-4.64-11.204-3.044-3.038-7.202-4.64-11.358-4.64z" />
<glyph unicode="&#xeaa7;" d="M763.452 191.204c-4.156 0-8.312 1.602-11.36 4.64-2.876 3.040-4.64 7.040-4.64 11.36 0 4.156 1.766 8.32 4.64 11.36 6.078 5.922 16.64 5.922 22.718 0 3.046-3.040 4.64-7.204 4.64-11.36 0-4.32-1.594-8.32-4.64-11.36-3.030-3.040-7.030-4.64-11.358-4.64z" />
<glyph unicode="&#xeaa8;" d="M561.060 491.36c-4.328 0-8.328 1.602-11.36 4.64-2.89 3.040-4.64 7.040-4.64 11.36 0 4.164 1.75 8.32 4.64 11.204 5.922 6.078 16.64 6.078 22.718 0 2.876-2.882 4.64-7.040 4.64-11.204 0-4.32-1.766-8.476-4.64-11.36-3.044-3.038-7.202-4.64-11.358-4.64z" />
<glyph unicode="&#xeaa9;" d="M595.888 97.586c6.828 0 13.61 2.14 19.406 6.352 10.266 7.454 15.296 19.844 13.156 32.336l-0.724 4.216-39.186 39.186 8.378-48.808 15.766 2.704-17.328-3.828-75.704 39.796c-4.656 2.454-10.218 2.454-14.874 0l-75.704-39.796 7.438-14.164-8.984 15.29 14.454 84.29c0.89 5.188-0.828 10.484-4.594 14.164l-61.25 59.696-11.172-11.46 11.766 13.282 84.624 12.296c1.018 0.148 1.976 0.466 2.928 0.798l-27.91 27.912-64.252-9.334c-12.546-1.828-22.766-10.46-26.688-22.516s-0.718-25.040 8.36-33.898l55.234-53.82-13.032-76c-2.14-12.492 2.89-24.882 13.156-32.336 10.218-7.43 23.578-8.406 34.796-2.524l68.266 35.882 68.266-35.882c4.878-2.568 10.158-3.834 15.408-3.834z" />
<glyph unicode="&#xeaaa;" d="M256.264 240c-4.172 0-8.328 1.766-11.376 4.64-2.876 3.040-4.624 7.204-4.624 11.36 0 4.164 1.75 8.32 4.624 11.36 5.922 5.922 16.64 5.922 22.562 0 3.046-3.040 4.812-7.196 4.812-11.36 0-4.156-1.766-8.32-4.812-11.36-2.874-2.874-7.030-4.64-11.186-4.64z" />
<glyph unicode="&#xeaab;" d="M512.264-16c-4.172 0-8.328 1.766-11.374 4.64-3.032 3.040-4.626 7.204-4.626 11.36 0 4.164 1.594 8.32 4.626 11.36 6.094 5.922 16.64 5.922 22.562 0 3.046-3.040 4.812-7.196 4.812-11.36 0-4.156-1.766-8.32-4.812-11.36-2.876-2.874-7.032-4.64-11.188-4.64z" />
<glyph unicode="&#xeaac;" d="M331.138 59.040c-4.156 0-8.328 1.602-11.204 4.64-3.046 3.046-4.796 7.204-4.796 11.36 0 4.164 1.75 8.32 4.796 11.204 5.922 5.922 16.64 6.078 22.562 0 3.032-2.882 4.64-7.040 4.64-11.204 0-4.156-1.61-8.312-4.64-11.36-2.872-3.040-7.044-4.64-11.358-4.64z" />
<glyph unicode="&#xeaad;" d="M275.78 142.086c-4.328 0-8.484 1.594-11.36 4.64-3.046 3.040-4.64 7.196-4.64 11.36 0 4.156 1.594 8.32 4.64 11.196 5.922 6.078 16.64 6.078 22.562 0 3.032-2.876 4.796-7.040 4.796-11.196 0-4.164-1.766-8.32-4.796-11.36-2.89-3.046-7.046-4.64-11.202-4.64z" />
<glyph unicode="&#xeaae;" d="M610.17 3.524c-4.156 0-8.312 1.602-11.36 4.64-2.876 2.876-4.64 7.040-4.64 11.36 0 4.156 1.766 8.32 4.64 11.36 6.078 5.922 16.64 5.922 22.718 0 2.89-3.040 4.64-7.204 4.64-11.36 0-4.164-1.75-8.32-4.64-11.36-3.030-3.038-7.186-4.64-11.358-4.64z" />
<glyph unicode="&#xeaaf;" d="M275.78 337.922c-4.328 0-8.484 1.758-11.36 4.804-3.046 2.876-4.64 7.040-4.64 11.196 0 4.32 1.594 8.484 4.64 11.36 5.922 5.922 16.64 5.922 22.562 0 3.032-3.040 4.796-7.040 4.796-11.36 0-4.156-1.766-8.32-4.796-11.196-2.89-3.046-7.046-4.804-11.202-4.804z" />
<glyph unicode="&#xeab0;" d="M414.17 3.524c-4.156 0-8.312 1.602-11.188 4.64-3.046 3.040-4.812 7.040-4.812 11.36 0 4.156 1.766 8.32 4.812 11.204 5.906 6.078 16.64 6.078 22.546 0 3.046-2.882 4.64-7.046 4.64-11.204 0-4.32-1.594-8.32-4.64-11.36-2.874-3.038-7.030-4.64-11.358-4.64z" />
<glyph unicode="&#xeab1;" d="M261.374 188.962c-4.156 0-8.312 1.766-11.36 4.64-2.876 3.040-4.64 7.204-4.64 11.36 0 4.164 1.766 8.32 4.64 11.36 6.078 5.922 16.64 5.922 22.718 0 2.89-3.040 4.64-7.196 4.64-11.36 0-4.156-1.75-8.32-4.64-11.36-3.030-2.876-7.202-4.64-11.358-4.64z" />
<glyph unicode="&#xeab2;" d="M563.294-10.874c-4.312 0-8.484 1.758-11.36 4.64-3.046 3.040-4.64 7.196-4.64 11.36 0 4.156 1.594 8.32 4.64 11.36 5.922 5.922 16.64 5.922 22.562 0 3.032-3.040 4.796-7.204 4.796-11.36 0-4.164-1.766-8.32-4.796-11.36-2.872-2.882-7.044-4.64-11.202-4.64z" />
<glyph unicode="&#xeab3;" d="M298.81 381.282c-4.312 0-8.468 1.758-11.36 4.64-3.032 3.040-4.64 7.204-4.64 11.36 0 4.32 1.61 8.32 4.64 11.36 5.922 5.922 16.64 5.922 22.562 0 3.046-3.040 4.796-7.196 4.796-11.36 0-4.156-1.75-8.32-4.796-11.36-2.874-2.882-7.030-4.64-11.202-4.64z" />
<glyph unicode="&#xeab4;" d="M370.982 26.562c-4.328 0-8.484 1.758-11.36 4.64-3.046 3.040-4.64 7.040-4.64 11.36 0 4.164 1.594 8.32 4.64 11.204 5.906 6.078 16.64 6.078 22.546 0 3.046-2.882 4.812-7.040 4.812-11.204 0-4.32-1.766-8.32-4.812-11.36-2.872-2.882-7.030-4.64-11.186-4.64z" />
<glyph unicode="&#xeab5;" d="M299.936 96.804c-4.156 0-8.312 1.758-11.36 4.796-2.876 2.882-4.64 7.040-4.64 11.204 0 4.32 1.766 8.32 4.64 11.36 6.078 5.922 16.796 5.922 22.718 0 3.046-3.040 4.64-7.040 4.64-11.36 0-4.164-1.594-8.32-4.64-11.204-3.030-3.038-7.030-4.796-11.358-4.796z" />
<glyph unicode="&#xeab6;" d="M655.452 27.844c-4.312 0-8.468 1.602-11.36 4.64-3.032 2.876-4.64 7.040-4.64 11.36 0 4.156 1.61 8.32 4.64 11.196 5.766 5.922 16.64 6.086 22.562 0 3.046-2.876 4.796-7.040 4.796-11.196 0-4.32-1.75-8.484-4.796-11.36-2.874-3.038-7.030-4.64-11.202-4.64z" />
<glyph unicode="&#xeab7;" d="M260.888 288.804c-4.156 0-8.312 1.758-11.36 4.796-2.876 2.882-4.64 7.040-4.64 11.204 0 4.32 1.766 8.32 4.64 11.36 5.922 5.922 16.812 5.922 22.734 0 3.032-3.040 4.626-7.040 4.626-11.36 0-4.164-1.594-8.32-4.626-11.204-3.046-3.038-7.202-4.796-11.374-4.796z" />
<glyph unicode="&#xeab8;" d="M463.296-11.36c-4.156 0-8.312 1.766-11.204 4.804-3.032 2.876-4.64 7.040-4.64 11.196 0 4.32 1.61 8.484 4.64 11.36 5.922 5.922 16.64 5.922 22.562 0 3.046-2.876 4.64-7.040 4.64-11.36 0-4.156-1.594-8.32-4.64-11.196-2.874-3.038-7.030-4.804-11.358-4.804z" />
<glyph unicode="&#xeab9;" d="M319.92 448.298c-3.034-2.876-4.782-7.026-4.782-11.336 0-4.156 1.75-8.32 4.796-11.196 2.876-3.040 7.046-4.804 11.204-4.804 4.3 0 8.288 1.76 11.332 4.786l-22.55 22.55z" />
<glyph unicode="&#xeaba;" d="M693.216 59.040c4.146 0 8.29 1.598 11.336 4.626l-22.624 22.624c-0.020-0.020-0.050-0.026-0.072-0.046-2.876-2.882-4.64-7.040-4.64-11.204 0-4.312 1.766-8.476 4.64-11.36 3.032-3.040 7.204-4.64 11.36-4.64z" />
<glyph unicode="&#xeabb;" d="M120 960l212.8-661.601 266.401 74.401-188.801 587.2h-290.4z" />
<glyph unicode="&#xeabc;" d="M614.4 960l-189.601-586.4 265.6-74.401 213.6 660.8h-289.599z" />
<glyph unicode="&#xeabd;" d="M512.001 544c159.199 0 288.001-128.8 288.001-288.001s-128.8-288.001-288.001-288.001-288.001 128.802-288.001 288.001 128.8 288.001 288.001 288.001z" />
<glyph unicode="&#xeabe;" d="M512.001-32c-153.599 0-279.199 120-287.201 272.001l-0.8-16c0-159.199 128.8-288.001 288.001-288.001s288.001 128.8 288.001 288.001c0 5.6 0 10.4-0.8 16-8.001-152-133.601-272.001-287.201-272.001z" />
<glyph unicode="&#xeabf;" d="M512.001 514.401c143.199 0 258.399-116.001 258.399-258.399 0-143.199-116.001-258.399-258.399-258.399s-258.399 115.2-258.399 258.399c-0.002 142.399 115.198 258.399 258.399 258.399z" />
<glyph unicode="&#xeac0;" d="M592 320v80.001h-160v-80.001h39.999v-127.999h-39.999v-80.001h160v80.001h-39.999v127.999h39.999z" />
<glyph unicode="&#xeac1;" d="M16.598 941.256l178.664-178.664 624.9-0.786 188.076 178.616z" />
<glyph unicode="&#xeac2;" d="M373.308 581.19l-356.612 360.164v-270.278l214.926-217.066z" />
<glyph unicode="&#xeac3;" d="M650.692 581.19l356.612 360.164v-270.278l-218.95-221.122z" />
<glyph unicode="&#xeac4;" d="M829.53 288.972c0-177.112-142.163-320.69-317.53-320.69s-317.53 143.578-317.53 320.69c0 177.112 142.163 320.69 317.53 320.69s317.53-143.578 317.53-320.69z" />
<glyph unicode="&#xeac5;" d="M829.53 288.98c0-177.108-142.158-320.69-317.53-320.69v641.38c175.372 0 317.53-143.582 317.53-320.69z" />
<glyph unicode="&#xeac6;" d="M733.964 288.972c0-123.803-99.377-224.166-221.964-224.166s-221.964 100.363-221.964 224.166c0 123.803 99.377 224.166 221.964 224.166s221.964-100.363 221.964-224.166z" />
<glyph unicode="&#xeac7;" d="M290.036 288.98c0 123.804 99.372 224.174 221.964 224.174v-448.348c-122.59 0.002-221.964 100.37-221.964 224.174z" />
<glyph unicode="&#xeac8;" d="M274.576 282.16c0-132.128 106.51-239.622 237.424-239.622s237.424 107.496 237.424 239.622c0 88.092-47.726 168.89-124.552 210.862-8.092 4.418-18.234 1.442-22.658-6.648-4.418-8.092-1.442-18.236 6.648-22.658 66.104-36.114 107.17-105.682 107.17-181.558 0-113.716-91.528-206.232-204.032-206.232s-204.032 92.518-204.032 206.234 91.528 206.232 204.032 206.232c9.222 0 16.696 7.476 16.696 16.696s-7.472 16.696-16.696 16.696c-130.916-0.002-237.424-107.496-237.424-239.624z" />
</font>
</defs>
</svg>
